  0
SECTION
  2
HEADER
  9
$ACADVER
  1
AC1015
  9
$ACADMAINTVER
 70
     6
  9
$DWGCODEPAGE
  3
ANSI_1252
  9
$INSBASE
 10
0.0
 20
0.0
 30
0.0
  9
$EXTMIN
 10
0.0
 20
0.0
 30
0.0
  9
$EXTMAX
 10
2100.0
 20
1485.0
 30
0.0
  9
$LIMMIN
 10
0.0
 20
0.0
  9
$LIMMAX
 10
2100.0
 20
1485.0
  9
$ORTHOMODE
 70
     0
  9
$REGENMODE
 70
     1
  9
$FILLMODE
 70
     1
  9
$QTEXTMODE
 70
     0
  9
$MIRRTEXT
 70
     1
  9
$LTSCALE
 40
5.0
  9
$ATTMODE
 70
     1
  9
$TEXTSIZE
 40
14.1111111111
  9
$TRACEWID
 40
1.0
  9
$TEXTSTYLE
  7
STANDARD
  9
$CLAYER
  8
0
  9
$CELTYPE
  6
ByLayer
  9
$CECOLOR
 62
   256
  9
$CELTSCALE
 40
1.0
  9
$DISPSILH
 70
     0
  9
$DIMSCALE
 40
1.0
  9
$DIMASZ
 40
12.5
  9
$DIMEXO
 40
10.0
  9
$DIMDLI
 40
3.75
  9
$DIMRND
 40
0.0
  9
$DIMDLE
 40
0.0
  9
$DIMEXE
 40
5.0
  9
$DIMTP
 40
0.0
  9
$DIMTM
 40
0.0
  9
$DIMTXT
 40
14.1111111111
  9
$DIMCEN
 40
2.5
  9
$DIMTSZ
 40
0.0
  9
$DIMTOL
 70
     0
  9
$DIMLIM
 70
     0
  9
$DIMTIH
 70
     1
  9
$DIMTOH
 70
     1
  9
$DIMSE1
 70
     0
  9
$DIMSE2
 70
     0
  9
$DIMTAD
 70
     1
  9
$DIMZIN
 70
     0
  9
$DIMBLK
  1

  9
$DIMASO
 70
     1
  9
$DIMSHO
 70
     1
  9
$DIMPOST
  1

  9
$DIMAPOST
  1

  9
$DIMALT
 70
     0
  9
$DIMALTD
 70
     3
  9
$DIMALTF
 40
0.0393700787
  9
$DIMLFAC
 40
1.0
  9
$DIMTOFL
 70
     1
  9
$DIMTVP
 40
0.0
  9
$DIMTIX
 70
     0
  9
$DIMSOXD
 70
     0
  9
$DIMSAH
 70
     0
  9
$DIMBLK1
  1

  9
$DIMBLK2
  1

  9
$DIMSTYLE
  2
ISO-25
  9
$DIMCLRD
 70
     0
  9
$DIMCLRE
 70
     0
  9
$DIMCLRT
 70
     0
  9
$DIMTFAC
 40
1.0
  9
$DIMGAP
 40
7.62
  9
$DIMJUST
 70
     0
  9
$DIMSD1
 70
     0
  9
$DIMSD2
 70
     0
  9
$DIMTOLJ
 70
     0
  9
$DIMTZIN
 70
     0
  9
$DIMALTZ
 70
     0
  9
$DIMALTTZ
 70
     0
  9
$DIMUPT
 70
     0
  9
$DIMDEC
 70
     1
  9
$DIMTDEC
 70
     1
  9
$DIMALTU
 70
     2
  9
$DIMALTTD
 70
     3
  9
$DIMTXSTY
  7
STANDARD
  9
$DIMAUNIT
 70
     0
  9
$DIMADEC
 70
     2
  9
$DIMALTRND
 40
0.0
  9
$DIMAZIN
 70
     0
  9
$DIMDSEP
 70
    44
  9
$DIMATFIT
 70
     3
  9
$DIMFRAC
 70
     0
  9
$DIMLDRBLK
  1

  9
$DIMLUNIT
 70
     2
  9
$DIMLWD
 70
    -2
  9
$DIMLWE
 70
    -2
  9
$DIMTMOVE
 70
     0
  9
$LUNITS
 70
     2
  9
$LUPREC
 70
     2
  9
$SKETCHINC
 40
1.0
  9
$FILLETRAD
 40
10.0
  9
$AUNITS
 70
     0
  9
$AUPREC
 70
     2
  9
$MENU
  1
.
  9
$ELEVATION
 40
0.0
  9
$PELEVATION
 40
0.0
  9
$THICKNESS
 40
0.0
  9
$LIMCHECK
 70
     0
  9
$CHAMFERA
 40
0.0
  9
$CHAMFERB
 40
0.0
  9
$CHAMFERC
 40
0.0
  9
$CHAMFERD
 40
0.0
  9
$SKPOLY
 70
     0
  9
$TDCREATE
 40
2458236.632281967
  9
$TDUCREATE
 40
2458236.132281967
  9
$TDUPDATE
 40
2458236.632284282
  9
$TDUUPDATE
 40
2458236.132284282
  9
$TDINDWG
 40
0.0000000116
  9
$TDUSRTIMER
 40
0.0000000116
  9
$USRTIMER
 70
     1
  9
$ANGBASE
 50
0.0
  9
$ANGDIR
 70
     0
  9
$PDMODE
 70
     0
  9
$PDSIZE
 40
-1.0
  9
$PLINEWID
 40
0.0
  9
$SPLFRAME
 70
     0
  9
$SPLINETYPE
 70
     6
  9
$SPLINESEGS
 70
     8
  9
$HANDSEED
  5
2CA
  9
$SURFTAB1
 70
     6
  9
$SURFTAB2
 70
     6
  9
$SURFTYPE
 70
     6
  9
$SURFU
 70
     6
  9
$SURFV
 70
     6
  9
$UCSBASE
  2

  9
$UCSNAME
  2

  9
$UCSORG
 10
0.0
 20
0.0
 30
0.0
  9
$UCSXDIR
 10
1.0
 20
0.0
 30
0.0
  9
$UCSYDIR
 10
0.0
 20
1.0
 30
0.0
  9
$UCSORTHOREF
  2

  9
$UCSORTHOVIEW
 70
     0
  9
$UCSORGTOP
 10
0.0
 20
0.0
 30
0.0
  9
$UCSORGBOTTOM
 10
0.0
 20
0.0
 30
0.0
  9
$UCSORGLEFT
 10
0.0
 20
0.0
 30
0.0
  9
$UCSORGRIGHT
 10
0.0
 20
0.0
 30
0.0
  9
$UCSORGFRONT
 10
0.0
 20
0.0
 30
0.0
  9
$UCSORGBACK
 10
0.0
 20
0.0
 30
0.0
  9
$PUCSBASE
  2

  9
$PUCSNAME
  2

  9
$PUCSORG
 10
0.0
 20
0.0
 30
0.0
  9
$PUCSXDIR
 10
1.0
 20
0.0
 30
0.0
  9
$PUCSYDIR
 10
0.0
 20
1.0
 30
0.0
  9
$PUCSORTHOREF
  2

  9
$PUCSORTHOVIEW
 70
     0
  9
$PUCSORGTOP
 10
0.0
 20
0.0
 30
0.0
  9
$PUCSORGBOTTOM
 10
0.0
 20
0.0
 30
0.0
  9
$PUCSORGLEFT
 10
0.0
 20
0.0
 30
0.0
  9
$PUCSORGRIGHT
 10
0.0
 20
0.0
 30
0.0
  9
$PUCSORGFRONT
 10
0.0
 20
0.0
 30
0.0
  9
$PUCSORGBACK
 10
0.0
 20
0.0
 30
0.0
  9
$USERI1
 70
     0
  9
$USERI2
 70
     0
  9
$USERI3
 70
     0
  9
$USERI4
 70
     0
  9
$USERI5
 70
     0
  9
$USERR1
 40
0.0
  9
$USERR2
 40
0.0
  9
$USERR3
 40
0.0
  9
$USERR4
 40
0.0
  9
$USERR5
 40
0.0
  9
$WORLDVIEW
 70
     1
  9
$SHADEDGE
 70
     3
  9
$SHADEDIF
 70
    70
  9
$TILEMODE
 70
     1
  9
$MAXACTVP
 70
    64
  9
$PINSBASE
 10
0.0
 20
0.0
 30
0.0
  9
$PLIMCHECK
 70
     0
  9
$PEXTMIN
 10
1.0000000000E+20
 20
1.0000000000E+20
 30
1.0000000000E+20
  9
$PEXTMAX
 10
-1.0000000000E+20
 20
-1.0000000000E+20
 30
-1.0000000000E+20
  9
$PLIMMIN
 10
0.0
 20
0.0
  9
$PLIMMAX
 10
420.0
 20
297.0
  9
$UNITMODE
 70
     0
  9
$VISRETAIN
 70
     1
  9
$PLINEGEN
 70
     0
  9
$PSLTSCALE
 70
     1
  9
$TREEDEPTH
 70
  3020
  9
$CMLSTYLE
  2
Standard
  9
$CMLJUST
 70
     0
  9
$CMLSCALE
 40
20.0
  9
$PROXYGRAPHICS
 70
     1
  9
$MEASUREMENT
 70
     1
  9
$CELWEIGHT
370
    -1
  9
$ENDCAPS
280
     0
  9
$JOINSTYLE
280
     0
  9
$LWDISPLAY
290
     1
  9
$INSUNITS
 70
     4
  9
$HYPERLINKBASE
  1

  9
$STYLESHEET
  1

  9
$XEDIT
290
     1
  9
$CEPSNTYPE
380
     0
  9
$PSTYLEMODE
290
     1
  9
$FINGERPRINTGUID
  2
{4665B9B2-3D85-4F58-B160-5817769B2F71}
  9
$VERSIONGUID
  2
{FAEB1C32-E019-11D5-929B-00C0DF256EC4}
  9
$EXTNAMES
290
     1
  9
$PSVPSCALE
 40
0.0
  9
$OLESTARTUP
290
     0
  0
ENDSEC
  0
SECTION
  2
CLASSES
  0
CLASS
  1
ACDBDICTIONARYWDFLT
  2
AcDbDictionaryWithDefault
  3
ObjectDBX Classes
 90
        0
280
     0
281
     0
  0
CLASS
  1
VISUALSTYLE
  2
AcDbVisualStyle
  3
ObjectDBX Classes
 90
     4095
280
     0
281
     0
  0
CLASS
  1
MATERIAL
  2
AcDbMaterial
  3
ObjectDBX Classes
 90
     1153
280
     0
281
     0
  0
CLASS
  1
SCALE
  2
AcDbScale
  3
ObjectDBX Classes
 90
     1153
280
     0
281
     0
  0
CLASS
  1
TABLESTYLE
  2
AcDbTableStyle
  3
ObjectDBX Classes
 90
     4095
280
     0
281
     0
  0
CLASS
  1
MLEADERSTYLE
  2
AcDbMLeaderStyle
  3
ACDB_MLEADERSTYLE_CLASS
 90
     4095
280
     0
281
     0
  0
CLASS
  1
SUN
  2
AcDbSun
  3
SCENEOE
 90
     1153
280
     0
281
     0
  0
CLASS
  1
ACDBPLACEHOLDER
  2
AcDbPlaceHolder
  3
ObjectDBX Classes
 90
        0
280
     0
281
     0
  0
CLASS
  1
LAYOUT
  2
AcDbLayout
  3
ObjectDBX Classes
 90
        0
280
     0
281
     0
  0
ENDSEC
  0
SECTION
  2
TABLES
  0
TABLE
  2
VPORT
  5
8
330
0
100
AcDbSymbolTable
 70
     1
  0
VPORT
  5
29
330
8
100
AcDbSymbolTableRecord
100
AcDbViewportTableRecord
  2
*Active
 70
     0
 10
0.0
 20
0.0
 11
1.0
 21
1.0
 12
1050.0
 22
742.5
 13
0.0
 23
0.0
 14
10.0
 24
10.0
 15
10.0
 25
10.0
 16
0.0
 26
0.0
 36
1.0
 17
0.0
 27
0.0
 37
0.0
 40
1485.0
 41
1.4141414141
 42
50.0
 43
0.0
 44
0.0
 50
0.0
 51
0.0
 71
     0
 72
  2000
 73
     1
 74
     3
 75
     0
 76
     0
 77
     0
 78
     0
281
     0
 65
     1
110
0.0
120
0.0
130
0.0
111
1.0
121
0.0
131
0.0
112
0.0
122
1.0
132
0.0
 79
     0
146
0.0
  0
ENDTAB
  0
TABLE
  2
LTYPE
  5
5
330
0
100
AcDbSymbolTable
 70
     6
  0
LTYPE
  5
14
330
5
100
AcDbSymbolTableRecord
100
AcDbLinetypeTableRecord
  2
ByBlock
 70
     0
  3

 72
    65
 73
     0
 40
0.0
  0
LTYPE
  5
15
330
5
100
AcDbSymbolTableRecord
100
AcDbLinetypeTableRecord
  2
ByLayer
 70
     0
  3

 72
    65
 73
     0
 40
0.0
  0
LTYPE
  5
16
330
5
100
AcDbSymbolTableRecord
100
AcDbLinetypeTableRecord
  2
Continuous
 70
     0
  3
Solid line
 72
    65
 73
     0
 40
0.0
  0
LTYPE
  5
6E
330
5
100
AcDbSymbolTableRecord
100
AcDbLinetypeTableRecord
  2
HIDDEN
 70
     0
  3
Hidden __ __ __ __ __ __ __ __ __ __ __ __ __ __
 72
    65
 73
     2
 40
1.905
 49
1.27
 74
     0
 49
-0.635
 74
     0
  0
LTYPE
  5
6F
330
5
100
AcDbSymbolTableRecord
100
AcDbLinetypeTableRecord
  2
PHANTOM
 70
     0
  3
Phantom ______  __  __  ______  __  __  ______
 72
    65
 73
     6
 40
12.7
 49
6.35
 74
     0
 49
-1.27
 74
     0
 49
1.27
 74
     0
 49
-1.27
 74
     0
 49
1.27
 74
     0
 49
-1.27
 74
     0
  0
LTYPE
  5
70
330
5
100
AcDbSymbolTableRecord
100
AcDbLinetypeTableRecord
  2
CENTER
 70
     0
  3
Center ____ _ ____ _ ____ _ ____ _ ____ _ ____
 72
    65
 73
     4
 40
10.16
 49
6.35
 74
     0
 49
-1.27
 74
     0
 49
1.27
 74
     0
 49
-1.27
 74
     0
  0
LTYPE
  5
71
330
5
100
AcDbSymbolTableRecord
100
AcDbLinetypeTableRecord
  2
CENTERX2
 70
     0
  3
Center (2x) ________  __  ________  __  _____
 72
    65
 73
     4
 40
20.32
 49
12.7
 74
     0
 49
-2.54
 74
     0
 49
2.54
 74
     0
 49
-2.54
 74
     0
  0
LTYPE
  5
72
330
5
100
AcDbSymbolTableRecord
100
AcDbLinetypeTableRecord
  2
DOT2
 70
     0
  3
Dot (.5x) ........................................
 72
    65
 73
     2
 40
0.635
 49
0.0
 74
     0
 49
-0.635
 74
     0
  0
ENDTAB
  0
TABLE
  2
LAYER
  5
2
330
0
100
AcDbSymbolTable
 70
     3
  0
LAYER
  5
10
330
2
100
AcDbSymbolTableRecord
100
AcDbLayerTableRecord
  2
0
 70
     0
 62
     7
  6
Continuous
370
    -3
390
F
  0
LAYER
  5
73
330
2
100
AcDbSymbolTableRecord
100
AcDbLayerTableRecord
  2
FORMAT
 70
     0
 62
     7
  6
Continuous
370
    -3
390
F
  0
LAYER
  5
74
330
2
100
AcDbSymbolTableRecord
100
AcDbLayerTableRecord
  2
SLD-0
 70
     0
 62
   179
  6
Continuous
370
    -3
390
F
  0
ENDTAB
  0
TABLE
  2
STYLE
  5
3
330
0
100
AcDbSymbolTable
 70
     5
  0
STYLE
  5
11
330
3
100
AcDbSymbolTableRecord
100
AcDbTextStyleTableRecord
  2
STANDARD
 70
     0
 40
0.0
 41
1.0
 50
0.0
 71
     0
 42
14.1111111111
  3
ARIALN.TTF
  4

1001
ACAD
1000
ARIAL NARROW
1071
       34
  0
STYLE
  5
129
330
3
100
AcDbSymbolTableRecord
100
AcDbTextStyleTableRecord
  2
SLDTEXTSTYLE0
 70
     0
 40
0.0
 41
1.0
 50
0.0
 71
     0
 42
14.1111111111
  3
EUROSTILE.TTF
  4

1001
ACAD
1000
Eurostile
1071
      290
  0
STYLE
  5
12D
330
3
100
AcDbSymbolTableRecord
100
AcDbTextStyleTableRecord
  2
SLDTEXTSTYLE1
 70
     0
 40
0.0
 41
0.948
 50
0.0
 71
     0
 42
14.1111111111
  3
ARIAL.TTF
  4

1001
ACAD
1000
Arial
1071
      290
  0
STYLE
  5
172
330
3
100
AcDbSymbolTableRecord
100
AcDbTextStyleTableRecord
  2
SLDTEXTSTYLE2
 70
     0
 40
0.0
 41
0.948
 50
0.0
 71
     0
 42
14.1111111111
  3
ARIALBD.TTF
  4

1001
ACAD
1000
Arial
1071
 33554722
  0
STYLE
  5
19A
330
3
100
AcDbSymbolTableRecord
100
AcDbTextStyleTableRecord
  2
SLDTEXTSTYLE3
 70
     0
 40
0.0
 41
0.87
 50
0.0
 71
     0
 42
14.1111111111
  3
ARIALN.TTF
  4

1001
ACAD
1000
Arial Narrow
1071
      290
  0
ENDTAB
  0
TABLE
  2
VIEW
  5
6
330
0
100
AcDbSymbolTable
 70
     0
  0
ENDTAB
  0
TABLE
  2
UCS
  5
7
330
0
100
AcDbSymbolTable
 70
     0
  0
ENDTAB
  0
TABLE
  2
APPID
  5
9
330
0
100
AcDbSymbolTable
 70
     1
  0
APPID
  5
12
330
9
100
AcDbSymbolTableRecord
100
AcDbRegAppTableRecord
  2
ACAD
 70
     0
  0
ENDTAB
  0
TABLE
  2
DIMSTYLE
  5
A
330
0
100
AcDbSymbolTable
 70
     7
100
AcDbDimStyleTable
  0
DIMSTYLE
105
27
330
A
100
AcDbSymbolTableRecord
100
AcDbDimStyleTableRecord
  2
ISO-25
 70
     0
 41
2.5
 42
0.625
 43
3.75
 44
1.25
 73
     0
 74
     0
 77
     1
 78
     8
140
2.5
141
2.5
143
0.0393700787
147
0.625
171
     3
172
     1
178
     0
271
     2
272
     2
274
     3
278
    44
283
     0
284
     8
340
11
  0
DIMSTYLE
105
19B
102
{ACAD_REACTORS
330
199
330
1B2
330
202
330
20C
330
216
330
220
330
22A
330
26C
330
276
102
}
330
A
100
AcDbSymbolTableRecord
100
AcDbDimStyleTableRecord
  2
SLDDIMSTYLE0
 70
     0
 41
12.5
 44
0.0
 45
0.000000001
 73
     0
 74
     0
 77
     1
 78
    12
 79
     3
140
10.2732747396
147
2.5683186849
173
     1
178
     0
271
     1
272
     1
276
     2
284
    12
340
19A
  0
DIMSTYLE
105
1A6
102
{ACAD_REACTORS
330
1A5
102
}
330
A
100
AcDbSymbolTableRecord
100
AcDbDimStyleTableRecord
  2
SLDDIMSTYLE1
 70
     0
 41
12.5
 44
0.0
 45
0.000000001
 73
     0
 74
     0
 77
     1
 78
    12
 79
     3
140
10.2732747396
147
2.5683186849
172
     1
173
     1
178
     0
271
     1
272
     1
276
     2
284
    12
289
     0
340
19A
  0
DIMSTYLE
105
1BD
102
{ACAD_REACTORS
330
1BC
102
}
330
A
100
AcDbSymbolTableRecord
100
AcDbDimStyleTableRecord
  2
SLDDIMSTYLE2
 70
     0
 41
12.5
 44
0.0
 73
     0
 74
     0
 77
     1
 78
    12
 79
     3
140
10.2732747396
144
5.0
147
2.5683186849
173
     1
178
     0
179
     2
272
     2
276
     2
284
    12
340
19A
  0
DIMSTYLE
105
1C6
102
{ACAD_REACTORS
330
1C5
102
}
330
A
100
AcDbSymbolTableRecord
100
AcDbDimStyleTableRecord
  2
SLDDIMSTYLE3
 70
     0
 41
12.5
 44
0.0
 45
0.000000001
 73
     0
 74
     0
 77
     1
 78
    12
 79
     3
140
10.2732747396
141
0.0
147
2.5683186849
173
     1
178
     0
271
     1
272
     1
276
     2
279
     1
284
    12
340
19A
341
1C7
343
1C7
344
1C7
  0
DIMSTYLE
105
1D0
102
{ACAD_REACTORS
330
1CF
102
}
330
A
100
AcDbSymbolTableRecord
100
AcDbDimStyleTableRecord
  2
SLDDIMSTYLE4
 70
     0
 41
12.5
 44
0.0
 45
0.000000001
 73
     0
 74
     0
 77
     1
 78
    12
 79
     3
140
10.2732747396
147
2.5683186849
173
     1
178
     0
271
     0
272
     0
276
     2
284
    12
340
19A
  0
DIMSTYLE
105
260
102
{ACAD_REACTORS
330
25F
330
266
102
}
330
A
100
AcDbSymbolTableRecord
100
AcDbDimStyleTableRecord
  2
SLDDIMSTYLE5
 70
     0
 41
12.5
 44
0.0
 45
0.000000001
 73
     0
 74
     0
 77
     1
 78
    12
 79
     3
140
10.2732747396
141
0.0
147
2.5683186849
173
     1
178
     0
271
     1
272
     1
276
     2
284
    12
340
19A
341
1C7
343
1C7
344
1C7
  0
ENDTAB
  0
TABLE
  2
BLOCK_RECORD
  5
1
330
0
100
AcDbSymbolTable
 70
    18
  0
BLOCK_RECORD
  5
1F
330
1
100
AcDbSymbolTableRecord
100
AcDbBlockTableRecord
  2
*Model_Space
340
22
  0
BLOCK_RECORD
  5
1B
330
1
100
AcDbSymbolTableRecord
100
AcDbBlockTableRecord
  2
*Paper_Space
340
1E
  0
BLOCK_RECORD
  5
23
330
1
100
AcDbSymbolTableRecord
100
AcDbBlockTableRecord
  2
*Paper_Space0
340
26
  0
BLOCK_RECORD
  5
16B
330
1
100
AcDbSymbolTableRecord
100
AcDbBlockTableRecord
  2
SW_NOTE_0
340
0
102
{BLKREFS
331
171
102
}
  0
BLOCK_RECORD
  5
19C
330
1
100
AcDbSymbolTableRecord
100
AcDbBlockTableRecord
  2
_D
340
0
  0
BLOCK_RECORD
  5
1A7
330
1
100
AcDbSymbolTableRecord
100
AcDbBlockTableRecord
  2
_D_1
340
0
  0
BLOCK_RECORD
  5
1B3
330
1
100
AcDbSymbolTableRecord
100
AcDbBlockTableRecord
  2
_D_2
340
0
  0
BLOCK_RECORD
  5
1BE
330
1
100
AcDbSymbolTableRecord
100
AcDbBlockTableRecord
  2
_D_3
340
0
  0
BLOCK_RECORD
  5
1C7
330
1
100
AcDbSymbolTableRecord
100
AcDbBlockTableRecord
  2
_NONE
340
0
  0
BLOCK_RECORD
  5
1CA
330
1
100
AcDbSymbolTableRecord
100
AcDbBlockTableRecord
  2
_D_4
340
0
  0
BLOCK_RECORD
  5
1D1
330
1
100
AcDbSymbolTableRecord
100
AcDbBlockTableRecord
  2
_D_5
340
0
  0
BLOCK_RECORD
  5
203
330
1
100
AcDbSymbolTableRecord
100
AcDbBlockTableRecord
  2
_D_6
340
0
  0
BLOCK_RECORD
  5
20D
330
1
100
AcDbSymbolTableRecord
100
AcDbBlockTableRecord
  2
_D_7
340
0
  0
BLOCK_RECORD
  5
217
330
1
100
AcDbSymbolTableRecord
100
AcDbBlockTableRecord
  2
_D_8
340
0
  0
BLOCK_RECORD
  5
221
330
1
100
AcDbSymbolTableRecord
100
AcDbBlockTableRecord
  2
_D_9
340
0
  0
BLOCK_RECORD
  5
22B
330
1
100
AcDbSymbolTableRecord
100
AcDbBlockTableRecord
  2
_D_10
340
0
  0
BLOCK_RECORD
  5
261
330
1
100
AcDbSymbolTableRecord
100
AcDbBlockTableRecord
  2
_D_11
340
0
  0
BLOCK_RECORD
  5
267
330
1
100
AcDbSymbolTableRecord
100
AcDbBlockTableRecord
  2
_D_12
340
0
  0
BLOCK_RECORD
  5
26D
330
1
100
AcDbSymbolTableRecord
100
AcDbBlockTableRecord
  2
_D_13
340
0
  0
BLOCK_RECORD
  5
277
330
1
100
AcDbSymbolTableRecord
100
AcDbBlockTableRecord
  2
_D_14
340
0
  0
ENDTAB
  0
ENDSEC
  0
SECTION
  2
BLOCKS
  0
BLOCK
  5
20
330
1F
100
AcDbEntity
  8
0
100
AcDbBlockBegin
  2
*Model_Space
 70
     0
 10
0.0
 20
0.0
 30
0.0
  3
*Model_Space
  1

  0
ENDBLK
  5
21
330
1F
100
AcDbEntity
  8
0
100
AcDbBlockEnd
  0
BLOCK
  5
1C
330
1B
100
AcDbEntity
 67
     1
  8
0
100
AcDbBlockBegin
  2
*Paper_Space
 70
     0
 10
0.0
 20
0.0
 30
0.0
  3
*Paper_Space
  1

  0
ENDBLK
  5
1D
330
1B
100
AcDbEntity
 67
     1
  8
0
100
AcDbBlockEnd
  0
BLOCK
  5
24
330
23
100
AcDbEntity
  8
0
100
AcDbBlockBegin
  2
*Paper_Space0
 70
     0
 10
0.0
 20
0.0
 30
0.0
  3
*Paper_Space0
  1

  0
ENDBLK
  5
25
330
23
100
AcDbEntity
  8
0
100
AcDbBlockEnd
  0
BLOCK
  5
16C
330
16B
100
AcDbEntity
  8
0
100
AcDbBlockBegin
  2
SW_NOTE_0
 70
     0
 10
0.0
 20
0.0
 30
0.0
  3
SW_NOTE_0
  1

  0
MTEXT
  5
16E
330
16B
100
AcDbEntity
  8
SLD-0
 62
     0
100
AcDbMText
 10
0.0
 20
6.8213167896
 30
0.0
 40
5.2916666667
 41
0.0
 71
     1
 72
     1
  1
DISCLAIMER : THE DESIGN SUGGESTION IS PROVIDED FOR EVALUATION PURPOSES ONLY.
  7
SLDTEXTSTYLE1
 73
     1
 44
1.0
  0
MTEXT
  5
16F
330
16B
100
AcDbEntity
  8
SLD-0
 62
     0
100
AcDbMText
 10
0.0
 20
-7.2897941509
 30
0.0
 40
5.2916666667
 41
0.0
 71
     1
 72
     1
  3
IT IS NOT TO BE CONSIDERED A FULL DESIGN AS WE ARE NOT THE CONSULTING ENGINEERS; WE ARE MANUFACTURERS. WE ARE NOT PRIVY TO ALL THE INFORMATION PERTAINING TO THIS MATTER AND WE HAVE NO CONTROL OVER THE PROJECT INSTALLATION OF THE PRODUCT. THE DESIGN 
  1
SUGGESTION IS PROVIDED WITHOUT OBLIGATION. 
  7
SLDTEXTSTYLE1
 73
     1
 44
1.0
  0
MTEXT
  5
170
330
16B
100
AcDbEntity
  8
SLD-0
 62
     0
100
AcDbMText
 10
0.0
 20
-14.3453496212
 30
0.0
 40
5.2916666667
 41
0.0
 71
     1
 72
     1
  3
DESIGN IS TO  BE CONFIRMED AND APPROVED BY THE ARCHITECT, HYDRAULICS ENGINEER, OR PROJECT MANAGER. ACCURATE MEASUREMENTS SHOULD BE CONFIRMED BY THE PERSON APPROVING THE DESIGN. ALLPROOF ACCEPTS NO LIABILITY FOR THE IMPROPER USE OF THE DESIGN SUGGEST
  1
ION.
  7
SLDTEXTSTYLE1
 73
     1
 44
1.0
  0
ENDBLK
  5
16D
330
16B
100
AcDbEntity
  8
0
100
AcDbBlockEnd
  0
BLOCK
  5
19D
330
19C
100
AcDbEntity
  8
0
100
AcDbBlockBegin
  2
_D
 70
     0
 10
0.0
 20
0.0
 30
0.0
  3
_D
  1

  0
SOLID
  5
19F
330
19C
100
AcDbEntity
  8
SLD-0
 62
     1
100
AcDbTrace
 10
875.4440750517
 20
404.8271694915
 30
0.0
 11
879.9440750517
 21
417.3271694915
 31
0.0
 12
870.9440750517
 22
417.3271694915
 32
0.0
 13
870.9440750517
 23
417.3271694915
 33
0.0
  0
SOLID
  5
1A0
330
19C
100
AcDbEntity
  8
SLD-0
 62
     1
100
AcDbTrace
 10
875.4440750517
 20
579.8271694915
 30
0.0
 11
870.9440750517
 21
567.3271694915
 31
0.0
 12
879.9440750517
 22
567.3271694915
 32
0.0
 13
879.9440750517
 23
567.3271694915
 33
0.0
  0
LINE
  5
1A1
330
19C
100
AcDbEntity
  8
SLD-0
 62
     1
100
AcDbLine
 10
805.4440750517
 20
404.8271694915
 30
0.0
 11
880.4440750517
 21
404.8271694915
 31
0.0
  0
LINE
  5
1A2
330
19C
100
AcDbEntity
  8
SLD-0
 62
     1
100
AcDbLine
 10
688.0440750517
 20
579.8271694915
 30
0.0
 11
880.4440750517
 21
579.8271694915
 31
0.0
  0
LINE
  5
1A3
330
19C
100
AcDbEntity
  8
SLD-0
 62
     1
100
AcDbLine
 10
875.4440750517
 20
404.8271694915
 30
0.0
 11
875.4440750517
 21
579.8271694915
 31
0.0
  0
MTEXT
  5
1A4
330
19C
100
AcDbEntity
  8
SLD-0
 62
     1
100
AcDbMText
 10
861.8014414724
 20
482.6900455133
 30
0.0
 40
10.5833333333
 41
0.0
 71
     1
 72
     1
  1
175
  7
SLDTEXTSTYLE3
 11
6.123233995736766E-17
 21
1.0
 31
0.0
 73
     1
 44
1.0
  0
ENDBLK
  5
19E
330
19C
100
AcDbEntity
  8
0
100
AcDbBlockEnd
  0
BLOCK
  5
1A8
330
1A7
100
AcDbEntity
  8
0
100
AcDbBlockBegin
  2
_D_1
 70
     0
 10
0.0
 20
0.0
 30
0.0
  3
_D_1
  1

  0
SOLID
  5
1AA
330
1A7
100
AcDbEntity
  8
SLD-0
 62
     1
100
AcDbTrace
 10
678.0440750517
 20
629.8271694915
 30
0.0
 11
690.5440750517
 21
625.3271694915
 31
0.0
 12
690.5440750517
 22
634.3271694915
 32
0.0
 13
690.5440750517
 23
634.3271694915
 33
0.0
  0
SOLID
  5
1AB
330
1A7
100
AcDbEntity
  8
SLD-0
 62
     1
100
AcDbTrace
 10
675.4440750517
 20
629.8271694915
 30
0.0
 11
662.9440750517
 21
634.3271694915
 31
0.0
 12
662.9440750517
 22
625.3271694915
 32
0.0
 13
662.9440750517
 23
625.3271694915
 33
0.0
  0
LINE
  5
1AC
330
1A7
100
AcDbEntity
  8
SLD-0
 62
     1
100
AcDbLine
 10
678.0440750517
 20
589.8271694915
 30
0.0
 11
678.0440750517
 21
634.8271694915
 31
0.0
  0
LINE
  5
1AD
330
1A7
100
AcDbEntity
  8
SLD-0
 62
     1
100
AcDbLine
 10
675.4440750517
 20
589.8271694915
 30
0.0
 11
675.4440750517
 21
634.8271694915
 31
0.0
  0
LINE
  5
1AE
330
1A7
100
AcDbEntity
  8
SLD-0
 62
     1
100
AcDbLine
 10
678.0440750517
 20
629.8271694915
 30
0.0
 11
736.9556065935
 21
629.8271694915
 31
0.0
  0
LINE
  5
1AF
330
1A7
100
AcDbEntity
  8
SLD-0
 62
     1
100
AcDbLine
 10
678.0440750517
 20
629.8271694915
 30
0.0
 11
675.4440750517
 21
629.8271694915
 31
0.0
  0
LINE
  5
1B0
330
1A7
100
AcDbEntity
  8
SLD-0
 62
     1
100
AcDbLine
 10
675.4440750517
 20
629.8271694915
 30
0.0
 11
650.4440750517
 21
629.8271694915
 31
0.0
  0
MTEXT
  5
1B1
330
1A7
100
AcDbEntity
  8
SLD-0
 62
     1
100
AcDbMText
 10
712.9631120431
 20
643.4698030708
 30
0.0
 40
10.5833333333
 41
0.0
 71
     1
 72
     1
  1
2.6
  7
SLDTEXTSTYLE3
 73
     1
 44
1.0
  0
ENDBLK
  5
1A9
330
1A7
100
AcDbEntity
  8
0
100
AcDbBlockEnd
  0
BLOCK
  5
1B4
330
1B3
100
AcDbEntity
  8
0
100
AcDbBlockBegin
  2
_D_2
 70
     0
 10
0.0
 20
0.0
 30
0.0
  3
_D_2
  1

  0
SOLID
  5
1B6
330
1B3
100
AcDbEntity
  8
SLD-0
 62
     1
100
AcDbTrace
 10
845.4440750517
 20
503.6781745874
 30
0.0
 11
840.9440750517
 21
491.1781745874
 31
0.0
 12
849.9440750517
 22
491.1781745874
 32
0.0
 13
849.9440750517
 23
491.1781745874
 33
0.0
  0
SOLID
  5
1B7
330
1B3
100
AcDbEntity
  8
SLD-0
 62
     1
100
AcDbTrace
 10
845.4440750517
 20
404.8271694915
 30
0.0
 11
849.9440750517
 21
417.3271694915
 31
0.0
 12
840.9440750517
 22
417.3271694915
 32
0.0
 13
840.9440750517
 23
417.3271694915
 33
0.0
  0
LINE
  5
1B8
330
1B3
100
AcDbEntity
  8
SLD-0
 62
     1
100
AcDbLine
 10
682.6010829204
 20
503.6781745874
 30
0.0
 11
850.4440750517
 21
503.6781745874
 31
0.0
  0
LINE
  5
1B9
330
1B3
100
AcDbEntity
  8
SLD-0
 62
     1
100
AcDbLine
 10
805.4440750517
 20
404.8271694915
 30
0.0
 11
850.4440750517
 21
404.8271694915
 31
0.0
  0
LINE
  5
1BA
330
1B3
100
AcDbEntity
  8
SLD-0
 62
     1
100
AcDbLine
 10
845.4440750517
 20
503.6781745874
 30
0.0
 11
845.4440750517
 21
404.8271694915
 31
0.0
  0
MTEXT
  5
1BB
330
1B3
100
AcDbEntity
  8
SLD-0
 62
     1
100
AcDbMText
 10
831.8014414724
 20
443.0059213583
 30
0.0
 40
10.5833333333
 41
0.0
 71
     1
 72
     1
  1
98.9
  7
SLDTEXTSTYLE3
 11
-7.044195017643634E-15
 21
1.0
 31
0.0
 73
     1
 44
1.0
  0
ENDBLK
  5
1B5
330
1B3
100
AcDbEntity
  8
0
100
AcDbBlockEnd
  0
BLOCK
  5
1BF
330
1BE
100
AcDbEntity
  8
0
100
AcDbBlockBegin
  2
_D_3
 70
     0
 10
0.0
 20
0.0
 30
0.0
  3
_D_3
  1

  0
ARC
  5
1C1
330
1BE
100
AcDbEntity
  8
SLD-0
 62
     1
100
AcDbCircle
 10
675.4440750517
 20
404.8271694915
 30
0.0
 40
93.87826920862244
100
AcDbArc
 50
183.0
 51
0.0
  0
SOLID
  5
1C2
330
1BE
100
AcDbEntity
  8
SLD-0
 62
     1
100
AcDbTrace
 10
581.6944627483
 20
399.9139605021
 30
0.0
 11
578.7044039106
 21
386.9694810553
 31
0.0
 12
587.6412385887
 22
388.0338991763
 32
0.0
 13
587.6412385887
 23
388.0338991763
 33
0.0
  0
SOLID
  5
1C3
330
1BE
100
AcDbEntity
  8
SLD-0
 62
     1
100
AcDbTrace
 10
769.3223442603
 20
404.8271694915
 30
0.0
 11
764.0054726393
 21
392.6521591768
 31
0.0
 12
772.9857670362
 22
392.0569175925
 32
0.0
 13
772.9857670362
 23
392.0569175925
 33
0.0
  0
MTEXT
  5
1C4
330
1BE
100
AcDbEntity
  8
SLD-0
 62
     1
100
AcDbMText
 10
667.8065912183
 20
323.9891551571
 30
0.0
 40
10.5833333333
 41
0.0
 71
     1
 72
     1
  1
177°
  7
SLDTEXTSTYLE3
 11
0.9982056354260319
 21
0.05987912327106849
 31
0.0
 73
     1
 44
1.0
  0
ENDBLK
  5
1C0
330
1BE
100
AcDbEntity
  8
0
100
AcDbBlockEnd
  0
BLOCK
  5
1C8
330
1C7
100
AcDbEntity
  8
0
100
AcDbBlockBegin
  2
_NONE
 70
     0
 10
0.0
 20
0.0
 30
0.0
  3
_NONE
  1

  0
ENDBLK
  5
1C9
330
1C7
100
AcDbEntity
  8
0
100
AcDbBlockEnd
  0
BLOCK
  5
1CB
330
1CA
100
AcDbEntity
  8
0
100
AcDbBlockBegin
  2
_D_4
 70
     0
 10
0.0
 20
0.0
 30
0.0
  3
_D_4
  1

  0
MTEXT
  5
1CD
330
1CA
100
AcDbEntity
  8
SLD-0
 62
     1
100
AcDbMText
 10
701.5374933241
 20
452.2843300379
 30
0.0
 40
10.5833333333
 41
0.0
 71
     1
 72
     1
  1
R
  7
SLDTEXTSTYLE3
 11
0.6767134500828725
 21
0.7362464984479964
 31
0.0
 73
     1
 44
1.0
  0
MTEXT
  5
1CE
330
1CA
100
AcDbEntity
  8
SLD-0
 62
     1
100
AcDbMText
 10
707.179281016
 20
458.4224471873
 30
0.0
 40
10.5833333333
 41
0.0
 71
     1
 72
     1
  1
7.4
  7
SLDTEXTSTYLE3
 11
0.6767134500828725
 21
0.7362464984479964
 31
0.0
 73
     1
 44
1.0
  0
ENDBLK
  5
1CC
330
1CA
100
AcDbEntity
  8
0
100
AcDbBlockEnd
  0
BLOCK
  5
1D2
330
1D1
100
AcDbEntity
  8
0
100
AcDbBlockBegin
  2
_D_5
 70
     0
 10
0.0
 20
0.0
 30
0.0
  3
_D_5
  1

  0
SOLID
  5
1D4
330
1D1
100
AcDbEntity
  8
SLD-0
 62
     1
100
AcDbTrace
 10
224.7929290118
 20
381.2095436962
 30
0.0
 11
228.6325624652
 21
393.9279246838
 31
0.0
 12
219.6448966524
 22
393.4569010776
 32
0.0
 13
219.6448966524
 23
393.4569010776
 33
0.0
  0
SOLID
  5
1D5
330
1D1
100
AcDbEntity
  8
SLD-0
 62
     1
100
AcDbTrace
 10
219.6187700801
 20
479.938377517
 30
0.0
 11
215.7791366267
 21
467.2199965294
 31
0.0
 12
224.7668024395
 22
467.6910201356
 32
0.0
 13
224.7668024395
 23
467.6910201356
 33
0.0
  0
LINE
  5
1D6
330
1D1
100
AcDbEntity
  8
SLD-0
 62
     1
100
AcDbLine
 10
224.7929290118
 20
381.2095436962
 30
0.0
 11
219.6187700801
 21
479.938377517
 31
0.0
  0
LINE
  5
1D7
330
1D1
100
AcDbEntity
  8
SLD-0
 62
     1
100
AcDbLine
 10
219.6187700801
 20
479.938377517
 30
0.0
 11
217.1580032242
 21
526.8926062505
 31
0.0
  0
MTEXT
  5
1D8
330
1D1
100
AcDbEntity
  8
SLD-0
 62
     1
100
AcDbMText
 10
204.622333857
 20
505.4132258786
 30
0.0
 40
10.5833333333
 41
0.0
 71
     1
 72
     1
  1
99
  7
SLDTEXTSTYLE3
 11
-0.05233595624294052
 21
0.9986295347545741
 31
0.0
 73
     1
 44
1.0
  0
ENDBLK
  5
1D3
330
1D1
100
AcDbEntity
  8
0
100
AcDbBlockEnd
  0
BLOCK
  5
204
330
203
100
AcDbEntity
  8
0
100
AcDbBlockBegin
  2
_D_6
 70
     0
 10
0.0
 20
0.0
 30
0.0
  3
_D_6
  1

  0
SOLID
  5
206
330
203
100
AcDbEntity
  8
SLD-0
 62
     1
100
AcDbTrace
 10
175.4440750517
 20
1306.2595755457
 30
0.0
 11
187.9440750517
 21
1301.7595755457
 31
0.0
 12
187.9440750517
 22
1310.7595755457
 32
0.0
 13
187.9440750517
 23
1310.7595755457
 33
0.0
  0
SOLID
  5
207
330
203
100
AcDbEntity
  8
SLD-0
 62
     1
100
AcDbTrace
 10
675.4440750517
 20
1306.2595755457
 30
0.0
 11
662.9440750517
 21
1310.7595755457
 31
0.0
 12
662.9440750517
 22
1301.7595755457
 32
0.0
 13
662.9440750517
 23
1301.7595755457
 33
0.0
  0
LINE
  5
208
330
203
100
AcDbEntity
  8
SLD-0
 62
     1
100
AcDbLine
 10
175.4440750517
 20
1135.2595755457
 30
0.0
 11
175.4440750517
 21
1311.2595755457
 31
0.0
  0
LINE
  5
209
330
203
100
AcDbEntity
  8
SLD-0
 62
     1
100
AcDbLine
 10
675.4440750517
 20
1266.2595755457
 30
0.0
 11
675.4440750517
 21
1311.2595755457
 31
0.0
  0
LINE
  5
20A
330
203
100
AcDbEntity
  8
SLD-0
 62
     1
100
AcDbLine
 10
175.4440750517
 20
1306.2595755457
 30
0.0
 11
675.4440750517
 21
1306.2595755457
 31
0.0
  0
MTEXT
  5
20B
330
203
100
AcDbEntity
  8
SLD-0
 62
     1
100
AcDbMText
 10
415.8069510735
 20
1319.9022091249
 30
0.0
 40
10.5833333333
 41
0.0
 71
     1
 72
     1
  1
500
  7
SLDTEXTSTYLE3
 73
     1
 44
1.0
  0
ENDBLK
  5
205
330
203
100
AcDbEntity
  8
0
100
AcDbBlockEnd
  0
BLOCK
  5
20E
330
20D
100
AcDbEntity
  8
0
100
AcDbBlockBegin
  2
_D_7
 70
     0
 10
0.0
 20
0.0
 30
0.0
  3
_D_7
  1

  0
SOLID
  5
210
330
20D
100
AcDbEntity
  8
SLD-0
 62
     1
100
AcDbTrace
 10
675.4440750517
 20
1306.2595755457
 30
0.0
 11
687.9440750517
 21
1301.7595755457
 31
0.0
 12
687.9440750517
 22
1310.7595755457
 32
0.0
 13
687.9440750517
 23
1310.7595755457
 33
0.0
  0
SOLID
  5
211
330
20D
100
AcDbEntity
  8
SLD-0
 62
     1
100
AcDbTrace
 10
795.4440750517
 20
1306.2595755457
 30
0.0
 11
782.9440750517
 21
1310.7595755457
 31
0.0
 12
782.9440750517
 22
1301.7595755457
 32
0.0
 13
782.9440750517
 23
1301.7595755457
 33
0.0
  0
LINE
  5
212
330
20D
100
AcDbEntity
  8
SLD-0
 62
     1
100
AcDbLine
 10
675.4440750517
 20
1266.2595755457
 30
0.0
 11
675.4440750517
 21
1311.2595755457
 31
0.0
  0
LINE
  5
213
330
20D
100
AcDbEntity
  8
SLD-0
 62
     1
100
AcDbLine
 10
795.4440750517
 20
1216.2595755457
 30
0.0
 11
795.4440750517
 21
1311.2595755457
 31
0.0
  0
LINE
  5
214
330
20D
100
AcDbEntity
  8
SLD-0
 62
     1
100
AcDbLine
 10
675.4440750517
 20
1306.2595755457
 30
0.0
 11
795.4440750517
 21
1306.2595755457
 31
0.0
  0
MTEXT
  5
215
330
20D
100
AcDbEntity
  8
SLD-0
 62
     1
100
AcDbMText
 10
725.8069510735
 20
1319.9022091249
 30
0.0
 40
10.5833333333
 41
0.0
 71
     1
 72
     1
  1
120
  7
SLDTEXTSTYLE3
 73
     1
 44
1.0
  0
ENDBLK
  5
20F
330
20D
100
AcDbEntity
  8
0
100
AcDbBlockEnd
  0
BLOCK
  5
218
330
217
100
AcDbEntity
  8
0
100
AcDbBlockBegin
  2
_D_8
 70
     0
 10
0.0
 20
0.0
 30
0.0
  3
_D_8
  1

  0
SOLID
  5
21A
330
217
100
AcDbEntity
  8
SLD-0
 62
     1
100
AcDbTrace
 10
795.4440750517
 20
1336.2595755457
 30
0.0
 11
782.9440750517
 21
1340.7595755457
 31
0.0
 12
782.9440750517
 22
1331.7595755457
 32
0.0
 13
782.9440750517
 23
1331.7595755457
 33
0.0
  0
SOLID
  5
21B
330
217
100
AcDbEntity
  8
SLD-0
 62
     1
100
AcDbTrace
 10
175.4440750517
 20
1336.2595755457
 30
0.0
 11
187.9440750517
 21
1331.7595755457
 31
0.0
 12
187.9440750517
 22
1340.7595755457
 32
0.0
 13
187.9440750517
 23
1340.7595755457
 33
0.0
  0
LINE
  5
21C
330
217
100
AcDbEntity
  8
SLD-0
 62
     1
100
AcDbLine
 10
795.4440750517
 20
1216.2595755457
 30
0.0
 11
795.4440750517
 21
1341.2595755457
 31
0.0
  0
LINE
  5
21D
330
217
100
AcDbEntity
  8
SLD-0
 62
     1
100
AcDbLine
 10
175.4440750517
 20
1135.2595755457
 30
0.0
 11
175.4440750517
 21
1341.2595755457
 31
0.0
  0
LINE
  5
21E
330
217
100
AcDbEntity
  8
SLD-0
 62
     1
100
AcDbLine
 10
795.4440750517
 20
1336.2595755457
 30
0.0
 11
175.4440750517
 21
1336.2595755457
 31
0.0
  0
MTEXT
  5
21F
330
217
100
AcDbEntity
  8
SLD-0
 62
     1
100
AcDbMText
 10
475.8069510735
 20
1349.9022091249
 30
0.0
 40
10.5833333333
 41
0.0
 71
     1
 72
     1
  1
620
  7
SLDTEXTSTYLE3
 73
     1
 44
1.0
  0
ENDBLK
  5
219
330
217
100
AcDbEntity
  8
0
100
AcDbBlockEnd
  0
BLOCK
  5
222
330
221
100
AcDbEntity
  8
0
100
AcDbBlockBegin
  2
_D_9
 70
     0
 10
0.0
 20
0.0
 30
0.0
  3
_D_9
  1

  0
SOLID
  5
224
330
221
100
AcDbEntity
  8
SLD-0
 62
     1
100
AcDbTrace
 10
845.4440750517
 20
1256.2595755457
 30
0.0
 11
840.9440750517
 21
1243.7595755457
 31
0.0
 12
849.9440750517
 22
1243.7595755457
 32
0.0
 13
849.9440750517
 23
1243.7595755457
 33
0.0
  0
SOLID
  5
225
330
221
100
AcDbEntity
  8
SLD-0
 62
     1
100
AcDbTrace
 10
845.4440750517
 20
911.2595755457
 30
0.0
 11
849.9440750517
 21
923.7595755457
 31
0.0
 12
840.9440750517
 22
923.7595755457
 32
0.0
 13
840.9440750517
 23
923.7595755457
 33
0.0
  0
LINE
  5
226
330
221
100
AcDbEntity
  8
SLD-0
 62
     1
100
AcDbLine
 10
755.4440750517
 20
1256.2595755457
 30
0.0
 11
850.4440750517
 21
1256.2595755457
 31
0.0
  0
LINE
  5
227
330
221
100
AcDbEntity
  8
SLD-0
 62
     1
100
AcDbLine
 10
755.4440750517
 20
911.2595755457
 30
0.0
 11
850.4440750517
 21
911.2595755457
 31
0.0
  0
LINE
  5
228
330
221
100
AcDbEntity
  8
SLD-0
 62
     1
100
AcDbLine
 10
845.4440750517
 20
1256.2595755457
 30
0.0
 11
845.4440750517
 21
911.2595755457
 31
0.0
  0
MTEXT
  5
229
330
221
100
AcDbEntity
  8
SLD-0
 62
     1
100
AcDbMText
 10
831.8014414724
 20
1074.1224515675
 30
0.0
 40
10.5833333333
 41
0.0
 71
     1
 72
     1
  1
345
  7
SLDTEXTSTYLE3
 11
-1.326144395554451E-14
 21
1.0
 31
0.0
 73
     1
 44
1.0
  0
ENDBLK
  5
223
330
221
100
AcDbEntity
  8
0
100
AcDbBlockEnd
  0
BLOCK
  5
22C
330
22B
100
AcDbEntity
  8
0
100
AcDbBlockBegin
  2
_D_10
 70
     0
 10
0.0
 20
0.0
 30
0.0
  3
_D_10
  1

  0
SOLID
  5
22E
330
22B
100
AcDbEntity
  8
SLD-0
 62
     1
100
AcDbTrace
 10
125.4440500517
 20
1133.2595755457
 30
0.0
 11
120.9440500517
 21
1120.7595755457
 31
0.0
 12
129.9440500517
 22
1120.7595755457
 32
0.0
 13
129.9440500517
 23
1120.7595755457
 33
0.0
  0
SOLID
  5
22F
330
22B
100
AcDbEntity
  8
SLD-0
 62
     1
100
AcDbTrace
 10
125.4440500517
 20
1034.2595755457
 30
0.0
 11
129.9440500517
 21
1046.7595755457
 31
0.0
 12
120.9440500517
 22
1046.7595755457
 32
0.0
 13
120.9440500517
 23
1046.7595755457
 33
0.0
  0
LINE
  5
230
330
22B
100
AcDbEntity
  8
SLD-0
 62
     1
100
AcDbLine
 10
165.4440750517
 20
1133.2595755457
 30
0.0
 11
120.4440500517
 21
1133.2595755457
 31
0.0
  0
LINE
  5
231
330
22B
100
AcDbEntity
  8
SLD-0
 62
     1
100
AcDbLine
 10
165.4440750517
 20
1034.2595755457
 30
0.0
 11
120.4440500517
 21
1034.2595755457
 31
0.0
  0
LINE
  5
232
330
22B
100
AcDbEntity
  8
SLD-0
 62
     1
100
AcDbLine
 10
125.4440500517
 20
1133.2595755457
 30
0.0
 11
125.4440500517
 21
1034.2595755457
 31
0.0
  0
MTEXT
  5
233
330
22B
100
AcDbEntity
  8
SLD-0
 62
     1
100
AcDbMText
 10
111.8014164724
 20
1077.3313868536
 30
0.0
 40
10.5833333333
 41
0.0
 71
     1
 72
     1
  1
99
  7
SLDTEXTSTYLE3
 11
-7.044195017643634E-15
 21
1.0
 31
0.0
 73
     1
 44
1.0
  0
ENDBLK
  5
22D
330
22B
100
AcDbEntity
  8
0
100
AcDbBlockEnd
  0
BLOCK
  5
262
330
261
100
AcDbEntity
  8
0
100
AcDbBlockBegin
  2
_D_11
 70
     0
 10
0.0
 20
0.0
 30
0.0
  3
_D_11
  1

  0
MTEXT
  5
264
330
261
100
AcDbEntity
  8
SLD-0
 62
     1
100
AcDbMText
 10
1388.6900037916
 20
646.7002962555
 30
0.0
 40
10.5833333333
 41
0.0
 71
     1
 72
     1
  1
R
  7
SLDTEXTSTYLE3
 11
0.7071067811865435
 21
-0.7071067811865516
 31
0.0
 73
     1
 44
1.0
  0
MTEXT
  5
265
330
261
100
AcDbEntity
  8
SLD-0
 62
     1
100
AcDbMText
 10
1394.5851819272
 20
640.8051181199
 30
0.0
 40
10.5833333333
 41
0.0
 71
     1
 72
     1
  1
50
  7
SLDTEXTSTYLE3
 11
0.7071067811865435
 21
-0.7071067811865516
 31
0.0
 73
     1
 44
1.0
  0
ENDBLK
  5
263
330
261
100
AcDbEntity
  8
0
100
AcDbBlockEnd
  0
BLOCK
  5
268
330
267
100
AcDbEntity
  8
0
100
AcDbBlockBegin
  2
_D_12
 70
     0
 10
0.0
 20
0.0
 30
0.0
  3
_D_12
  1

  0
MTEXT
  5
26A
330
267
100
AcDbEntity
  8
SLD-0
 62
     1
100
AcDbMText
 10
1712.8620160636
 20
343.3031808989
 30
0.0
 40
10.5833333333
 41
0.0
 71
     1
 72
     1
  1
R
  7
SLDTEXTSTYLE3
 11
0.7071067811865568
 21
-0.7071067811865382
 31
0.0
 73
     1
 44
1.0
  0
MTEXT
  5
26B
330
267
100
AcDbEntity
  8
SLD-0
 62
     1
100
AcDbMText
 10
1718.7571941992
 20
337.4080027634
 30
0.0
 40
10.5833333333
 41
0.0
 71
     1
 72
     1
  1
8
  7
SLDTEXTSTYLE3
 11
0.7071067811865568
 21
-0.7071067811865382
 31
0.0
 73
     1
 44
1.0
  0
ENDBLK
  5
269
330
267
100
AcDbEntity
  8
0
100
AcDbBlockEnd
  0
BLOCK
  5
26E
330
26D
100
AcDbEntity
  8
0
100
AcDbBlockBegin
  2
_D_13
 70
     0
 10
0.0
 20
0.0
 30
0.0
  3
_D_13
  1

  0
SOLID
  5
270
330
26D
100
AcDbEntity
  8
SLD-0
 62
     1
100
AcDbTrace
 10
1831.3123817881
 20
500.4271694915
 30
0.0
 11
1826.8123817881
 21
487.9271694915
 31
0.0
 12
1835.8123817881
 22
487.9271694915
 32
0.0
 13
1835.8123817881
 23
487.9271694915
 33
0.0
  0
SOLID
  5
271
330
26D
100
AcDbEntity
  8
SLD-0
 62
     1
100
AcDbTrace
 10
1831.3123817881
 20
407.4271694915
 30
0.0
 11
1835.8123817881
 21
419.9271694915
 31
0.0
 12
1826.8123817881
 22
419.9271694915
 32
0.0
 13
1826.8123817881
 23
419.9271694915
 33
0.0
  0
LINE
  5
272
330
26D
100
AcDbEntity
  8
SLD-0
 62
     1
100
AcDbLine
 10
1660.3123817881
 20
500.4271694915
 30
0.0
 11
1836.3123817881
 21
500.4271694915
 31
0.0
  0
LINE
  5
273
330
26D
100
AcDbEntity
  8
SLD-0
 62
     1
100
AcDbLine
 10
1741.3123817881
 20
407.4271694915
 30
0.0
 11
1836.3123817881
 21
407.4271694915
 31
0.0
  0
LINE
  5
274
330
26D
100
AcDbEntity
  8
SLD-0
 62
     1
100
AcDbLine
 10
1831.3123817881
 20
500.4271694915
 30
0.0
 11
1831.3123817881
 21
407.4271694915
 31
0.0
  0
MTEXT
  5
275
330
26D
100
AcDbEntity
  8
SLD-0
 62
     1
100
AcDbMText
 10
1817.6697482088
 20
447.4989807994
 30
0.0
 40
10.5833333333
 41
0.0
 71
     1
 72
     1
  1
93
  7
SLDTEXTSTYLE3
 11
-7.044195017643634E-15
 21
1.0
 31
0.0
 73
     1
 44
1.0
  0
ENDBLK
  5
26F
330
26D
100
AcDbEntity
  8
0
100
AcDbBlockEnd
  0
BLOCK
  5
278
330
277
100
AcDbEntity
  8
0
100
AcDbBlockBegin
  2
_D_14
 70
     0
 10
0.0
 20
0.0
 30
0.0
  3
_D_14
  1

  0
SOLID
  5
27A
330
277
100
AcDbEntity
  8
SLD-0
 62
     1
100
AcDbTrace
 10
1562.3123817881
 20
629.8271694915
 30
0.0
 11
1574.8123817881
 21
625.3271694915
 31
0.0
 12
1574.8123817881
 22
634.3271694915
 32
0.0
 13
1574.8123817881
 23
634.3271694915
 33
0.0
  0
SOLID
  5
27B
330
277
100
AcDbEntity
  8
SLD-0
 62
     1
100
AcDbTrace
 10
1655.3123817881
 20
629.8271694915
 30
0.0
 11
1642.8123817881
 21
634.3271694915
 31
0.0
 12
1642.8123817881
 22
625.3271694915
 32
0.0
 13
1642.8123817881
 23
625.3271694915
 33
0.0
  0
LINE
  5
27C
330
277
100
AcDbEntity
  8
SLD-0
 62
     1
100
AcDbLine
 10
1562.3123817881
 20
505.4271694915
 30
0.0
 11
1562.3123817881
 21
634.8271694915
 31
0.0
  0
LINE
  5
27D
330
277
100
AcDbEntity
  8
SLD-0
 62
     1
100
AcDbLine
 10
1655.3123817881
 20
505.4271694915
 30
0.0
 11
1655.3123817881
 21
634.8271694915
 31
0.0
  0
LINE
  5
27E
330
277
100
AcDbEntity
  8
SLD-0
 62
     1
100
AcDbLine
 10
1562.3123817881
 20
629.8271694915
 30
0.0
 11
1655.3123817881
 21
629.8271694915
 31
0.0
  0
MTEXT
  5
27F
330
277
100
AcDbEntity
  8
SLD-0
 62
     1
100
AcDbMText
 10
1602.384193096
 20
643.4698030708
 30
0.0
 40
10.5833333333
 41
0.0
 71
     1
 72
     1
  1
93
  7
SLDTEXTSTYLE3
 73
     1
 44
1.0
  0
ENDBLK
  5
279
330
277
100
AcDbEntity
  8
0
100
AcDbBlockEnd
  0
ENDSEC
  0
SECTION
  2
ENTITIES
  0
LINE
  5
75
330
1F
100
AcDbEntity
  8
0
  6
Continuous
 62
     7
370
    18
100
AcDbLine
 10
1538.3070694703
 20
165.3756194162
 30
0.0
 11
1277.5668430223
 21
165.3756194162
 31
0.0
  0
LINE
  5
76
330
1F
100
AcDbEntity
  8
0
  6
Continuous
 62
     7
370
    18
100
AcDbLine
 10
1302.5210566946
 20
25.1971758652
 30
0.0
 11
1302.5210566946
 21
37.6366686946
 31
0.0
  0
LINE
  5
77
330
1F
100
AcDbEntity
  8
SLD-0
 62
     7
100
AcDbLine
 10
1945.8462103997
 20
88.9118638471
 30
0.0
 11
2051.5719860831
 21
88.9118638471
 31
0.0
  0
LINE
  5
78
330
1F
100
AcDbEntity
  8
0
  6
Continuous
 62
     7
370
    18
100
AcDbLine
 10
1552.5210566946
 20
25.1971758652
 30
0.0
 11
1552.5210566946
 21
37.6366686946
 31
0.0
  0
LINE
  5
79
330
1F
100
AcDbEntity
  8
0
  6
Continuous
 62
     7
370
    18
100
AcDbLine
 10
1538.3070694703
 20
179.5845021055
 30
0.0
 11
1752.4938579386
 21
179.5845021055
 31
0.0
  0
LINE
  5
7A
330
1F
100
AcDbEntity
  8
0
  6
Continuous
 62
     7
370
    18
100
AcDbLine
 10
1538.3070694703
 20
151.1680021055
 30
0.0
 11
2072.5210566946
 21
151.1680021055
 31
0.0
  0
LINE
  5
7B
330
1F
100
AcDbEntity
  8
0
  6
Continuous
 62
     7
370
    18
100
AcDbLine
 10
1802.5210566946
 20
25.1971758652
 30
0.0
 11
1802.5210566946
 21
37.6366686946
 31
0.0
  0
LINE
  5
7C
330
1F
100
AcDbEntity
  8
SLD-0
 62
     7
100
AcDbLine
 10
1977.9712103997
 20
112.9380994987
 30
0.0
 11
1977.9712103997
 21
66.0913236653
 31
0.0
  0
LINE
  5
7D
330
1F
100
AcDbEntity
  8
SLD-0
 62
     7
100
AcDbLine
 10
1447.9271796355
 20
101.5044700497
 30
0.0
 11
1447.9271796355
 21
229.2692413204
 31
0.0
  0
LINE
  5
7E
330
1F
100
AcDbEntity
  8
SLD-0
 62
     7
100
AcDbLine
 10
2007.9712103997
 20
98.9118638471
 30
0.0
 11
2007.9712103997
 21
78.9118638471
 31
0.0
  0
LINE
  5
7F
330
1F
100
AcDbEntity
  8
SLD-0
 62
     7
100
AcDbLine
 10
2037.9712103997
 20
108.9118638471
 30
0.0
 11
2037.9712103997
 21
68.9118638471
 31
0.0
  0
LINE
  5
80
330
1F
100
AcDbEntity
  8
SLD-0
 62
     7
100
AcDbLine
 10
2037.9712103997
 20
68.9118638471
 30
0.0
 11
2007.9712103997
 21
78.9118638471
 31
0.0
  0
LINE
  5
81
330
1F
100
AcDbEntity
  8
SLD-0
 62
     7
100
AcDbLine
 10
2037.9712103997
 20
108.9118638471
 30
0.0
 11
2007.9712103997
 21
98.9118638471
 31
0.0
  0
LINE
  5
82
330
1F
100
AcDbEntity
  8
SLD-0
 62
     7
370
    18
100
AcDbLine
 10
1538.0787246358
 20
1275.0000849161
 30
0.0
 11
2060.0682223389
 21
1275.0000849161
 31
0.0
  0
LINE
  5
83
330
1F
100
AcDbEntity
  8
SLD-0
 62
     7
370
    18
100
AcDbLine
 10
1538.0787246358
 20
1253.7500849161
 30
0.0
 11
2060.0682223389
 21
1253.7500849161
 31
0.0
  0
LINE
  5
84
330
1F
100
AcDbEntity
  8
SLD-0
 62
     7
370
    18
100
AcDbLine
 10
1538.0787246358
 20
1381.2500849161
 30
0.0
 11
2060.0535505923
 21
1381.2500849161
 31
0.0
  0
LINE
  5
85
330
1F
100
AcDbEntity
  8
SLD-0
 62
     7
370
    18
100
AcDbLine
 10
1752.4938579386
 20
37.6371624535
 30
0.0
 11
1752.4938579386
 21
229.2692413213
 31
0.0
  0
LINE
  5
86
330
1F
100
AcDbEntity
  8
0
  6
Continuous
 62
     7
370
    18
100
AcDbLine
 10
1277.5668430223
 20
58.9480488266
 30
0.0
 11
2072.5210566946
 21
58.9480488266
 31
0.0
  0
LINE
  5
87
330
1F
100
AcDbEntity
  8
0
  6
Continuous
 62
     7
370
    18
100
AcDbLine
 10
1277.5668430223
 20
229.2692413213
 30
0.0
 11
2072.5210566946
 21
229.2692413213
 31
0.0
  0
LINE
  5
88
330
1F
100
AcDbEntity
  8
0
  6
Continuous
 62
     7
370
    18
100
AcDbLine
 10
1602.342556846
 20
58.9480488266
 30
0.0
 11
1602.342556846
 21
37.6368274412
 31
0.0
  0
LINE
  5
89
330
1F
100
AcDbEntity
  8
SLD-0
 62
     7
370
    18
100
AcDbLine
 10
2060.2965671734
 20
229.2692413213
 30
0.0
 11
2060.2965671734
 21
1447.6359544798
 31
0.0
  0
LINE
  5
8A
330
1F
100
AcDbEntity
  8
0
  6
Continuous
 62
     7
370
    18
100
AcDbLine
 10
1538.3070694703
 20
144.1256194162
 30
0.0
 11
1277.5668430223
 21
144.1256194162
 31
0.0
  0
LINE
  5
8B
330
1F
100
AcDbEntity
  8
SLD-0
 62
     7
370
    18
100
AcDbLine
 10
40.0210566946
 20
1447.6359544798
 30
0.0
 11
2060.2965671734
 21
1447.6359544798
 31
0.0
  0
LINE
  5
8C
330
1F
100
AcDbEntity
  8
0
  6
Continuous
 62
     7
370
    18
100
AcDbLine
 10
1538.3070694703
 20
186.6868408016
 30
0.0
 11
1277.5668430223
 21
186.6868408016
 31
0.0
  0
LINE
  5
8D
330
1F
100
AcDbEntity
  8
0
  6
Continuous
 62
     7
370
    18
100
AcDbLine
 10
1752.4938579386
 20
208.0010021055
 30
0.0
 11
1277.5668430223
 21
208.0010021055
 31
0.0
  0
LINE
  5
8E
330
1F
100
AcDbEntity
  8
0
  6
Continuous
 62
     7
370
    18
100
AcDbLine
 10
1277.5668430223
 20
122.8265961042
 30
0.0
 11
1544.3693117553
 21
122.8265961042
 31
0.0
  0
LINE
  5
8F
330
1F
100
AcDbEntity
  8
0
  6
Continuous
 62
     7
370
    18
100
AcDbLine
 10
1538.3070694703
 20
37.6368274412
 30
0.0
 11
1538.3070694703
 21
229.2692413213
 31
0.0
  0
LINE
  5
90
330
1F
100
AcDbEntity
  8
0
  6
Continuous
 62
     7
370
    18
100
AcDbLine
 10
1490.9101015699
 20
229.2692413213
 30
0.0
 11
1490.9101015699
 21
101.5044700497
 31
0.0
  0
LINE
  5
91
330
1F
100
AcDbEntity
  8
SLD-0
 62
     7
370
    18
100
AcDbLine
 10
1538.0787246358
 20
1296.2500849161
 30
0.0
 11
2060.0682223389
 21
1296.2500849161
 31
0.0
  0
LINE
  5
92
330
1F
100
AcDbEntity
  8
SLD-0
 62
     7
370
    18
100
AcDbLine
 10
1538.0787246358
 20
1317.5000849161
 30
0.0
 11
2060.0633317567
 21
1317.5000849161
 31
0.0
  0
LINE
  5
93
330
1F
100
AcDbEntity
  8
SLD-0
 62
     7
370
    18
100
AcDbLine
 10
1538.0787246358
 20
1338.7500849161
 30
0.0
 11
2060.0584411745
 21
1338.7500849161
 31
0.0
  0
LINE
  5
94
330
1F
100
AcDbEntity
  8
SLD-0
 62
     7
370
    18
100
AcDbLine
 10
1538.0787246358
 20
1360.0000849161
 30
0.0
 11
2060.0535505923
 21
1360.0000849161
 31
0.0
  0
LINE
  5
95
330
1F
100
AcDbEntity
  8
SLD-0
 62
     7
370
    18
100
AcDbLine
 10
1538.3266317991
 20
1447.6359544798
 30
0.0
 11
2060.2965671734
 21
1447.6359544798
 31
0.0
  0
LINE
  5
96
330
1F
100
AcDbEntity
  8
SLD-0
 62
     7
370
    18
100
AcDbLine
 10
1799.0661376141
 20
1360.0000849161
 30
0.0
 11
1799.0661376141
 21
1253.7500849161
 31
0.0
  0
LINE
  5
97
330
1F
100
AcDbEntity
  8
SLD-0
 62
     7
100
AcDbLine
 10
1538.0787246358
 20
1253.7500849161
 30
0.0
 11
1538.0787246358
 21
1447.6359544798
 31
0.0
  0
LINE
  5
98
330
1F
100
AcDbEntity
  8
0
  6
Continuous
 62
     7
370
    18
100
AcDbLine
 10
1339.2263178258
 20
101.5044700497
 30
0.0
 11
1339.2263178258
 21
229.2692413213
 31
0.0
  0
LINE
  5
99
330
1F
100
AcDbEntity
  8
0
  6
Continuous
 62
     7
370
    18
100
AcDbLine
 10
1538.3070694703
 20
80.1980488266
 30
0.0
 11
40.0210566946
 21
80.1980488266
 31
0.0
  0
LINE
  5
9A
330
1F
100
AcDbEntity
  8
0
  6
Continuous
 62
     7
370
    18
100
AcDbLine
 10
1664.4517402443
 20
208.0010021055
 30
0.0
 11
1664.4517402443
 21
122.7366791953
 31
0.0
  0
LINE
  5
9B
330
1F
100
AcDbEntity
  8
0
  6
Continuous
 62
     7
370
    18
100
AcDbLine
 10
1538.3070694703
 20
101.5044700497
 30
0.0
 11
1277.5668430223
 21
101.5044700497
 31
0.0
  0
LINE
  5
9C
330
1F
100
AcDbEntity
  8
0
  6
Continuous
 62
     7
370
    18
100
AcDbLine
 10
1544.3843174638
 20
122.7366791953
 30
0.0
 11
2072.5210566946
 21
122.7366791953
 31
0.0
  0
LINE
  5
9D
330
1F
100
AcDbEntity
  8
0
  6
Continuous
 62
     7
370
    18
100
AcDbLine
 10
1915.1167346508
 20
37.6980488266
 30
0.0
 11
1915.1167346508
 21
122.7366791953
 31
0.0
  0
LINE
  5
9E
330
1F
100
AcDbEntity
  8
0
  6
Continuous
 62
     7
370
    18
100
AcDbLine
 10
2072.5210566946
 20
1460.1359544798
 30
0.0
 11
27.5210566946
 21
1460.1359544798
 31
0.0
  0
LINE
  5
9F
330
1F
100
AcDbEntity
  8
0
  6
Continuous
 62
     7
370
    18
100
AcDbLine
 10
27.5210566946
 20
1460.1359544798
 30
0.0
 11
27.5210566946
 21
25.1359544798
 31
0.0
  0
LINE
  5
A0
330
1F
100
AcDbEntity
  8
0
  6
Continuous
 62
     7
370
    18
100
AcDbLine
 10
40.0210566946
 20
1447.6359544798
 30
0.0
 11
40.0210566946
 21
37.6359544798
 31
0.0
  0
LINE
  5
A1
330
1F
100
AcDbEntity
  8
0
  6
Continuous
 62
     7
370
    18
100
AcDbLine
 10
40.0210566946
 20
242.6971758652
 30
0.0
 11
27.5210566946
 21
242.6971758652
 31
0.0
  0
LINE
  5
A2
330
1F
100
AcDbEntity
  8
0
  6
Continuous
 62
     7
370
    18
100
AcDbLine
 10
27.5210566946
 20
492.6971758652
 30
0.0
 11
40.0210566946
 21
492.6971758652
 31
0.0
  0
LINE
  5
A3
330
1F
100
AcDbEntity
  8
0
  6
Continuous
 62
     7
370
    18
100
AcDbLine
 10
27.5210566946
 20
992.6971758652
 30
0.0
 11
40.0210566946
 21
992.6971758652
 31
0.0
  0
LINE
  5
A4
330
1F
100
AcDbEntity
  8
0
  6
Continuous
 62
     7
370
    18
100
AcDbLine
 10
27.5210566946
 20
742.6971758652
 30
0.0
 11
40.0210566946
 21
742.6359544798
 31
0.0
  0
LINE
  5
A5
330
1F
100
AcDbEntity
  8
0
  6
Continuous
 62
     7
370
    18
100
AcDbLine
 10
27.5210566946
 20
25.1359544798
 30
0.0
 11
2072.5210566946
 21
25.1359544798
 31
0.0
  0
LINE
  5
A6
330
1F
100
AcDbEntity
  8
0
  6
Continuous
 62
     7
370
    18
100
AcDbLine
 10
40.0210566946
 20
37.6359544798
 30
0.0
 11
2072.5210566946
 21
37.6373881998
 31
0.0
  0
LINE
  5
A7
330
1F
100
AcDbEntity
  8
0
  6
Continuous
 62
     7
370
    18
100
AcDbLine
 10
302.5210566946
 20
25.1971758652
 30
0.0
 11
302.5210566946
 21
37.6361396466
 31
0.0
  0
LINE
  5
A8
330
1F
100
AcDbEntity
  8
0
  6
Continuous
 62
     7
370
    18
100
AcDbLine
 10
552.5210566946
 20
37.6363159959
 30
0.0
 11
552.5210566946
 21
25.1971758652
 31
0.0
  0
LINE
  5
A9
330
1F
100
AcDbEntity
  8
0
  6
Continuous
 62
     7
370
    18
100
AcDbLine
 10
802.5210566946
 20
25.1971758652
 30
0.0
 11
802.5210566946
 21
37.6364923452
 31
0.0
  0
LINE
  5
AA
330
1F
100
AcDbEntity
  8
0
  6
Continuous
 62
     7
370
    18
100
AcDbLine
 10
40.0210566946
 20
1242.6971758652
 30
0.0
 11
27.5210566946
 21
1242.6971758652
 31
0.0
  0
LINE
  5
AB
330
1F
100
AcDbEntity
  8
0
  6
Continuous
 62
     7
370
    18
100
AcDbLine
 10
302.5210566946
 20
1447.6359544798
 30
0.0
 11
302.5210566946
 21
1460.1971758652
 31
0.0
  0
LINE
  5
AC
330
1F
100
AcDbEntity
  8
0
  6
Continuous
 62
     7
370
    18
100
AcDbLine
 10
552.5210566946
 20
1460.1971758652
 30
0.0
 11
552.5210566946
 21
1447.6359544798
 31
0.0
  0
LINE
  5
AD
330
1F
100
AcDbEntity
  8
0
  6
Continuous
 62
     7
370
    18
100
AcDbLine
 10
802.5210566946
 20
1447.6359544798
 30
0.0
 11
802.5210566946
 21
1460.1971758652
 31
0.0
  0
LINE
  5
AE
330
1F
100
AcDbEntity
  8
0
  6
Continuous
 62
     7
370
    18
100
AcDbLine
 10
1302.5210566946
 20
1447.6359544798
 30
0.0
 11
1302.5210566946
 21
1460.1971758652
 31
0.0
  0
LINE
  5
AF
330
1F
100
AcDbEntity
  8
0
  6
Continuous
 62
     7
370
    18
100
AcDbLine
 10
2072.5210566946
 20
25.1359544798
 30
0.0
 11
2072.5210566946
 21
1460.1359544798
 31
0.0
  0
LINE
  5
B0
330
1F
100
AcDbEntity
  8
0
  6
Continuous
 62
     7
370
    18
100
AcDbLine
 10
1052.5210566946
 20
25.1971758652
 30
0.0
 11
1052.5210566946
 21
37.6366686946
 31
0.0
  0
LINE
  5
B1
330
1F
100
AcDbEntity
  8
0
  6
Continuous
 62
     7
370
    18
100
AcDbLine
 10
2060.1257585999
 20
992.6971758652
 30
0.0
 11
2072.5210566946
 21
992.6971758652
 31
0.0
  0
LINE
  5
B2
330
1F
100
AcDbEntity
  8
0
  6
Continuous
 62
     7
370
    18
100
AcDbLine
 10
2060.2408311219
 20
492.6971758652
 30
0.0
 11
2072.5210566946
 21
492.6971758652
 31
0.0
  0
LINE
  5
B3
330
1F
100
AcDbEntity
  8
0
  6
Continuous
 62
     7
370
    18
100
AcDbLine
 10
2072.5210566946
 20
742.6971758652
 30
0.0
 11
2060.1832948609
 21
742.6971758652
 31
0.0
  0
LINE
  5
B4
330
1F
100
AcDbEntity
  8
0
  6
Continuous
 62
     7
370
    18
100
AcDbLine
 10
1552.5210566946
 20
1460.1971758652
 30
0.0
 11
1552.5210566946
 21
1447.6359544798
 31
0.0
  0
LINE
  5
B5
330
1F
100
AcDbEntity
  8
0
  6
Continuous
 62
     7
370
    18
100
AcDbLine
 10
1802.5210566946
 20
1447.6359544798
 30
0.0
 11
1802.5210566946
 21
1460.1971758652
 31
0.0
  0
LINE
  5
B6
330
1F
100
AcDbEntity
  8
0
  6
Continuous
 62
     7
370
    18
100
AcDbLine
 10
1052.5210566946
 20
1460.1971758652
 30
0.0
 11
1052.5210566946
 21
1447.6359544798
 31
0.0
  0
LINE
  5
B7
330
1F
100
AcDbEntity
  8
0
  6
Continuous
 62
     7
370
    18
100
AcDbLine
 10
2072.5210566946
 20
1242.6971758652
 30
0.0
 11
2060.0682223389
 21
1242.6971758652
 31
0.0
  0
LINE
  5
B8
330
1F
100
AcDbEntity
  8
0
  6
Continuous
 62
     7
370
    18
100
AcDbLine
 10
1277.5668430223
 20
37.6368274412
 30
0.0
 11
1277.5668430223
 21
229.2692413213
 31
0.0
  0
CIRCLE
  5
B9
330
1F
100
AcDbEntity
  8
SLD-0
 62
     7
100
AcDbCircle
 10
1977.9712103997
 20
88.9118638471
 30
0.0
 40
20.00000000000027
  0
CIRCLE
  5
BA
330
1F
100
AcDbEntity
  8
SLD-0
 62
     7
100
AcDbCircle
 10
1977.9712103997
 20
88.9118638471
 30
0.0
 40
10.00000000000003
  0
SPLINE
  5
BB
330
1F
100
AcDbEntity
  8
0
  6
Continuous
 62
     7
370
    18
100
AcDbSpline
210
0.0
220
0.0
230
1.0
 70
     8
 71
     3
 72
    12
 73
     8
 74
     0
 42
0.000000001
 43
0.00000001
 40
0.0
 40
0.0
 40
0.0
 40
0.0
 40
1.0
 40
1.0
 40
1.241335226759749
 40
1.241335226759749
 40
2.113474220859311
 40
2.113474220859311
 40
2.113474220859311
 40
2.113474220859311
 10
1721.569929790733
 20
1436.161292345821
 30
0.0
 10
1721.569929790733
 20
1431.44254234582
 30
0.0
 10
1721.569929790733
 20
1422.005042345821
 30
0.0
 10
1721.569929790733
 20
1416.147491744543
 30
0.0
 10
1722.312121727756
 20
1416.411292345821
 30
0.0
 10
1727.538679790733
 20
1416.411292345821
 30
0.0
 10
1735.726179790733
 20
1416.411292345821
 30
0.0
 10
1739.819929790734
 20
1416.411292345821
 30
0.0
  0
SPLINE
  5
BC
330
1F
100
AcDbEntity
  8
0
  6
Continuous
 62
     7
370
    18
100
AcDbSpline
210
0.0
220
0.0
230
1.0
 70
     8
 71
     3
 72
    28
 73
    24
 74
     0
 42
0.000000001
 43
0.00000001
 40
0.0
 40
0.0
 40
0.0
 40
0.0
 40
1.0
 40
1.0
 40
1.168746068778429
 40
1.168746068778429
 40
1.412515695425715
 40
1.412515695425715
 40
1.582064190737284
 40
1.582064190737284
 40
1.77439354586487
 40
1.77439354586487
 40
1.889422462757462
 40
1.889422462757462
 40
2.197132065263336
 40
2.197132065263336
 40
2.244524612534029
 40
2.244524612534029
 40
2.910628262040504
 40
2.910628262040504
 40
3.091776736444573
 40
3.091776736444573
 40
3.286668272263152
 40
3.286668272263152
 40
3.286668272263152
 40
3.286668272263152
 10
1770.569929790733
 20
1436.161292345821
 30
0.0
 10
1776.663679790733
 20
1436.161292345821
 30
0.0
 10
1788.851179790734
 20
1436.161292345821
 30
0.0
 10
1795.973226147352
 20
1436.161292345821
 30
0.0
 10
1798.042636212814
 20
1435.462693976771
 30
0.0
 10
1800.24837804414
 20
1434.114740635406
 30
0.0
 10
1800.523378080318
 20
1433.839740599228
 30
0.0
 10
1801.873953463802
 20
1431.629708153527
 30
0.0
 10
1802.319929790733
 20
1429.333136380869
 30
0.0
 10
1802.319929790733
 20
1427.098792345821
 30
0.0
 10
1802.319929790733
 20
1424.723792345821
 30
0.0
 10
1802.319929790733
 20
1422.826068788318
 30
0.0
 10
1801.8808881727
 20
1421.158209109753
 30
0.0
 10
1800.738096520475
 20
1418.872625805303
 30
0.0
 10
1800.305441814609
 20
1418.145494138189
 30
0.0
 10
1798.446883364496
 20
1417.009708418675
 30
0.0
 10
1796.492865842873
 20
1416.411292345821
 30
0.0
 10
1792.007429790733
 20
1416.411292345821
 30
0.0
 10
1783.632429790734
 20
1416.411292345821
 30
0.0
 10
1778.306129189456
 20
1416.411292345821
 30
0.0
 10
1778.569929790733
 20
1415.669100408797
 30
0.0
 10
1778.569929790733
 20
1413.317542345821
 30
0.0
 10
1778.569929790733
 20
1410.880042345821
 30
0.0
 10
1778.569929790733
 20
1409.661292345821
 30
0.0
  0
SPLINE
  5
BD
330
1F
100
AcDbEntity
  8
0
  6
Continuous
 62
     7
370
    18
100
AcDbSpline
210
0.0
220
0.0
230
1.0
 70
    24
 71
     3
 72
     8
 73
     4
 74
     0
 42
0.000000001
 43
0.00000001
 40
0.0
 40
0.0
 40
0.0
 40
0.0
 40
1.0
 40
1.0
 40
1.0
 40
1.0
 10
1804.569929790734
 20
1409.661292345821
 30
0.0
 10
1804.569929790734
 20
1416.286292345821
 30
0.0
 10
1804.569929790734
 20
1429.536292345821
 30
0.0
 10
1804.569929790733
 20
1436.161292345821
 30
0.0
  0
SPLINE
  5
BE
330
1F
100
AcDbEntity
  8
0
  6
Continuous
 62
     7
370
    18
100
AcDbSpline
210
0.0
220
0.0
230
1.0
 70
     8
 71
     3
 72
    13
 73
     9
 74
     0
 42
0.000000001
 43
0.00000001
 40
6.994583310586967
 40
6.994583310586967
 40
6.994583310586967
 40
6.994583310586967
 40
8.263032086747977
 40
8.263032086747977
 40
9.337265738279882
 40
9.337265738279882
 40
13.36192003420669
 40
13.90557664944336
 40
13.90557664944336
 40
13.90557664944336
 40
13.90557664944336
 10
1879.444929790733
 20
1414.348792345821
 30
0.0
 10
1878.498966965647
 20
1413.875810933277
 30
0.0
 10
1877.719960356829
 20
1414.906796908524
 30
0.0
 10
1878.712606037042
 20
1416.531126203416
 30
0.0
 10
1880.077692846511
 20
1417.669055401599
 30
0.0
 10
1883.007429790733
 20
1420.598792345821
 30
0.0
 10
1888.303793595034
 20
1425.915919455445
 30
0.0
 10
1890.514893065612
 20
1428.100646140996
 30
0.0
 10
1890.944929790733
 20
1428.16129234582
 30
0.0
  0
SPLINE
  5
BF
330
1F
100
AcDbEntity
  8
0
  6
Continuous
 62
     7
370
    18
100
AcDbSpline
210
0.0
220
0.0
230
1.0
 70
     8
 71
     3
 72
    14
 73
    10
 74
     0
 42
0.000000001
 43
0.00000001
 40
0.0
 40
0.0
 40
0.0
 40
0.0
 40
1.0
 40
1.0
 40
1.33500510001238
 40
1.33500510001238
 40
1.403026758136445
 40
1.403026758136445
 40
1.760664727461603
 40
1.760664727461603
 40
1.760664727461603
 40
1.760664727461603
 10
1813.194929790733
 20
1429.661292345821
 30
0.0
 10
1816.444929790733
 20
1429.661292345821
 30
0.0
 10
1822.944929790734
 20
1429.661292345821
 30
0.0
 10
1827.283696365775
 20
1429.661292345821
 30
0.0
 10
1828.930615700421
 20
1428.935633590898
 30
0.0
 10
1829.09821704792
 20
1427.552922474031
 30
0.0
 10
1829.062224453014
 20
1425.005470994943
 30
0.0
 10
1828.719335494092
 20
1423.633915159254
 30
0.0
 10
1827.281169491637
 20
1423.16129234582
 30
0.0
 10
1826.194929790734
 20
1423.16129234582
 30
0.0
  0
SPLINE
  5
C0
330
1F
100
AcDbEntity
  8
0
  6
Continuous
 62
     7
370
    18
100
AcDbSpline
210
0.0
220
0.0
230
1.0
 70
     8
 71
     3
 72
    28
 73
    24
 74
     0
 42
0.000000001
 43
0.00000001
 40
7.177624544153768
 40
7.177624544153768
 40
7.177624544153768
 40
7.177624544153768
 40
7.784414558614852
 40
7.784414558614852
 40
7.9339382267423
 40
7.9339382267423
 40
8.43747591621979
 40
8.43747591621979
 40
8.590087632700616
 40
8.590087632700616
 40
10.69389630233172
 40
10.69389630233172
 40
11.36533964243115
 40
11.36533964243115
 40
11.62365047664612
 40
11.62365047664612
 40
12.11020206830591
 40
12.11020206830591
 40
12.28574307502375
 40
12.28574307502375
 40
13.39612169509837
 40
13.39612169509837
 40
14.70516763730073
 40
14.70516763730073
 40
14.70516763730073
 40
14.70516763730073
 10
1888.944929790734
 20
1410.098792345822
 30
0.0
 10
1887.727422994871
 20
1409.654566893277
 30
0.0
 10
1886.978820259598
 20
1409.316915432956
 30
0.0
 10
1885.378556732834
 20
1409.122944096378
 30
0.0
 10
1884.763618510333
 20
1408.911292345821
 30
0.0
 10
1883.371709854777
 20
1408.911292345821
 30
0.0
 10
1882.206419145276
 20
1408.845920007185
 30
0.0
 10
1880.888368574316
 20
1409.175432649925
 30
0.0
 10
1880.251491007152
 20
1409.209652041716
 30
0.0
 10
1875.718870614191
 20
1410.342807139956
 30
0.0
 10
1872.505229530772
 20
1413.165692865743
 30
0.0
 10
1869.952267101011
 20
1418.271617725265
 30
0.0
 10
1869.697687198481
 20
1419.775262714829
 30
0.0
 10
1869.261147175918
 20
1421.521422805079
 30
0.0
 10
1869.257240083582
 20
1424.51910226182
 30
0.0
 10
1869.438011468914
 20
1426.01046619081
 30
0.0
 10
1870.241961588263
 20
1428.692798923596
 30
0.0
 10
1870.943403506048
 20
1429.840612970881
 30
0.0
 10
1871.230941436786
 20
1430.500974540558
 30
0.0
 10
1872.798505787666
 20
1432.59106034173
 30
0.0
 10
1873.706192736748
 20
1433.883453035052
 30
0.0
 10
1878.039488775897
 20
1436.531578392309
 30
0.0
 10
1878.539729288624
 20
1436.497492220293
 30
0.0
 10
1881.194929790733
 20
1437.161292345821
 30
0.0
  0
SPLINE
  5
C1
330
1F
100
AcDbEntity
  8
0
  6
Continuous
 62
     7
370
    18
100
AcDbSpline
210
0.0
220
0.0
230
1.0
 70
     8
 71
     3
 72
    14
 73
    10
 74
     0
 42
0.000000001
 43
0.00000001
 40
0.0
 40
0.0
 40
0.0
 40
0.0
 40
1.0
 40
1.0
 40
2.048347280982775
 40
2.048347280982775
 40
5.339097901013091
 40
5.339097901013091
 40
6.994583310586967
 40
6.994583310586967
 40
6.994583310586967
 40
6.994583310586967
 10
1890.944929790733
 20
1428.16129234582
 30
0.0
 10
1891.776194964058
 20
1428.262051760769
 30
0.0
 10
1892.316614392122
 20
1427.496776239001
 30
0.0
 10
1891.427253544425
 20
1426.041458488225
 30
0.0
 10
1890.062166734956
 20
1424.903529290043
 30
0.0
 10
1887.507429790734
 20
1422.348792345821
 30
0.0
 10
1883.632429790734
 20
1418.473792345821
 30
0.0
 10
1880.720227252798
 20
1415.561589807885
 30
0.0
 10
1880.679530418178
 20
1414.966092659543
 30
0.0
 10
1879.444929790733
 20
1414.348792345821
 30
0.0
  0
SPLINE
  5
C2
330
1F
100
AcDbEntity
  8
0
  6
Continuous
 62
     7
370
    18
100
AcDbSpline
210
0.0
220
0.0
230
1.0
 70
    24
 71
     3
 72
     8
 73
     4
 74
     0
 42
0.000000001
 43
0.00000001
 40
0.0
 40
0.0
 40
0.0
 40
0.0
 40
1.0
 40
1.0
 40
1.0
 40
1.0
 10
1899.319929790733
 20
1409.161292345821
 30
0.0
 10
1899.319929790733
 20
1415.848792345821
 30
0.0
 10
1899.319929790733
 20
1429.223792345821
 30
0.0
 10
1899.319929790733
 20
1435.911292345821
 30
0.0
  0
SPLINE
  5
C3
330
1F
100
AcDbEntity
  8
0
  6
Continuous
 62
     7
370
    18
100
AcDbSpline
210
0.0
220
0.0
230
1.0
 70
    24
 71
     3
 72
     8
 73
     4
 74
     0
 42
0.000000001
 43
0.00000001
 40
0.0
 40
0.0
 40
0.0
 40
0.0
 40
1.0
 40
1.0
 40
1.0
 40
1.0
 10
1899.319929790733
 20
1435.911292345821
 30
0.0
 10
1906.257429790733
 20
1435.911292345821
 30
0.0
 10
1920.132429790734
 20
1435.911292345821
 30
0.0
 10
1927.069929790733
 20
1435.911292345821
 30
0.0
  0
SPLINE
  5
C4
330
1F
100
AcDbEntity
  8
0
  6
Continuous
 62
     7
370
    18
100
AcDbSpline
210
0.0
220
0.0
230
1.0
 70
     8
 71
     3
 72
    16
 73
    12
 74
     0
 42
0.000000001
 43
0.00000001
 40
0.0
 40
0.0
 40
0.0
 40
0.0
 40
1.0
 40
1.0
 40
1.443816106154787
 40
1.443816106154787
 40
2.608785683516992
 40
2.608785683516992
 40
2.921624970703356
 40
2.921624970703356
 40
3.106177123422559
 40
3.106177123422559
 40
3.106177123422559
 40
3.106177123422559
 10
1862.944929790733
 20
1423.473792345821
 30
0.0
 10
1864.107631085115
 20
1422.453462638505
 30
0.0
 10
1863.401570509877
 20
1420.949573784109
 30
0.0
 10
1862.381311258315
 20
1418.909055280984
 30
0.0
 10
1859.964897370546
 20
1415.98876803068
 30
0.0
 10
1858.080070779738
 20
1414.575148087574
 30
0.0
 10
1857.763292220691
 20
1414.2579735608
 30
0.0
 10
1855.773763955874
 20
1413.263209428391
 30
0.0
 10
1854.375429590766
 20
1412.66129234582
 30
0.0
 10
1853.690966595904
 20
1412.66129234582
 30
0.0
 10
1852.73191578769
 20
1413.203024635448
 30
0.0
 10
1852.569929790733
 20
1413.411292345821
 30
0.0
  0
SPLINE
  5
C5
330
1F
100
AcDbEntity
  8
0
  6
Continuous
 62
     7
370
    18
100
AcDbSpline
210
0.0
220
0.0
230
1.0
 70
     8
 71
     3
 72
    15
 73
    11
 74
     0
 42
0.000000001
 43
0.00000001
 40
4.053596120036477
 40
4.053596120036477
 40
4.053596120036477
 40
4.053596120036477
 40
5.032777806267956
 40
5.032777806267956
 40
5.797979497134678
 40
5.797979497134678
 40
6.863671503482389
 40
6.863671503482389
 40
7.022260398743382
 40
7.066587342528279
 40
7.066587342528279
 40
7.066587342528279
 40
7.066587342528279
 10
1687.19492979073
 20
1420.161292345821
 30
0.0
 10
1686.009695361668
 20
1420.161292345821
 30
0.0
 10
1686.456805391082
 20
1420.810043546519
 30
0.0
 10
1687.326384653725
 20
1422.549202071804
 30
0.0
 10
1688.125154310035
 20
1424.05847792286
 30
0.0
 10
1689.189366051862
 20
1425.799915318577
 30
0.0
 10
1690.163679790733
 20
1427.973792345821
 30
0.0
 10
1690.773986732238
 20
1429.194406228829
 30
0.0
 10
1690.989058853067
 20
1429.642842773491
 30
0.0
 10
1691.342901319981
 20
1429.503438698885
 30
0.0
 10
1691.382429790733
 20
1429.473792345821
 30
0.0
  0
SPLINE
  5
C6
330
1F
100
AcDbEntity
  8
0
  6
Continuous
 62
     7
370
    18
100
AcDbSpline
210
0.0
220
0.0
230
1.0
 70
     8
 71
     3
 72
    12
 73
     8
 74
     0
 42
0.000000001
 43
0.00000001
 40
7.292439914004937
 40
7.292439914004937
 40
7.292439914004937
 40
7.292439914004937
 40
8.498376209858383
 40
8.498376209858383
 40
13.15361874734218
 40
13.15361874734218
 40
13.86069346603828
 40
13.86069346603828
 40
13.86069346603828
 40
13.86069346603828
 10
1848.007429790733
 20
1414.78629234582
 30
0.0
 10
1847.564813013401
 20
1415.510574345092
 30
0.0
 10
1848.813497658578
 20
1416.654860213665
 30
0.0
 10
1851.882429790733
 20
1419.723792345821
 30
0.0
 10
1856.757429790734
 20
1424.598792345821
 30
0.0
 10
1859.56515639288
 20
1427.406518947967
 30
0.0
 10
1860.427218171203
 20
1428.08828173281
 30
0.0
 10
1860.944929790733
 20
1428.16129234582
 30
0.0
  0
SPLINE
  5
C7
330
1F
100
AcDbEntity
  8
0
  6
Continuous
 62
     7
370
    18
100
AcDbSpline
210
0.0
220
0.0
230
1.0
 70
    24
 71
     3
 72
     8
 73
     4
 74
     0
 42
0.000000001
 43
0.00000001
 40
0.0
 40
0.0
 40
0.0
 40
0.0
 40
1.0
 40
1.0
 40
1.0
 40
1.0
 10
1768.319929790734
 20
1416.411292345821
 30
0.0
 10
1768.319929790733
 20
1414.723792345821
 30
0.0
 10
1768.319929790733
 20
1411.348792345821
 30
0.0
 10
1768.319929790733
 20
1409.66129234582
 30
0.0
  0
SPLINE
  5
C8
330
1F
100
AcDbEntity
  8
0
  6
Continuous
 62
     7
370
    18
100
AcDbSpline
210
0.0
220
0.0
230
1.0
 70
     8
 71
     3
 72
    13
 73
     9
 74
     0
 42
0.000000001
 43
0.00000001
 40
0.0
 40
0.0
 40
0.0
 40
0.0
 40
1.0
 40
1.65720266204859
 40
1.65720266204859
 40
4.900532831976991
 40
4.900532831976991
 40
5.737334603125956
 40
5.737334603125956
 40
5.737334603125956
 40
5.737334603125956
 10
1852.444929790733
 20
1433.16129234582
 30
0.0
 10
1853.20184124788
 20
1433.253039189111
 30
0.0
 10
1854.92030296722
 20
1432.498248609441
 30
0.0
 10
1852.812200393032
 20
1430.903562948119
 30
0.0
 10
1850.632429790734
 20
1428.723792345821
 30
0.0
 10
1847.007429790734
 20
1425.098792345821
 30
0.0
 10
1844.72729216806
 20
1422.818654723148
 30
0.0
 10
1844.244032215253
 20
1422.449445127989
 30
0.0
 10
1843.694929790734
 20
1422.848792345821
 30
0.0
  0
SPLINE
  5
C9
330
1F
100
AcDbEntity
  8
0
  6
Continuous
 62
     7
370
    18
100
AcDbSpline
210
0.0
220
0.0
230
1.0
 70
     8
 71
     3
 72
    16
 73
    12
 74
     0
 42
0.000000001
 43
0.00000001
 40
2.151810981758136
 40
2.151810981758136
 40
2.151810981758136
 40
2.151810981758136
 40
2.498736107481844
 40
2.498736107481844
 40
3.096218268448167
 40
3.096218268448167
 40
3.447399194464757
 40
3.447399194464757
 40
3.621796190045318
 40
3.621796190045318
 40
3.697742383752845
 40
3.697742383752845
 40
3.697742383752845
 40
3.697742383752845
 10
1791.694929790736
 20
1422.911292345821
 30
0.0
 10
1790.578104285945
 20
1422.775919557362
 30
0.0
 10
1788.319929790733
 20
1422.911292345821
 30
0.0
 10
1785.257429790733
 20
1422.911292345821
 30
0.0
 10
1781.382429790733
 20
1422.911292345821
 30
0.0
 10
1778.306129189456
 20
1422.911292345821
 30
0.0
 10
1778.569929790733
 20
1423.653484282843
 30
0.0
 10
1778.569929790733
 20
1425.348846596677
 30
0.0
 10
1778.394885445818
 20
1428.765716441005
 30
0.0
 10
1778.735875316122
 20
1429.512992114225
 30
0.0
 10
1778.939378037027
 20
1429.64546170621
 30
0.0
 10
1779.194929790733
 20
1429.661292345821
 30
0.0
  0
SPLINE
  5
CA
330
1F
100
AcDbEntity
  8
0
  6
Continuous
 62
     7
370
    18
100
AcDbSpline
210
0.0
220
0.0
230
1.0
 70
    24
 71
     3
 72
     8
 73
     4
 74
     0
 42
0.000000001
 43
0.00000001
 40
0.0
 40
0.0
 40
0.0
 40
0.0
 40
1.0
 40
1.0
 40
1.0
 40
1.0
 10
1812.569929790733
 20
1409.661292345821
 30
0.0
 10
1810.569929790734
 20
1409.661292345821
 30
0.0
 10
1806.569929790733
 20
1409.661292345821
 30
0.0
 10
1804.569929790734
 20
1409.661292345821
 30
0.0
  0
SPLINE
  5
CB
330
1F
100
AcDbEntity
  8
0
  6
Continuous
 62
     7
370
    18
100
AcDbSpline
210
0.0
220
0.0
230
1.0
 70
     8
 71
     3
 72
    26
 73
    22
 74
     0
 42
0.000000001
 43
0.00000001
 40
0.0
 40
0.0
 40
0.0
 40
0.0
 40
1.0
 40
1.0
 40
2.726036522393764
 40
2.726036522393764
 40
6.023683855367185
 40
6.023683855367185
 40
6.493653439327393
 40
6.493653439327393
 40
6.948044673042854
 40
6.948044673042854
 40
7.49958836269063
 40
7.49958836269063
 40
8.857967125460934
 40
8.857967125460934
 40
11.28517062707452
 40
11.28517062707452
 40
12.71223171247935
 40
12.71223171247935
 40
12.97891841240773
 40
12.97891841240773
 40
12.97891841240773
 40
12.97891841240773
 10
1850.944929790733
 20
1437.161292345821
 30
0.0
 10
1852.13284090378
 20
1437.161292345821
 30
0.0
 10
1854.542486733572
 20
1437.324403110111
 30
0.0
 10
1857.684088597381
 20
1436.539002644159
 30
0.0
 10
1857.856712155099
 20
1436.580401163637
 30
0.0
 10
1863.206902686395
 20
1433.90530589799
 30
0.0
 10
1865.314667069755
 20
1430.897938321834
 30
0.0
 10
1866.820232892522
 20
1426.771572733512
 30
0.0
 10
1866.881759699574
 20
1426.038972710457
 30
0.0
 10
1867.128934223599
 20
1425.05027461436
 30
0.0
 10
1867.010925357868
 20
1424.022310077282
 30
0.0
 10
1867.279912836705
 20
1422.946360161933
 30
0.0
 10
1867.069929790733
 20
1422.164039632941
 30
0.0
 10
1867.069929790733
 20
1419.990234256107
 30
0.0
 10
1865.994109883597
 20
1416.768532469639
 30
0.0
 10
1863.418569198969
 20
1413.334478223469
 30
0.0
 10
1863.139143757616
 20
1412.592478658916
 30
0.0
 10
1859.257867494878
 20
1410.220587609464
 30
0.0
 10
1857.387866407074
 20
1409.366496784166
 30
0.0
 10
1855.378556732834
 20
1409.122944096378
 30
0.0
 10
1854.763618510333
 20
1408.911292345821
 30
0.0
 10
1854.444929790732
 20
1408.911292345821
 30
0.0
  0
SPLINE
  5
CC
330
1F
100
AcDbEntity
  8
0
  6
Continuous
 62
     7
370
    18
100
AcDbSpline
210
0.0
220
0.0
230
1.0
 70
     8
 71
     3
 72
    10
 73
     6
 74
     0
 42
0.000000001
 43
0.00000001
 40
0.0
 40
0.0
 40
0.0
 40
0.0
 40
1.0
 40
1.0
 40
1.712980572775823
 40
1.712980572775823
 40
1.712980572775823
 40
1.712980572775823
 10
1673.316429582902
 20
1397.91129234582
 30
0.0
 10
1673.316429582902
 20
1396.380042345821
 30
0.0
 10
1673.316429582902
 20
1393.317542345821
 30
0.0
 10
1673.316429582902
 20
1390.694540843753
 30
0.0
 10
1672.654287354957
 20
1390.911292345821
 30
0.0
 10
1671.566429582902
 20
1390.911292345821
 30
0.0
  0
SPLINE
  5
CD
330
1F
100
AcDbEntity
  8
0
  6
Continuous
 62
     7
370
    18
100
AcDbSpline
210
0.0
220
0.0
230
1.0
 70
     8
 71
     3
 72
    28
 73
    24
 74
     0
 42
0.000000001
 43
0.00000001
 40
0.0
 40
0.0
 40
0.0
 40
0.0
 40
1.0
 40
1.0
 40
1.223183430082013
 40
1.223183430082013
 40
1.468703424703174
 40
1.468703424703174
 40
1.767037285506711
 40
1.767037285506711
 40
1.954745878792804
 40
1.954745878792804
 40
1.992051694823966
 40
1.992051694823966
 40
2.048647063240962
 40
2.048647063240962
 40
2.238896646781714
 40
2.238896646781714
 40
2.266595226821894
 40
2.266595226821894
 40
2.330993117341893
 40
2.330993117341893
 40
2.49947700213617
 40
2.49947700213617
 40
2.49947700213617
 40
2.49947700213617
 10
1804.569929790733
 20
1436.161292345821
 30
0.0
 10
1811.163679790733
 20
1436.161292345821
 30
0.0
 10
1824.351179790733
 20
1436.161292345821
 30
0.0
 10
1832.416545532838
 20
1436.161292345821
 30
0.0
 10
1834.96933626527
 20
1435.075899932943
 30
0.0
 10
1836.624397011654
 20
1432.367618711588
 30
0.0
 10
1837.069929790733
 20
1430.957480375761
 30
0.0
 10
1837.069929790733
 20
1427.255614649411
 30
0.0
 10
1837.370194761037
 20
1424.636822286429
 30
0.0
 10
1835.862762598832
 20
1421.621957962019
 30
0.0
 10
1835.365271047103
 20
1421.246462974006
 30
0.0
 10
1833.962332364909
 20
1420.544993632908
 30
0.0
 10
1833.266356388597
 20
1420.353266005967
 30
0.0
 10
1833.401204153653
 20
1419.712739121954
 30
0.0
 10
1834.358328035227
 20
1419.616993418631
 30
0.0
 10
1835.82644188436
 20
1418.719812733049
 30
0.0
 10
1836.247412351355
 20
1418.012821624116
 30
0.0
 10
1836.760084191512
 20
1416.607721025169
 30
0.0
 10
1836.819929790734
 20
1416.226378674892
 30
0.0
 10
1836.819929790734
 20
1415.594350607579
 30
0.0
 10
1837.069929790733
 20
1414.728234084062
 30
0.0
 10
1837.069929790733
 20
1413.13004234582
 30
0.0
 10
1837.069929790733
 20
1410.81754234582
 30
0.0
 10
1837.069929790733
 20
1409.661292345821
 30
0.0
  0
SPLINE
  5
CE
330
1F
100
AcDbEntity
  8
0
  6
Continuous
 62
     7
370
    18
100
AcDbSpline
210
0.0
220
0.0
230
1.0
 70
     8
 71
     3
 72
    28
 73
    24
 74
     0
 42
0.000000001
 43
0.00000001
 40
12.97891841240773
 40
12.97891841240773
 40
12.97891841240773
 40
12.97891841240773
 40
13.90145333008586
 40
13.90145333008586
 40
15.6276214648452
 40
15.6276214648452
 40
17.42005195493727
 40
17.42005195493727
 40
17.76684035476283
 40
17.76684035476283
 40
18.58269201632518
 40
18.58269201632518
 40
19.84133141420772
 40
19.84133141420772
 40
20.24337455884533
 40
20.24337455884533
 40
20.70177427218941
 40
20.70177427218941
 40
22.11108648825345
 40
22.11108648825345
 40
26.08001795494557
 40
26.08001795494557
 40
26.50363493003236
 40
26.50363493003236
 40
26.50363493003236
 40
26.50363493003236
 10
1854.444929790732
 20
1408.911292345821
 30
0.0
 10
1853.342507091058
 20
1408.911292345821
 30
0.0
 10
1851.995487010587
 20
1408.836153040857
 30
0.0
 10
1848.97921731535
 20
1409.590220464667
 30
0.0
 10
1848.692739541462
 20
1409.537387470456
 30
0.0
 10
1845.130026928724
 20
1411.318743776825
 30
0.0
 10
1843.593833910155
 20
1412.421086853259
 30
0.0
 10
1842.148054790733
 20
1414.348792345821
 30
0.0
 10
1841.619622601476
 20
1414.936906724336
 30
0.0
 10
1841.033948858327
 20
1416.108254210633
 30
0.0
 10
1840.740373309078
 20
1416.226558258506
 30
0.0
 10
1839.989140007423
 20
1418.285493974151
 30
0.0
 10
1839.319929790733
 20
1419.902746100251
 30
0.0
 10
1839.319929790733
 20
1421.728234084062
 30
0.0
 10
1839.069929790733
 20
1422.594350607579
 30
0.0
 10
1839.069929790733
 20
1423.54018345509
 30
0.0
 10
1839.319929790733
 20
1424.532401236552
 30
0.0
 10
1839.319929790733
 20
1426.585464117069
 30
0.0
 10
1840.0283719054
 20
1428.203176575154
 30
0.0
 10
1842.572102595537
 20
1433.290637955428
 30
0.0
 10
1845.225724161499
 20
1435.275568670289
 30
0.0
 10
1849.61857602808
 20
1436.878365972961
 30
0.0
 10
1850.507429790733
 20
1437.051917345821
 30
0.0
 10
1850.944929790733
 20
1437.161292345821
 30
0.0
  0
SPLINE
  5
CF
330
1F
100
AcDbEntity
  8
0
  6
Continuous
 62
     7
370
    18
100
AcDbSpline
210
0.0
220
0.0
230
1.0
 70
     8
 71
     3
 72
    16
 73
    12
 74
     0
 42
0.000000001
 43
0.00000001
 40
0.0
 40
0.0
 40
0.0
 40
0.0
 40
1.0
 40
1.0
 40
1.244574625776633
 40
1.244574625776633
 40
1.379512878872602
 40
1.379512878872602
 40
1.537560800579475
 40
1.537560800579475
 40
2.544863169572313
 40
2.544863169572313
 40
2.544863169572313
 40
2.544863169572313
 10
1927.069929790733
 20
1429.411292345821
 30
0.0
 10
1922.413679790733
 20
1429.41129234582
 30
0.0
 10
1913.101179790733
 20
1429.41129234582
 30
0.0
 10
1907.306129189456
 20
1429.41129234582
 30
0.0
 10
1907.569929790733
 20
1428.669100408797
 30
0.0
 10
1907.569929790733
 20
1426.911292345821
 30
0.0
 10
1907.494722686034
 20
1425.656750959592
 30
0.0
 10
1907.6580169441
 20
1424.309573330542
 30
0.0
 10
1908.263386014952
 20
1424.41129234582
 30
0.0
 10
1913.288679790733
 20
1424.41129234582
 30
0.0
 10
1921.976179790733
 20
1424.41129234582
 30
0.0
 10
1926.319929790734
 20
1424.411292345821
 30
0.0
  0
SPLINE
  5
D0
330
1F
100
AcDbEntity
  8
0
  6
Continuous
 62
     7
370
    18
100
AcDbSpline
210
0.0
220
0.0
230
1.0
 70
     8
 71
     3
 72
    24
 73
    20
 74
     0
 42
0.000000001
 43
0.00000001
 40
0.0
 40
0.0
 40
0.0
 40
0.0
 40
1.0
 40
1.0
 40
2.598036804251551
 40
2.598036804251551
 40
5.319648285075329
 40
5.319648285075329
 40
9.107140613455956
 40
9.107140613455956
 40
11.48091023401871
 40
11.48091023401871
 40
13.83694212251836
 40
13.83694212251836
 40
15.87934677281956
 40
15.87934677281956
 40
18.54661387466309
 40
18.54661387466309
 40
19.04597731769322
 40
19.04597731769322
 40
19.04597731769322
 40
19.04597731769322
 10
1671.569929790733
 20
1409.661292345821
 30
0.0
 10
1671.510011935024
 20
1410.080717335786
 30
0.0
 10
1672.339590815289
 20
1411.159374022367
 30
0.0
 10
1672.938019950947
 20
1412.138621698898
 30
0.0
 10
1673.514339630519
 20
1413.433962992743
 30
0.0
 10
1674.509322990784
 20
1415.062117582267
 30
0.0
 10
1675.505536590683
 20
1417.260467109374
 30
0.0
 10
1677.004836893156
 20
1419.713867604331
 30
0.0
 10
1677.856286478545
 20
1421.359005721445
 30
0.0
 10
1679.017197974405
 20
1423.680828713164
 30
0.0
 10
1679.985916131598
 20
1425.432906358145
 30
0.0
 10
1681.025046496485
 20
1427.133301500687
 30
0.0
 10
1681.864813084982
 20
1428.939283190954
 30
0.0
 10
1682.831143058181
 20
1430.520550419825
 30
0.0
 10
1683.621216523286
 20
1432.052034271816
 30
0.0
 10
1684.655924410481
 20
1433.745192632681
 30
0.0
 10
1684.949368109551
 20
1434.847082534195
 30
0.0
 10
1685.760312008709
 20
1435.962130395537
 30
0.0
 10
1685.986870413338
 20
1436.119680470342
 30
0.0
 10
1686.194929790733
 20
1436.161292345821
 30
0.0
  0
SPLINE
  5
D1
330
1F
100
AcDbEntity
  8
0
  6
Continuous
 62
     7
370
    18
100
AcDbSpline
210
0.0
220
0.0
230
1.0
 70
     8
 71
     3
 72
    24
 73
    20
 74
     0
 42
0.000000001
 43
0.00000001
 40
0.0
 40
0.0
 40
0.0
 40
0.0
 40
1.0
 40
1.0
 40
1.39991898449332
 40
1.39991898449332
 40
1.813948147164033
 40
1.813948147164033
 40
2.22488352251266
 40
2.22488352251266
 40
3.153141757786221
 40
3.153141757786221
 40
3.543554736148584
 40
3.543554736148584
 40
4.253573756344509
 40
4.253573756344509
 40
4.603118083692698
 40
4.603118083692698
 40
4.673393040808484
 40
4.673393040808484
 40
4.673393040808484
 40
4.673393040808484
 10
1686.194929790733
 20
1436.161292345821
 30
0.0
 10
1688.632429790734
 20
1436.161292345821
 30
0.0
 10
1693.507429790733
 20
1436.161292345821
 30
0.0
 10
1696.919732315439
 20
1436.161292345821
 30
0.0
 10
1697.387904576238
 20
1434.900342774812
 30
0.0
 10
1698.267197974405
 20
1433.141755978477
 30
0.0
 10
1699.235916131599
 20
1431.389678333496
 30
0.0
 10
1700.275046496485
 20
1429.689283190955
 30
0.0
 10
1701.114813084982
 20
1427.883301500686
 30
0.0
 10
1702.801669526847
 20
1425.122990959454
 30
0.0
 10
1702.94752378361
 20
1424.781104360066
 30
0.0
 10
1704.364425395597
 20
1421.947301136093
 30
0.0
 10
1705.40043418587
 20
1420.375283555548
 30
0.0
 10
1706.582839516717
 20
1418.010472893854
 30
0.0
 10
1708.30702006475
 20
1415.062111797787
 30
0.0
 10
1709.445512358821
 20
1412.785127209646
 30
0.0
 10
1710.689027223312
 20
1410.832298764375
 30
0.0
 10
1711.071443779864
 20
1409.876257372995
 30
0.0
 10
1711.069929790733
 20
1409.830631757381
 30
0.0
 10
1711.069929790733
 20
1409.661292345821
 30
0.0
  0
SPLINE
  5
D2
330
1F
100
AcDbEntity
  8
0
  6
Continuous
 62
     7
370
    18
100
AcDbSpline
210
0.0
220
0.0
230
1.0
 70
     8
 71
     3
 72
    16
 73
    12
 74
     0
 42
0.000000001
 43
0.00000001
 40
0.0
 40
0.0
 40
0.0
 40
0.0
 40
1.0
 40
1.0
 40
2.292456750877711
 40
2.292456750877711
 40
5.172737785628291
 40
5.172737785628291
 40
6.201778028518361
 40
6.201778028518361
 40
7.30888772963563
 40
7.30888772963563
 40
7.30888772963563
 40
7.30888772963563
 10
1828.819929790733
 20
1409.661292345821
 30
0.0
 10
1828.819929790733
 20
1410.75504234582
 30
0.0
 10
1828.951542223957
 20
1412.950489771721
 30
0.0
 10
1828.649826412913
 20
1415.439645212839
 30
0.0
 10
1827.625243653765
 20
1416.411292345821
 30
0.0
 10
1823.007429790733
 20
1416.411292345821
 30
0.0
 10
1816.632429790733
 20
1416.411292345821
 30
0.0
 10
1812.306129189456
 20
1416.411292345821
 30
0.0
 10
1812.569929790733
 20
1415.669100408797
 30
0.0
 10
1812.569929790733
 20
1413.317542345821
 30
0.0
 10
1812.569929790733
 20
1410.880042345821
 30
0.0
 10
1812.569929790733
 20
1409.661292345821
 30
0.0
  0
SPLINE
  5
D3
330
1F
100
AcDbEntity
  8
0
  6
Continuous
 62
     7
370
    18
100
AcDbSpline
210
0.0
220
0.0
230
1.0
 70
     8
 71
     3
 72
    24
 73
    20
 74
     0
 42
0.000000001
 43
0.00000001
 40
0.0
 40
0.0
 40
0.0
 40
0.0
 40
1.0
 40
1.0
 40
1.804374503640168
 40
1.804374503640168
 40
2.410165852946105
 40
2.410165852946105
 40
4.293615850078156
 40
4.293615850078156
 40
4.490695076188547
 40
4.490695076188547
 40
4.94010137336433
 40
4.94010137336433
 40
5.132767019344753
 40
5.132767019344753
 40
6.749973859908527
 40
6.749973859908527
 40
7.177624544153768
 40
7.177624544153768
 40
7.177624544153768
 40
7.177624544153768
 10
1881.194929790733
 20
1437.161292345821
 30
0.0
 10
1883.016571120048
 20
1437.161292345821
 30
0.0
 10
1885.469783436267
 20
1437.353237637315
 30
0.0
 10
1888.582593533316
 20
1436.217482601905
 30
0.0
 10
1889.49873002977
 20
1436.058442166543
 30
0.0
 10
1891.595812978791
 20
1434.485629954777
 30
0.0
 10
1892.877933584871
 20
1433.708953953637
 30
0.0
 10
1895.721397046651
 20
1429.91766933793
 30
0.0
 10
1896.126239577149
 20
1429.561053200158
 30
0.0
 10
1897.099635203998
 20
1425.667470692762
 30
0.0
 10
1897.165224377469
 20
1424.905113998879
 30
0.0
 10
1897.46768885341
 20
1423.695256095112
 30
0.0
 10
1897.347505463118
 20
1421.89659503536
 30
0.0
 10
1897.040224377469
 20
1420.667470692762
 30
0.0
 10
1896.974635203998
 20
1419.905113998879
 30
0.0
 10
1896.108471235169
 20
1416.440458123562
 30
0.0
 10
1893.59097897528
 20
1412.484316938094
 30
0.0
 10
1889.929104798953
 20
1410.653379849931
 30
0.0
 10
1889.802998648026
 20
1410.411871523482
 30
0.0
 10
1888.944929790734
 20
1410.098792345822
 30
0.0
  0
SPLINE
  5
D4
330
1F
100
AcDbEntity
  8
0
  6
Continuous
 62
     7
370
    18
100
AcDbSpline
210
0.0
220
0.0
230
1.0
 70
    24
 71
     3
 72
     8
 73
     4
 74
     0
 42
0.000000001
 43
0.00000001
 40
0.0
 40
0.0
 40
0.0
 40
0.0
 40
1.0
 40
1.0
 40
1.0
 40
1.0
 10
1926.319929790734
 20
1424.411292345821
 30
0.0
 10
1926.319929790733
 20
1422.848792345821
 30
0.0
 10
1926.319929790734
 20
1419.723792345821
 30
0.0
 10
1926.319929790734
 20
1418.161292345821
 30
0.0
  0
SPLINE
  5
D5
330
1F
100
AcDbEntity
  8
0
  6
Continuous
 62
     7
370
    18
100
AcDbSpline
210
0.0
220
0.0
230
1.0
 70
     8
 71
     3
 72
    14
 73
    10
 74
     0
 42
0.000000001
 43
0.00000001
 40
3.70973012935633
 40
3.70973012935633
 40
3.70973012935633
 40
3.70973012935633
 40
4.18320144515238
 40
4.18320144515238
 40
4.76824091606684
 40
4.76824091606684
 40
7.163050210672219
 40
7.163050210672219
 40
7.398553488633712
 40
7.398553488633712
 40
7.398553488633712
 40
7.398553488633712
 10
1884.444929790733
 20
1412.723792345821
 30
0.0
 10
1883.864887498429
 20
1412.578781772745
 30
0.0
 10
1883.329546750984
 20
1412.759191865411
 30
0.0
 10
1882.609409615676
 20
1413.937598086823
 30
0.0
 10
1883.19107175432
 20
1414.282434309407
 30
0.0
 10
1885.757429790733
 20
1416.848792345821
 30
0.0
 10
1889.882429790733
 20
1420.973792345821
 30
0.0
 10
1892.147754087385
 20
1423.239116642473
 30
0.0
 10
1892.664923348777
 20
1423.661015999588
 30
0.0
 10
1892.944929790733
 20
1423.59879234582
 30
0.0
  0
SPLINE
  5
D6
330
1F
100
AcDbEntity
  8
0
  6
Continuous
 62
     7
370
    18
100
AcDbSpline
210
0.0
220
0.0
230
1.0
 70
    24
 71
     3
 72
     8
 73
     4
 74
     0
 42
0.000000001
 43
0.00000001
 40
0.0
 40
0.0
 40
0.0
 40
0.0
 40
1.0
 40
1.0
 40
1.0
 40
1.0
 10
1713.319929790733
 20
1409.661292345821
 30
0.0
 10
1713.319929790733
 20
1416.286292345821
 30
0.0
 10
1713.319929790733
 20
1429.536292345821
 30
0.0
 10
1713.319929790733
 20
1436.161292345821
 30
0.0
  0
SPLINE
  5
D7
330
1F
100
AcDbEntity
  8
0
  6
Continuous
 62
     7
370
    18
100
AcDbSpline
210
0.0
220
0.0
230
1.0
 70
    24
 71
     3
 72
     8
 73
     4
 74
     0
 42
0.000000001
 43
0.00000001
 40
0.0
 40
0.0
 40
0.0
 40
0.0
 40
1.0
 40
1.0
 40
1.0
 40
1.0
 10
1741.819929790733
 20
1436.161292345821
 30
0.0
 10
1743.882429790733
 20
1436.161292345821
 30
0.0
 10
1748.007429790733
 20
1436.161292345821
 30
0.0
 10
1750.069929790733
 20
1436.161292345821
 30
0.0
  0
SPLINE
  5
D8
330
1F
100
AcDbEntity
  8
0
  6
Continuous
 62
     7
370
    18
100
AcDbSpline
210
0.0
220
0.0
230
1.0
 70
     8
 71
     3
 72
    14
 73
    10
 74
     0
 42
0.000000001
 43
0.00000001
 40
0.0
 40
0.0
 40
0.0
 40
0.0
 40
1.0
 40
1.0
 40
2.977717046662369
 40
2.977717046662369
 40
3.696357845312293
 40
3.696357845312293
 40
7.664387850037381
 40
7.664387850037381
 40
7.664387850037381
 40
7.664387850037381
 10
1882.444929790733
 20
1433.16129234582
 30
0.0
 10
1882.935608359581
 20
1433.16129234582
 30
0.0
 10
1883.336408082614
 20
1433.144814053939
 30
0.0
 10
1884.40398428448
 20
1432.077237852074
 30
0.0
 10
1883.412882914447
 20
1431.621462306059
 30
0.0
 10
1882.434047979006
 20
1430.48281758524
 30
0.0
 10
1881.9779105763
 20
1429.819273131387
 30
0.0
 10
1880.132429790734
 20
1427.973792345821
 30
0.0
 10
1877.007429790734
 20
1424.848792345821
 30
0.0
 10
1875.444929790733
 20
1423.28629234582
 30
0.0
  0
SPLINE
  5
D9
330
1F
100
AcDbEntity
  8
0
  6
Continuous
 62
     7
370
    18
100
AcDbSpline
210
0.0
220
0.0
230
1.0
 70
     8
 71
     3
 72
    20
 73
    16
 74
     0
 42
0.000000001
 43
0.00000001
 40
0.0
 40
0.0
 40
0.0
 40
0.0
 40
1.0
 40
1.0
 40
3.455380115080005
 40
3.455380115080005
 40
5.265785991592736
 40
5.265785991592736
 40
6.33795633872003
 40
6.33795633872003
 40
7.66983155809435
 40
7.66983155809435
 40
9.075669745701852
 40
9.075669745701852
 40
9.265030511551334
 40
9.265030511551334
 40
9.265030511551334
 40
9.265030511551334
 10
1852.569929790733
 20
1413.411292345821
 30
0.0
 10
1852.823894743267
 20
1413.608820642236
 30
0.0
 10
1852.985192907264
 20
1414.292312705866
 30
0.0
 10
1853.7099135638
 20
1415.135355102245
 30
0.0
 10
1857.010051636284
 20
1418.460133729984
 30
0.0
 10
1858.199905549029
 20
1419.352524164542
 30
0.0
 10
1858.512872575074
 20
1419.543549391607
 30
0.0
 10
1859.101291369419
 20
1420.328107784069
 30
0.0
 10
1859.668319133272
 20
1420.798504236774
 30
0.0
 10
1860.28854205447
 20
1421.331678326927
 30
0.0
 10
1860.832429790733
 20
1422.07691734582
 30
0.0
 10
1861.577560487359
 20
1422.63576536829
 30
0.0
 10
1862.216641419951
 20
1423.536292345821
 30
0.0
 10
1862.759353316133
 20
1423.536292345821
 30
0.0
 10
1862.888085503615
 20
1423.50410929895
 30
0.0
 10
1862.944929790733
 20
1423.473792345821
 30
0.0
  0
SPLINE
  5
DA
330
1F
100
AcDbEntity
  8
0
  6
Continuous
 62
     7
370
    18
100
AcDbSpline
210
0.0
220
0.0
230
1.0
 70
    24
 71
     3
 72
     8
 73
     4
 74
     0
 42
0.000000001
 43
0.00000001
 40
0.0
 40
0.0
 40
0.0
 40
0.0
 40
1.0
 40
1.0
 40
1.0
 40
1.0
 10
1741.819929790733
 20
1409.661292345821
 30
0.0
 10
1741.819929790733
 20
1416.286292345821
 30
0.0
 10
1741.819929790733
 20
1429.536292345821
 30
0.0
 10
1741.819929790733
 20
1436.161292345821
 30
0.0
  0
SPLINE
  5
DB
330
1F
100
AcDbEntity
  8
0
  6
Continuous
 62
     7
370
    18
100
AcDbSpline
210
0.0
220
0.0
230
1.0
 70
    24
 71
     3
 72
     8
 73
     4
 74
     0
 42
0.000000001
 43
0.00000001
 40
0.0
 40
0.0
 40
0.0
 40
0.0
 40
1.0
 40
1.0
 40
1.0
 40
1.0
 10
1837.069929790733
 20
1409.661292345821
 30
0.0
 10
1835.007429790733
 20
1409.661292345821
 30
0.0
 10
1830.882429790733
 20
1409.661292345821
 30
0.0
 10
1828.819929790733
 20
1409.661292345821
 30
0.0
  0
SPLINE
  5
DC
330
1F
100
AcDbEntity
  8
0
  6
Continuous
 62
     7
370
    18
100
AcDbSpline
210
0.0
220
0.0
230
1.0
 70
     8
 71
     3
 72
    14
 73
    10
 74
     0
 42
0.000000001
 43
0.00000001
 40
0.0
 40
0.0
 40
0.0
 40
0.0
 40
1.0
 40
1.0
 40
2.193307362064213
 40
2.193307362064213
 40
9.566501503243401
 40
9.566501503243401
 40
10.9120558367791
 40
10.9120558367791
 40
10.9120558367791
 40
10.9120558367791
 10
1857.694929790734
 20
1431.411292345821
 30
0.0
 10
1858.208666256885
 20
1431.379467962962
 30
0.0
 10
1858.61405103229
 20
1430.766087932825
 30
0.0
 10
1858.380197878232
 20
1429.713748739563
 30
0.0
 10
1857.359655085733
 20
1428.95101764082
 30
0.0
 10
1854.382429790734
 20
1425.97379234582
 30
0.0
 10
1849.257429790734
 20
1420.848792345821
 30
0.0
 10
1846.227292168061
 20
1417.818654723148
 30
0.0
 10
1845.744032215254
 20
1417.449445127988
 30
0.0
 10
1845.194929790733
 20
1417.848792345821
 30
0.0
  0
SPLINE
  5
DD
330
1F
100
AcDbEntity
  8
0
  6
Continuous
 62
     7
370
    18
100
AcDbSpline
210
0.0
220
0.0
230
1.0
 70
    24
 71
     3
 72
     8
 73
     4
 74
     0
 42
0.000000001
 43
0.00000001
 40
0.0
 40
0.0
 40
0.0
 40
0.0
 40
1.0
 40
1.0
 40
1.0
 40
1.0
 10
1739.819929790734
 20
1416.411292345821
 30
0.0
 10
1739.819929790734
 20
1414.723792345821
 30
0.0
 10
1739.819929790734
 20
1411.348792345821
 30
0.0
 10
1739.819929790734
 20
1409.661292345821
 30
0.0
  0
SPLINE
  5
DE
330
1F
100
AcDbEntity
  8
0
  6
Continuous
 62
     7
370
    18
100
AcDbSpline
210
0.0
220
0.0
230
1.0
 70
     8
 71
     3
 72
    12
 73
     8
 74
     0
 42
0.000000001
 43
0.00000001
 40
0.0
 40
0.0
 40
0.0
 40
0.0
 40
1.0
 40
1.0
 40
1.241335226759749
 40
1.241335226759749
 40
2.113474220859326
 40
2.113474220859326
 40
2.113474220859326
 40
2.113474220859326
 10
1750.069929790733
 20
1436.161292345821
 30
0.0
 10
1750.069929790733
 20
1431.44254234582
 30
0.0
 10
1750.069929790733
 20
1422.005042345821
 30
0.0
 10
1750.069929790733
 20
1416.147491744543
 30
0.0
 10
1750.812121727756
 20
1416.411292345821
 30
0.0
 10
1756.038679790734
 20
1416.411292345821
 30
0.0
 10
1764.226179790733
 20
1416.411292345821
 30
0.0
 10
1768.319929790734
 20
1416.411292345821
 30
0.0
  0
SPLINE
  5
DF
330
1F
100
AcDbEntity
  8
0
  6
Continuous
 62
     7
370
    18
100
AcDbSpline
210
0.0
220
0.0
230
1.0
 70
     8
 71
     3
 72
    12
 73
     8
 74
     0
 42
0.000000001
 43
0.00000001
 40
5.737334603125956
 40
5.737334603125956
 40
5.737334603125956
 40
5.737334603125956
 40
6.358474490244133
 40
6.358474490244133
 40
10.71817397152081
 40
10.71817397152081
 40
11.28339280277399
 40
11.28339280277399
 40
11.28339280277399
 40
11.28339280277399
 10
1843.694929790734
 20
1422.848792345821
 30
0.0
 10
1843.287342916826
 20
1423.145219163207
 30
0.0
 10
1843.257711512946
 20
1424.037419234673
 30
0.0
 10
1844.257811040997
 20
1428.037817346878
 30
0.0
 10
1847.555846227674
 20
1431.091750564291
 30
0.0
 10
1851.101900305636
 20
1432.864777603271
 30
0.0
 10
1852.003508290151
 20
1433.050936970675
 30
0.0
 10
1852.444929790733
 20
1433.16129234582
 30
0.0
  0
SPLINE
  5
E0
330
1F
100
AcDbEntity
  8
0
  6
Continuous
 62
     7
370
    18
100
AcDbSpline
210
0.0
220
0.0
230
1.0
 70
     8
 71
     3
 72
    16
 73
    12
 74
     0
 42
0.000000001
 43
0.00000001
 40
0.0
 40
0.0
 40
0.0
 40
0.0
 40
1.0
 40
1.0
 40
2.063217140341072
 40
2.063217140341072
 40
2.205797256782702
 40
2.205797256782702
 40
2.607833232214339
 40
2.607833232214339
 40
4.053596120036477
 40
4.053596120036477
 40
4.053596120036477
 40
4.053596120036477
 10
1691.382429790733
 20
1429.473792345821
 30
0.0
 10
1692.276854183699
 20
1428.688889307095
 30
0.0
 10
1692.938749170301
 20
1426.569133361073
 30
0.0
 10
1694.241011845028
 20
1424.438158075157
 30
0.0
 10
1695.39884773644
 20
1422.134426616484
 30
0.0
 10
1696.15992359709
 20
1420.8890297536
 30
0.0
 10
1696.234079184396
 20
1420.488264769683
 30
0.0
 10
1695.845806984178
 20
1419.95551919264
 30
0.0
 10
1694.681567650183
 20
1420.161292345821
 30
0.0
 10
1692.444929790734
 20
1420.161292345821
 30
0.0
 10
1688.944929790733
 20
1420.161292345821
 30
0.0
 10
1687.19492979073
 20
1420.161292345821
 30
0.0
  0
SPLINE
  5
E1
330
1F
100
AcDbEntity
  8
0
  6
Continuous
 62
     7
370
    18
100
AcDbSpline
210
0.0
220
0.0
230
1.0
 70
    24
 71
     3
 72
     8
 73
     4
 74
     0
 42
0.000000001
 43
0.00000001
 40
0.0
 40
0.0
 40
0.0
 40
0.0
 40
1.0
 40
1.0
 40
1.0
 40
1.0
 10
1770.569929790733
 20
1409.661292345821
 30
0.0
 10
1770.569929790733
 20
1416.286292345821
 30
0.0
 10
1770.569929790733
 20
1429.536292345821
 30
0.0
 10
1770.569929790733
 20
1436.161292345821
 30
0.0
  0
SPLINE
  5
E2
330
1F
100
AcDbEntity
  8
0
  6
Continuous
 62
     7
370
    18
100
AcDbSpline
210
0.0
220
0.0
230
1.0
 70
     8
 71
     3
 72
    12
 73
     8
 74
     0
 42
0.000000001
 43
0.00000001
 40
0.0
 40
0.0
 40
0.0
 40
0.0
 40
1.0
 40
1.0
 40
1.25483649818684
 40
1.25483649818684
 40
1.655546492432961
 40
1.655546492432961
 40
1.655546492432961
 40
1.655546492432961
 10
1926.319929790734
 20
1418.161292345821
 30
0.0
 10
1921.851179790733
 20
1418.161292345821
 30
0.0
 10
1912.913679790733
 20
1418.161292345821
 30
0.0
 10
1907.306129189456
 20
1418.161292345821
 30
0.0
 10
1907.569929790733
 20
1417.419100408798
 30
0.0
 10
1907.569929790733
 20
1414.505042345821
 30
0.0
 10
1907.569929790733
 20
1410.942542345821
 30
0.0
 10
1907.569929790733
 20
1409.161292345821
 30
0.0
  0
SPLINE
  5
E3
330
1F
100
AcDbEntity
  8
0
  6
Continuous
 62
     7
370
    18
100
AcDbSpline
210
0.0
220
0.0
230
1.0
 70
     8
 71
     3
 72
    11
 73
     7
 74
     0
 42
0.000000001
 43
0.00000001
 40
5.756295536229831
 40
5.756295536229831
 40
5.756295536229831
 40
5.756295536229831
 40
8.163341382800121
 40
8.163341382800121
 40
11.02887215253
 40
11.60175113143816
 40
11.60175113143816
 40
11.60175113143816
 40
11.60175113143816
 10
1875.194929790733
 20
1419.286292345819
 30
0.0
 10
1876.404932007692
 20
1420.69384594514
 30
0.0
 10
1879.132429790733
 20
1423.223792345821
 30
0.0
 10
1882.007429790733
 20
1426.098792345821
 30
0.0
 10
1885.738020747467
 20
1429.843412562908
 30
0.0
 10
1887.264893065612
 20
1431.350646140996
 30
0.0
 10
1887.694929790734
 20
1431.411292345821
 30
0.0
  0
SPLINE
  5
E4
330
1F
100
AcDbEntity
  8
0
  6
Continuous
 62
     7
370
    18
100
AcDbSpline
210
0.0
220
0.0
230
1.0
 70
     8
 71
     3
 72
    22
 73
    18
 74
     0
 42
0.000000001
 43
0.00000001
 40
0.0
 40
0.0
 40
0.0
 40
0.0
 40
1.0
 40
1.0
 40
5.467082076875723
 40
5.467082076875723
 40
7.899207077844935
 40
7.899207077844935
 40
19.98998545087733
 40
19.98998545087733
 40
21.98249619956332
 40
21.98249619956332
 40
26.54828523817712
 40
26.54828523817712
 40
30.4707514628367
 40
30.4707514628367
 40
38.17994665075769
 40
38.17994665075769
 40
38.17994665075769
 40
38.17994665075769
 10
1702.069929790734
 20
1409.661292345821
 30
0.0
 10
1702.111140701322
 20
1409.94976871994
 30
0.0
 10
1701.722187877446
 20
1410.287142749382
 30
0.0
 10
1700.88978042052
 20
1411.649264042534
 30
0.0
 10
1700.517518527794
 20
1413.027702854752
 30
0.0
 10
1699.150538836317
 20
1414.585423898527
 30
0.0
 10
1698.136401376177
 20
1414.411292345821
 30
0.0
 10
1694.007429790733
 20
1414.411292345821
 30
0.0
 10
1687.132429790733
 20
1414.411292345821
 30
0.0
 10
1683.128443871688
 20
1414.411292345821
 30
0.0
 10
1682.936384382929
 20
1414.276760487395
 30
0.0
 10
1682.347359774299
 20
1412.662396745222
 30
0.0
 10
1682.172566488416
 20
1412.616565741185
 30
0.0
 10
1681.168398725031
 20
1410.608230214417
 30
0.0
 10
1681.010237317357
 20
1409.661292345821
 30
0.0
 10
1677.851179790734
 20
1409.661292345821
 30
0.0
 10
1673.663679790733
 20
1409.661292345821
 30
0.0
 10
1671.569929790733
 20
1409.661292345821
 30
0.0
  0
SPLINE
  5
E5
330
1F
100
AcDbEntity
  8
0
  6
Continuous
 62
     7
370
    18
100
AcDbSpline
210
0.0
220
0.0
230
1.0
 70
     8
 71
     3
 72
    14
 73
    10
 74
     0
 42
0.000000001
 43
0.00000001
 40
1.760664727461603
 40
1.760664727461603
 40
1.760664727461603
 40
1.760664727461603
 40
2.810130168906992
 40
2.810130168906992
 40
3.185073502470245
 40
3.185073502470245
 40
3.516059258856369
 40
3.516059258856369
 40
3.635479974656625
 40
3.635479974656625
 40
3.635479974656625
 40
3.635479974656625
 10
1826.194929790734
 20
1423.16129234582
 30
0.0
 10
1823.007429790733
 20
1423.16129234582
 30
0.0
 10
1816.632429790733
 20
1423.16129234582
 30
0.0
 10
1812.306129189456
 20
1423.16129234582
 30
0.0
 10
1812.569929790733
 20
1423.903484282843
 30
0.0
 10
1812.569929790733
 20
1426.036292345821
 30
0.0
 10
1812.449598423214
 20
1428.043558563787
 30
0.0
 10
1812.613345731647
 20
1429.394473858357
 30
0.0
 10
1812.835656091704
 20
1429.639036452961
 30
0.0
 10
1813.194929790733
 20
1429.661292345821
 30
0.0
  0
SPLINE
  5
E6
330
1F
100
AcDbEntity
  8
0
  6
Continuous
 62
     7
370
    18
100
AcDbSpline
210
0.0
220
0.0
230
1.0
 70
     8
 71
     3
 72
    16
 73
    12
 74
     0
 42
0.000000001
 43
0.00000001
 40
0.0
 40
0.0
 40
0.0
 40
0.0
 40
1.0
 40
1.0
 40
2.110655549719839
 40
2.110655549719839
 40
3.97936792914761
 40
3.97936792914761
 40
4.906510357634136
 40
4.906510357634136
 40
5.756295536229831
 40
5.756295536229831
 40
5.756295536229831
 40
5.756295536229831
 10
1887.694929790734
 20
1431.411292345821
 30
0.0
 10
1888.56858247481
 20
1431.288084916015
 30
0.0
 10
1888.781516735604
 20
1430.468648587813
 30
0.0
 10
1887.54343374502
 20
1429.028429598766
 30
0.0
 10
1886.883359655481
 20
1428.537532165484
 30
0.0
 10
1885.371941583726
 20
1426.522308069811
 30
0.0
 10
1878.503123386281
 20
1419.844485941368
 30
0.0
 10
1876.919917921176
 20
1418.261280476263
 30
0.0
 10
1876.126031479177
 20
1417.412998371482
 30
0.0
 10
1874.820656645452
 20
1418.008654849008
 30
0.0
 10
1874.767749746985
 20
1418.78936862146
 30
0.0
 10
1875.194929790733
 20
1419.286292345819
 30
0.0
  0
SPLINE
  5
E7
330
1F
100
AcDbEntity
  8
0
  6
Continuous
 62
     7
370
    18
100
AcDbSpline
210
0.0
220
0.0
230
1.0
 70
    24
 71
     3
 72
     8
 73
     4
 74
     0
 42
0.000000001
 43
0.00000001
 40
0.0
 40
0.0
 40
0.0
 40
0.0
 40
1.0
 40
1.0
 40
1.0
 40
1.0
 10
1739.819929790734
 20
1409.661292345821
 30
0.0
 10
1733.194929790733
 20
1409.661292345821
 30
0.0
 10
1719.944929790734
 20
1409.661292345821
 30
0.0
 10
1713.319929790733
 20
1409.661292345821
 30
0.0
  0
SPLINE
  5
E8
330
1F
100
AcDbEntity
  8
0
  6
Continuous
 62
     7
370
    18
100
AcDbSpline
210
0.0
220
0.0
230
1.0
 70
    24
 71
     3
 72
     8
 73
     4
 74
     0
 42
0.000000001
 43
0.00000001
 40
0.0
 40
0.0
 40
0.0
 40
0.0
 40
1.0
 40
1.0
 40
1.0
 40
1.0
 10
1907.569929790733
 20
1409.161292345821
 30
0.0
 10
1905.507429790733
 20
1409.161292345821
 30
0.0
 10
1901.382429790733
 20
1409.161292345821
 30
0.0
 10
1899.319929790733
 20
1409.161292345821
 30
0.0
  0
SPLINE
  5
E9
330
1F
100
AcDbEntity
  8
0
  6
Continuous
 62
     7
370
    18
100
AcDbSpline
210
0.0
220
0.0
230
1.0
 70
    24
 71
     3
 72
     8
 73
     4
 74
     0
 42
0.000000001
 43
0.00000001
 40
0.0
 40
0.0
 40
0.0
 40
0.0
 40
1.0
 40
1.0
 40
1.0
 40
1.0
 10
1927.069929790733
 20
1435.911292345821
 30
0.0
 10
1927.069929790733
 20
1434.286292345821
 30
0.0
 10
1927.069929790733
 20
1431.03629234582
 30
0.0
 10
1927.069929790733
 20
1429.411292345821
 30
0.0
  0
SPLINE
  5
EA
330
1F
100
AcDbEntity
  8
0
  6
Continuous
 62
     7
370
    18
100
AcDbSpline
210
0.0
220
0.0
230
1.0
 70
     8
 71
     3
 72
    10
 73
     6
 74
     0
 42
0.000000001
 43
0.00000001
 40
0.0
 40
0.0
 40
0.0
 40
0.0
 40
1.0
 40
1.0
 40
3.70973012935633
 40
3.70973012935633
 40
3.70973012935633
 40
3.70973012935633
 10
1892.944929790733
 20
1423.59879234582
 30
0.0
 10
1894.16333621336
 20
1423.223898061936
 30
0.0
 10
1893.476804393285
 20
1420.611178059088
 30
0.0
 10
1891.039976888987
 20
1416.623642142963
 30
0.0
 10
1887.764577725716
 20
1413.553704329567
 30
0.0
 10
1884.444929790733
 20
1412.723792345821
 30
0.0
  0
SPLINE
  5
EB
330
1F
100
AcDbEntity
  8
0
  6
Continuous
 62
     7
370
    18
100
AcDbSpline
210
0.0
220
0.0
230
1.0
 70
    24
 71
     3
 72
     8
 73
     4
 74
     0
 42
0.000000001
 43
0.00000001
 40
0.0
 40
0.0
 40
0.0
 40
0.0
 40
1.0
 40
1.0
 40
1.0
 40
1.0
 10
1711.069929790733
 20
1409.661292345821
 30
0.0
 10
1708.819929790734
 20
1409.661292345821
 30
0.0
 10
1704.319929790733
 20
1409.661292345821
 30
0.0
 10
1702.069929790734
 20
1409.661292345821
 30
0.0
  0
SPLINE
  5
EC
330
1F
100
AcDbEntity
  8
0
  6
Continuous
 62
     7
370
    18
100
AcDbSpline
210
0.0
220
0.0
230
1.0
 70
     8
 71
     3
 72
    16
 73
    12
 74
     0
 42
0.000000001
 43
0.00000001
 40
7.664387850037381
 40
7.664387850037381
 40
7.664387850037381
 40
7.664387850037381
 40
9.774868176876959
 40
9.774868176876959
 40
11.08551215012811
 40
11.08551215012811
 40
14.60733742867669
 40
14.60733742867669
 40
15.17929153805824
 40
15.17929153805824
 40
15.69440389642565
 40
15.69440389642565
 40
15.69440389642565
 40
15.69440389642565
 10
1875.444929790733
 20
1423.28629234582
 30
0.0
 10
1874.613881258649
 20
1422.455243813737
 30
0.0
 10
1873.674861795831
 20
1422.366564325428
 30
0.0
 10
1873.200824570257
 20
1424.262713227726
 30
0.0
 10
1873.842426856272
 20
1425.857196634884
 30
0.0
 10
1875.372582231128
 20
1428.361087248285
 30
0.0
 10
1876.956295898227
 20
1430.169816926441
 30
0.0
 10
1878.977288715685
 20
1431.685561539535
 30
0.0
 10
1880.843484266735
 20
1432.698430964821
 30
0.0
 10
1881.511448073822
 20
1432.865421916593
 30
0.0
 10
1882.128411507645
 20
1433.082162775048
 30
0.0
 10
1882.444929790733
 20
1433.16129234582
 30
0.0
  0
SPLINE
  5
ED
330
1F
100
AcDbEntity
  8
0
  6
Continuous
 62
     7
370
    18
100
AcDbSpline
210
0.0
220
0.0
230
1.0
 70
     8
 71
     3
 72
    14
 73
    10
 74
     0
 42
0.000000001
 43
0.00000001
 40
0.0
 40
0.0
 40
0.0
 40
0.0
 40
1.0
 40
1.0
 40
1.652899414934201
 40
1.652899414934201
 40
5.771504330795985
 40
5.771504330795985
 40
7.292439914004937
 40
7.292439914004937
 40
7.292439914004937
 40
7.292439914004937
 10
1860.944929790733
 20
1428.16129234582
 30
0.0
 10
1861.705969364401
 20
1428.253539566871
 30
0.0
 10
1862.224512094712
 20
1427.448336115968
 30
0.0
 10
1861.555778241176
 20
1426.354044355637
 30
0.0
 10
1858.771886386664
 20
1423.613248941751
 30
0.0
 10
1856.382429790733
 20
1421.22379234582
 30
0.0
 10
1852.257429790733
 20
1417.098792345821
 30
0.0
 10
1849.433281197471
 20
1414.274643752558
 30
0.0
 10
1848.565661273345
 20
1413.872822647001
 30
0.0
 10
1848.007429790733
 20
1414.78629234582
 30
0.0
  0
SPLINE
  5
EE
330
1F
100
AcDbEntity
  8
0
  6
Continuous
 62
     7
370
    18
100
AcDbSpline
210
0.0
220
0.0
230
1.0
 70
    24
 71
     3
 72
     8
 73
     4
 74
     0
 42
0.000000001
 43
0.00000001
 40
0.0
 40
0.0
 40
0.0
 40
0.0
 40
1.0
 40
1.0
 40
1.0
 40
1.0
 10
1778.569929790733
 20
1409.661292345821
 30
0.0
 10
1776.569929790733
 20
1409.661292345821
 30
0.0
 10
1772.569929790733
 20
1409.661292345821
 30
0.0
 10
1770.569929790733
 20
1409.661292345821
 30
0.0
  0
SPLINE
  5
EF
330
1F
100
AcDbEntity
  8
0
  6
Continuous
 62
     7
370
    18
100
AcDbSpline
210
0.0
220
0.0
230
1.0
 70
     8
 71
     3
 72
    22
 73
    18
 74
     0
 42
0.000000001
 43
0.00000001
 40
10.9120558367791
 40
10.9120558367791
 40
10.9120558367791
 40
10.9120558367791
 40
12.08238798929943
 40
12.08238798929943
 40
14.85927622796596
 40
14.85927622796596
 40
16.01909401202864
 40
16.01909401202864
 40
17.60935727980451
 40
17.60935727980451
 40
18.47406293166026
 40
18.47406293166026
 40
19.26919456554886
 40
19.26919456554886
 40
21.37802734409087
 40
21.37802734409087
 40
22.40662710578945
 40
22.40662710578945
 40
22.40662710578945
 40
22.40662710578945
 10
1845.194929790733
 20
1417.848792345821
 30
0.0
 10
1844.717333155335
 20
1418.196135353383
 30
0.0
 10
1844.803003240052
 20
1418.830377786864
 30
0.0
 10
1846.124867694828
 20
1420.368056846503
 30
0.0
 10
1847.50933905949
 20
1421.37217137083
 30
0.0
 10
1848.747091984586
 20
1423.02250860429
 30
0.0
 10
1849.705267596881
 20
1423.800076087351
 30
0.0
 10
1850.569929790734
 20
1424.952959012487
 30
0.0
 10
1850.778263124067
 20
1425.161292345821
 30
0.0
 10
1851.807429790733
 20
1425.933167345821
 30
0.0
 10
1852.332429790733
 20
1426.701917345821
 30
0.0
 10
1853.028263124067
 20
1427.22379234582
 30
0.0
 10
1853.382429790733
 20
1427.452959012487
 30
0.0
 10
1854.295474967362
 20
1428.670352581325
 30
0.0
 10
1855.810869555229
 20
1430.310747169192
 30
0.0
 10
1857.126137118703
 20
1431.297197841798
 30
0.0
 10
1857.191554335017
 20
1431.285448481892
 30
0.0
 10
1857.694929790734
 20
1431.411292345821
 30
0.0
  0
SPLINE
  5
F0
330
1F
100
AcDbEntity
  8
0
  6
Continuous
 62
     7
370
    18
100
AcDbSpline
210
0.0
220
0.0
230
1.0
 70
    24
 71
     3
 72
     8
 73
     4
 74
     0
 42
0.000000001
 43
0.00000001
 40
0.0
 40
0.0
 40
0.0
 40
0.0
 40
1.0
 40
1.0
 40
1.0
 40
1.0
 10
1713.319929790733
 20
1436.161292345821
 30
0.0
 10
1715.382429790733
 20
1436.161292345821
 30
0.0
 10
1719.507429790733
 20
1436.161292345821
 30
0.0
 10
1721.569929790733
 20
1436.161292345821
 30
0.0
  0
SPLINE
  5
F1
330
1F
100
AcDbEntity
  8
0
  6
Continuous
 62
     7
370
    18
100
AcDbSpline
210
0.0
220
0.0
230
1.0
 70
    24
 71
     3
 72
     8
 73
     4
 74
     0
 42
0.000000001
 43
0.00000001
 40
0.0
 40
0.0
 40
0.0
 40
0.0
 40
1.0
 40
1.0
 40
1.0
 40
1.0
 10
1768.319929790733
 20
1409.66129234582
 30
0.0
 10
1761.694929790734
 20
1409.66129234582
 30
0.0
 10
1748.444929790733
 20
1409.661292345821
 30
0.0
 10
1741.819929790733
 20
1409.661292345821
 30
0.0
  0
SPLINE
  5
F2
330
1F
100
AcDbEntity
  8
0
  6
Continuous
 62
     7
370
    18
100
AcDbSpline
210
0.0
220
0.0
230
1.0
 70
     8
 71
     3
 72
    12
 73
     8
 74
     0
 42
0.000000001
 43
0.00000001
 40
0.0
 40
0.0
 40
0.0
 40
0.0
 40
1.0
 40
1.0
 40
1.479953274963747
 40
1.479953274963747
 40
2.151810981758136
 40
2.151810981758136
 40
2.151810981758136
 40
2.151810981758136
 10
1779.194929790733
 20
1429.661292345821
 30
0.0
 10
1782.132429790734
 20
1429.661292345821
 30
0.0
 10
1788.007429790733
 20
1429.661292345821
 30
0.0
 10
1792.354792535943
 20
1429.661292345821
 30
0.0
 10
1793.534766987757
 20
1428.926943557725
 30
0.0
 10
1794.369102026823
 20
1425.589603401465
 30
0.0
 10
1793.857782138121
 20
1423.173456266716
 30
0.0
 10
1791.694929790736
 20
1422.911292345821
 30
0.0
  0
SPLINE
  5
F3
330
1F
100
AcDbEntity
  8
0
  6
Continuous
 62
     7
370
    18
100
AcDbSpline
210
0.0
220
0.0
230
1.0
 70
    24
 71
     3
 72
     8
 73
     4
 74
     0
 42
0.000000001
 43
0.00000001
 40
0.0
 40
0.0
 40
0.0
 40
0.0
 40
1.0
 40
1.0
 40
1.0
 40
1.0
 10
1671.577113819359
 20
1390.911292345821
 30
0.0
 10
1671.577113819359
 20
1392.66129234582
 30
0.0
 10
1671.577113819359
 20
1396.161292345821
 30
0.0
 10
1671.577113819359
 20
1397.91129234582
 30
0.0
  0
SPLINE
  5
F4
330
1F
100
AcDbEntity
  8
0
  6
Continuous
 62
     7
370
    18
100
AcDbSpline
210
0.0
220
0.0
230
1.0
 70
     8
 71
     3
 72
    12
 73
     8
 74
     0
 42
0.000000001
 43
0.00000001
 40
3.750764701960262
 40
3.750764701960262
 40
3.750764701960262
 40
3.750764701960262
 40
4.851761727725281
 40
4.851761727725281
 40
5.452311854171565
 40
5.452311854171565
 40
5.885672653484461
 40
5.885672653484461
 40
5.885672653484461
 40
5.885672653484461
 10
1728.20211381936
 20
1392.66129234582
 30
0.0
 10
1727.298739830922
 20
1392.66129234582
 30
0.0
 10
1725.687416416853
 20
1392.376295916491
 30
0.0
 10
1725.516948135599
 20
1393.782659236837
 30
0.0
 10
1725.516948135599
 20
1394.789925454804
 30
0.0
 10
1725.620529760272
 20
1395.644473858357
 30
0.0
 10
1725.842840120329
 20
1395.88903645296
 30
0.0
 10
1726.202113819359
 20
1395.911292345821
 30
0.0
  0
SPLINE
  5
F5
330
1F
100
AcDbEntity
  8
0
  6
Continuous
 62
     7
370
    18
100
AcDbSpline
210
0.0
220
0.0
230
1.0
 70
    24
 71
     3
 72
     8
 73
     4
 74
     0
 42
0.000000001
 43
0.00000001
 40
0.0
 40
0.0
 40
0.0
 40
0.0
 40
1.0
 40
1.0
 40
1.0
 40
1.0
 10
1865.827113819359
 20
1397.66129234582
 30
0.0
 10
1866.389613819359
 20
1397.66129234582
 30
0.0
 10
1867.514613819359
 20
1397.66129234582
 30
0.0
 10
1868.077113819359
 20
1397.661292345821
 30
0.0
  0
SPLINE
  5
F6
330
1F
100
AcDbEntity
  8
0
  6
Continuous
 62
     7
370
    18
100
AcDbSpline
210
0.0
220
0.0
230
1.0
 70
    24
 71
     3
 72
     8
 73
     4
 74
     0
 42
0.000000001
 43
0.00000001
 40
0.0
 40
0.0
 40
0.0
 40
0.0
 40
1.0
 40
1.0
 40
1.0
 40
1.0
 10
1891.077113819359
 20
1397.66129234582
 30
0.0
 10
1892.952113819358
 20
1397.66129234582
 30
0.0
 10
1896.702113819359
 20
1397.66129234582
 30
0.0
 10
1898.577113819359
 20
1397.66129234582
 30
0.0
  0
SPLINE
  5
F7
330
1F
100
AcDbEntity
  8
0
  6
Continuous
 62
     7
370
    18
100
AcDbSpline
210
0.0
220
0.0
230
1.0
 70
     8
 71
     3
 72
    16
 73
    12
 74
     0
 42
0.000000001
 43
0.00000001
 40
0.0
 40
0.0
 40
0.0
 40
0.0
 40
1.0
 40
1.0
 40
1.74289884046095
 40
1.74289884046095
 40
1.934329872822982
 40
1.934329872822982
 40
2.495653061832944
 40
2.495653061832944
 40
3.50425146140138
 40
3.50425146140138
 40
3.50425146140138
 40
3.50425146140138
 10
1723.577113819359
 20
1397.66129234582
 30
0.0
 10
1725.358363819358
 20
1397.66129234582
 30
0.0
 10
1728.920863819359
 20
1397.66129234582
 30
0.0
 10
1732.025402378934
 20
1397.66129234582
 30
0.0
 10
1732.827113819359
 20
1396.63105074906
 30
0.0
 10
1732.827113819359
 20
1394.939773445284
 30
0.0
 10
1732.847840835513
 20
1392.619200410439
 30
0.0
 10
1732.520571599317
 20
1391.310123465656
 30
0.0
 10
1731.408663256206
 20
1390.911292345821
 30
0.0
 10
1728.733363819358
 20
1390.911292345821
 30
0.0
 10
1725.295863819359
 20
1390.911292345821
 30
0.0
 10
1723.577113819359
 20
1390.911292345821
 30
0.0
  0
SPLINE
  5
F8
330
1F
100
AcDbEntity
  8
0
  6
Continuous
 62
     7
370
    18
100
AcDbSpline
210
0.0
220
0.0
230
1.0
 70
     8
 71
     3
 72
    12
 73
     8
 74
     0
 42
0.000000001
 43
0.00000001
 40
0.0
 40
0.0
 40
0.0
 40
0.0
 40
1.0
 40
1.0
 40
2.23290638170202
 40
2.23290638170202
 40
3.872304243034645
 40
3.872304243034645
 40
3.872304243034645
 40
3.872304243034645
 10
1815.327113819358
 20
1395.911292345821
 30
0.0
 10
1814.733363819359
 20
1395.911292345821
 30
0.0
 10
1813.541549502441
 20
1395.982739095285
 30
0.0
 10
1812.225394804081
 20
1395.823205192454
 30
0.0
 10
1812.327113819359
 20
1395.217836121601
 30
0.0
 10
1812.327113819359
 20
1393.63004234582
 30
0.0
 10
1812.327113819359
 20
1391.817542345821
 30
0.0
 10
1812.327113819359
 20
1390.911292345821
 30
0.0
  0
SPLINE
  5
F9
330
1F
100
AcDbEntity
  8
0
  6
Continuous
 62
     7
370
    18
100
AcDbSpline
210
0.0
220
0.0
230
1.0
 70
    24
 71
     3
 72
    10
 73
     6
 74
     0
 42
0.000000001
 43
0.00000001
 40
0.0
 40
0.0
 40
0.0
 40
0.0
 40
1.0
 40
1.0
 40
1.148936170212766
 40
1.148936170212766
 40
1.148936170212766
 40
1.148936170212766
 10
1868.077113819359
 20
1397.661292345821
 30
0.0
 10
1868.077113819359
 20
1396.19254234582
 30
0.0
 10
1868.077113819359
 20
1393.255042345821
 30
0.0
 10
1868.077113819359
 20
1391.56754234582
 30
0.0
 10
1868.077113819359
 20
1391.130042345821
 30
0.0
 10
1868.077113819359
 20
1390.911292345821
 30
0.0
  0
SPLINE
  5
FA
330
1F
100
AcDbEntity
  8
0
  6
Continuous
 62
     7
370
    18
100
AcDbSpline
210
0.0
220
0.0
230
1.0
 70
    24
 71
     3
 72
     8
 73
     4
 74
     0
 42
0.000000001
 43
0.00000001
 40
0.0
 40
0.0
 40
0.0
 40
0.0
 40
1.0
 40
1.0
 40
1.0
 40
1.0
 10
1868.077113819359
 20
1390.911292345821
 30
0.0
 10
1867.514613819359
 20
1390.911292345821
 30
0.0
 10
1866.389613819359
 20
1390.911292345821
 30
0.0
 10
1865.827113819359
 20
1390.911292345821
 30
0.0
  0
SPLINE
  5
FB
330
1F
100
AcDbEntity
  8
0
  6
Continuous
 62
     7
370
    18
100
AcDbSpline
210
0.0
220
0.0
230
1.0
 70
    24
 71
     3
 72
     8
 73
     4
 74
     0
 42
0.000000001
 43
0.00000001
 40
0.0
 40
0.0
 40
0.0
 40
0.0
 40
1.0
 40
1.0
 40
1.0
 40
1.0
 10
1751.327113819359
 20
1397.66129234582
 30
0.0
 10
1751.827113819359
 20
1397.66129234582
 30
0.0
 10
1752.827113819359
 20
1397.66129234582
 30
0.0
 10
1753.327113819359
 20
1397.66129234582
 30
0.0
  0
SPLINE
  5
FC
330
1F
100
AcDbEntity
  8
0
  6
Continuous
 62
     7
370
    18
100
AcDbSpline
210
0.0
220
0.0
230
1.0
 70
    24
 71
     3
 72
     8
 73
     4
 74
     0
 42
0.000000001
 43
0.00000001
 40
0.0
 40
0.0
 40
0.0
 40
0.0
 40
1.0
 40
1.0
 40
1.0
 40
1.0
 10
1835.077113819359
 20
1390.911292345821
 30
0.0
 10
1835.077113819359
 20
1392.598792345821
 30
0.0
 10
1835.077113819359
 20
1395.97379234582
 30
0.0
 10
1835.077113819359
 20
1397.66129234582
 30
0.0
  0
SPLINE
  5
FD
330
1F
100
AcDbEntity
  8
0
  6
Continuous
 62
     7
370
    18
100
AcDbSpline
210
0.0
220
0.0
230
1.0
 70
    24
 71
     3
 72
     8
 73
     4
 74
     0
 42
0.000000001
 43
0.00000001
 40
0.0
 40
0.0
 40
0.0
 40
0.0
 40
1.0
 40
1.0
 40
1.0
 40
1.0
 10
1815.327113819358
 20
1397.66129234582
 30
0.0
 10
1815.327113819358
 20
1397.223792345821
 30
0.0
 10
1815.327113819358
 20
1396.348792345821
 30
0.0
 10
1815.327113819358
 20
1395.911292345821
 30
0.0
  0
SPLINE
  5
FE
330
1F
100
AcDbEntity
  8
0
  6
Continuous
 62
     7
370
    18
100
AcDbSpline
210
0.0
220
0.0
230
1.0
 70
     8
 71
     3
 72
    12
 73
     8
 74
     0
 42
0.000000001
 43
0.00000001
 40
0.0
 40
0.0
 40
0.0
 40
0.0
 40
1.0
 40
1.0
 40
1.725995965647149
 40
1.725995965647149
 40
2.671941911593709
 40
2.671941911593709
 40
2.671941911593709
 40
2.671941911593709
 10
1898.577113819359
 20
1396.161292345821
 30
0.0
 10
1897.420863819359
 20
1396.161292345821
 30
0.0
 10
1895.099962254836
 20
1396.300425489515
 30
0.0
 10
1893.118780486026
 20
1396.060282244811
 30
0.0
 10
1893.118780486025
 20
1395.012302446831
 30
0.0
 10
1895.037916393458
 20
1394.779679912597
 30
0.0
 10
1897.233363819358
 20
1394.911292345821
 30
0.0
 10
1898.327113819359
 20
1394.911292345821
 30
0.0
  0
SPLINE
  5
FF
330
1F
100
AcDbEntity
  8
0
  6
Continuous
 62
     7
370
    18
100
AcDbSpline
210
0.0
220
0.0
230
1.0
 70
     8
 71
     3
 72
    24
 73
    20
 74
     0
 42
0.000000001
 43
0.00000001
 40
0.0
 40
0.0
 40
0.0
 40
0.0
 40
1.0
 40
1.0
 40
2.846821464086397
 40
2.846821464086397
 40
4.438859699228889
 40
4.438859699228889
 40
5.988064523527982
 40
5.988064523527982
 40
8.826466755819752
 40
8.826466755819752
 40
11.03735166409459
 40
11.03735166409459
 40
11.9601964894919
 40
11.9601964894919
 40
14.43814285926044
 40
14.43814285926044
 40
14.61319364393787
 40
14.61319364393787
 40
14.61319364393787
 40
14.61319364393787
 10
1920.57711381936
 20
1393.16129234582
 30
0.0
 10
1920.522132855267
 20
1392.77642559717
 30
0.0
 10
1921.082557536622
 20
1392.456087046758
 30
0.0
 10
1922.134618294508
 20
1392.328564530651
 30
0.0
 10
1923.514613819359
 20
1392.411292345821
 30
0.0
 10
1924.794767905283
 20
1392.411292345821
 30
0.0
 10
1925.288461674626
 20
1392.824944490555
 30
0.0
 10
1924.501496870973
 20
1393.611909294208
 30
0.0
 10
1923.250994071555
 20
1393.411292345821
 30
0.0
 10
1921.696473436202
 20
1393.411292345821
 30
0.0
 10
1921.671358693116
 20
1393.356481127381
 30
0.0
 10
1919.947150749139
 20
1393.787533113375
 30
0.0
 10
1919.263884390985
 20
1393.599795309834
 30
0.0
 10
1918.556213435525
 20
1394.57284287359
 30
0.0
 10
1918.516545657796
 20
1396.448994421538
 30
0.0
 10
1918.970066237564
 20
1397.691976751272
 30
0.0
 10
1920.317389718315
 20
1397.62761132056
 30
0.0
 10
1921.264613819358
 20
1397.86441734582
 30
0.0
 10
1921.389613819359
 20
1397.895667345821
 30
0.0
 10
1921.452113819359
 20
1397.91129234582
 30
0.0
  0
SPLINE
  5
100
330
1F
100
AcDbEntity
  8
0
  6
Continuous
 62
     7
370
    18
100
AcDbSpline
210
0.0
220
0.0
230
1.0
 70
    24
 71
     3
 72
     8
 73
     4
 74
     0
 42
0.000000001
 43
0.00000001
 40
0.0
 40
0.0
 40
0.0
 40
0.0
 40
1.0
 40
1.0
 40
1.0
 40
1.0
 10
1865.827113819359
 20
1390.911292345821
 30
0.0
 10
1865.827113819359
 20
1392.598792345821
 30
0.0
 10
1865.827113819359
 20
1395.97379234582
 30
0.0
 10
1865.827113819359
 20
1397.66129234582
 30
0.0
  0
SPLINE
  5
101
330
1F
100
AcDbEntity
  8
0
  6
Continuous
 62
     7
370
    18
100
AcDbSpline
210
0.0
220
0.0
230
1.0
 70
    24
 71
     3
 72
     8
 73
     4
 74
     0
 42
0.000000001
 43
0.00000001
 40
0.0
 40
0.0
 40
0.0
 40
0.0
 40
1.0
 40
1.0
 40
1.0
 40
1.0
 10
1671.577113819359
 20
1397.91129234582
 30
0.0
 10
1672.014613819359
 20
1397.91129234582
 30
0.0
 10
1672.889613819358
 20
1397.91129234582
 30
0.0
 10
1673.327113819359
 20
1397.91129234582
 30
0.0
  0
SPLINE
  5
102
330
1F
100
AcDbEntity
  8
0
  6
Continuous
 62
     7
370
    18
100
AcDbSpline
210
0.0
220
0.0
230
1.0
 70
     8
 71
     3
 72
    16
 73
    12
 74
     0
 42
0.000000001
 43
0.00000001
 40
0.0
 40
0.0
 40
0.0
 40
0.0
 40
1.0
 40
1.0
 40
1.887873613778072
 40
1.887873613778072
 40
2.774623687925122
 40
2.774623687925122
 40
5.880562257673233
 40
5.880562257673233
 40
6.83819612358108
 40
6.83819612358108
 40
6.83819612358108
 40
6.83819612358108
 10
1695.32711381936
 20
1397.661292345814
 30
0.0
 10
1696.108363819359
 20
1397.661292345814
 30
0.0
 10
1697.676540552145
 20
1397.755301226691
 30
0.0
 10
1699.140724858871
 20
1397.577824341028
 30
0.0
 10
1699.553251698212
 20
1396.836703089514
 30
0.0
 10
1700.225550298651
 20
1395.736578106979
 30
0.0
 10
1701.12807266696
 20
1394.801680549021
 30
0.0
 10
1702.868516242433
 20
1392.481089115061
 30
0.0
 10
1702.827113819363
 20
1392.907846121261
 30
0.0
 10
1702.827113819361
 20
1395.692542345821
 30
0.0
 10
1702.82711381936
 20
1397.005042345821
 30
0.0
 10
1702.827113819359
 20
1397.66129234582
 30
0.0
  0
SPLINE
  5
103
330
1F
100
AcDbEntity
  8
0
  6
Continuous
 62
     7
370
    18
100
AcDbSpline
210
0.0
220
0.0
230
1.0
 70
    24
 71
     3
 72
     8
 73
     4
 74
     0
 42
0.000000001
 43
0.00000001
 40
0.0
 40
0.0
 40
0.0
 40
0.0
 40
1.0
 40
1.0
 40
1.0
 40
1.0
 10
1898.577113819359
 20
1397.66129234582
 30
0.0
 10
1898.577113819359
 20
1397.286292345821
 30
0.0
 10
1898.577113819359
 20
1396.53629234582
 30
0.0
 10
1898.577113819359
 20
1396.161292345821
 30
0.0
  0
SPLINE
  5
104
330
1F
100
AcDbEntity
  8
0
  6
Continuous
 62
     7
370
    18
100
AcDbSpline
210
0.0
220
0.0
230
1.0
 70
    24
 71
     3
 72
     8
 73
     4
 74
     0
 42
0.000000001
 43
0.00000001
 40
0.0
 40
0.0
 40
0.0
 40
0.0
 40
1.0
 40
1.0
 40
1.0
 40
1.0
 10
1898.327113819359
 20
1394.911292345821
 30
0.0
 10
1898.327113819359
 20
1394.59879234582
 30
0.0
 10
1898.327113819359
 20
1393.973792345821
 30
0.0
 10
1898.327113819359
 20
1393.661292345821
 30
0.0
  0
SPLINE
  5
105
330
1F
100
AcDbEntity
  8
0
  6
Continuous
 62
     7
370
    18
100
AcDbSpline
210
0.0
220
0.0
230
1.0
 70
    24
 71
     3
 72
     8
 73
     4
 74
     0
 42
0.000000001
 43
0.00000001
 40
0.0
 40
0.0
 40
0.0
 40
0.0
 40
1.0
 40
1.0
 40
1.0
 40
1.0
 10
1697.577113819357
 20
1390.911292345826
 30
0.0
 10
1697.014613819358
 20
1390.911292345826
 30
0.0
 10
1695.88961381936
 20
1390.911292345826
 30
0.0
 10
1695.32711381936
 20
1390.911292345826
 30
0.0
  0
SPLINE
  5
106
330
1F
100
AcDbEntity
  8
0
  6
Continuous
 62
     7
370
    18
100
AcDbSpline
210
0.0
220
0.0
230
1.0
 70
     8
 71
     3
 72
     8
 73
     4
 74
     0
 42
0.000000001
 43
0.00000001
 40
0.0
 40
0.0
 40
0.0
 40
0.0
 40
1.0
 40
1.0
 40
1.0
 40
1.0
 10
1781.327113819359
 20
1395.661292345821
 30
0.0
 10
1781.583756773347
 20
1395.917935299809
 30
0.0
 10
1781.841983898116
 20
1396.110504792825
 30
0.0
 10
1782.202113819359
 20
1396.161292345821
 30
0.0
  0
SPLINE
  5
107
330
1F
100
AcDbEntity
  8
0
  6
Continuous
 62
     7
370
    18
100
AcDbSpline
210
0.0
220
0.0
230
1.0
 70
    24
 71
     3
 72
     8
 73
     4
 74
     0
 42
0.000000001
 43
0.00000001
 40
0.0
 40
0.0
 40
0.0
 40
0.0
 40
1.0
 40
1.0
 40
1.0
 40
1.0
 10
1779.327113819359
 20
1393.16129234582
 30
0.0
 10
1779.827113819359
 20
1393.16129234582
 30
0.0
 10
1780.827113819359
 20
1393.16129234582
 30
0.0
 10
1781.327113819359
 20
1393.16129234582
 30
0.0
  0
SPLINE
  5
108
330
1F
100
AcDbEntity
  8
0
  6
Continuous
 62
     7
370
    18
100
AcDbSpline
210
0.0
220
0.0
230
1.0
 70
    24
 71
     3
 72
     8
 73
     4
 74
     0
 42
0.000000001
 43
0.00000001
 40
0.0
 40
0.0
 40
0.0
 40
0.0
 40
1.0
 40
1.0
 40
1.0
 40
1.0
 10
1695.32711381936
 20
1390.911292345826
 30
0.0
 10
1695.32711381936
 20
1392.598792345823
 30
0.0
 10
1695.32711381936
 20
1395.973792345817
 30
0.0
 10
1695.32711381936
 20
1397.661292345814
 30
0.0
  0
SPLINE
  5
109
330
1F
100
AcDbEntity
  8
0
  6
Continuous
 62
     7
370
    18
100
AcDbSpline
210
0.0
220
0.0
230
1.0
 70
     8
 71
     3
 72
    14
 73
    10
 74
     0
 42
0.000000001
 43
0.00000001
 40
0.0
 40
0.0
 40
0.0
 40
0.0
 40
1.0
 40
1.0
 40
2.197169395894056
 40
2.197169395894056
 40
3.331479724098275
 40
3.331479724098275
 40
3.883621381526531
 40
3.883621381526531
 40
3.883621381526531
 40
3.883621381526531
 10
1753.327113819359
 20
1397.66129234582
 30
0.0
 10
1753.327113819359
 20
1396.630042345821
 30
0.0
 10
1753.203022096604
 20
1394.560049058543
 30
0.0
 10
1753.475672632124
 20
1392.310682140505
 30
0.0
 10
1755.83669503984
 20
1392.191815223563
 30
0.0
 10
1758.008965962609
 20
1392.98440056025
 30
0.0
 10
1757.827113819359
 20
1394.444901479451
 30
0.0
 10
1757.827113819359
 20
1396.067542345821
 30
0.0
 10
1757.827113819358
 20
1397.130042345821
 30
0.0
 10
1757.827113819359
 20
1397.66129234582
 30
0.0
  0
SPLINE
  5
10A
330
1F
100
AcDbEntity
  8
0
  6
Continuous
 62
     7
370
    18
100
AcDbSpline
210
0.0
220
0.0
230
1.0
 70
     8
 71
     3
 72
    16
 73
    12
 74
     0
 42
0.000000001
 43
0.00000001
 40
0.0
 40
0.0
 40
0.0
 40
0.0
 40
1.0
 40
1.0
 40
2.134066032473478
 40
2.134066032473478
 40
2.540019335138771
 40
2.540019335138771
 40
3.289870970401751
 40
3.289870970401751
 40
4.348037208180719
 40
4.348037208180719
 40
4.348037208180719
 40
4.348037208180719
 10
1759.827113819359
 20
1397.66129234582
 30
0.0
 10
1759.827113819359
 20
1396.44254234582
 30
0.0
 10
1759.827113819359
 20
1394.005042345821
 30
0.0
 10
1759.827113819359
 20
1391.404149368739
 30
0.0
 10
1758.803901789943
 20
1390.911292345821
 30
0.0
 10
1756.968224190854
 20
1390.911292345821
 30
0.0
 10
1752.90820532508
 20
1390.869880580219
 30
0.0
 10
1751.609650020786
 20
1391.34367778584
 30
0.0
 10
1751.327113819359
 20
1392.216935308788
 30
0.0
 10
1751.327113819359
 20
1394.192542345821
 30
0.0
 10
1751.327113819359
 20
1396.50504234582
 30
0.0
 10
1751.327113819359
 20
1397.66129234582
 30
0.0
  0
SPLINE
  5
10B
330
1F
100
AcDbEntity
  8
0
  6
Continuous
 62
     7
370
    18
100
AcDbSpline
210
0.0
220
0.0
230
1.0
 70
    24
 71
     3
 72
     8
 73
     4
 74
     0
 42
0.000000001
 43
0.00000001
 40
0.0
 40
0.0
 40
0.0
 40
0.0
 40
1.0
 40
1.0
 40
1.0
 40
1.0
 10
1807.327113819359
 20
1397.66129234582
 30
0.0
 10
1809.327113819359
 20
1397.66129234582
 30
0.0
 10
1813.327113819359
 20
1397.66129234582
 30
0.0
 10
1815.327113819358
 20
1397.66129234582
 30
0.0
  0
SPLINE
  5
10C
330
1F
100
AcDbEntity
  8
0
  6
Continuous
 62
     7
370
    18
100
AcDbSpline
210
0.0
220
0.0
230
1.0
 70
     8
 71
     3
 72
    10
 73
     6
 74
     0
 42
0.000000001
 43
0.00000001
 40
0.0
 40
0.0
 40
0.0
 40
0.0
 40
1.0
 40
1.0
 40
1.561711767639462
 40
1.561711767639462
 40
1.561711767639462
 40
1.561711767639462
 10
1841.327113819358
 20
1390.911292345821
 30
0.0
 10
1841.327113819358
 20
1393.203761052969
 30
0.0
 10
1840.535517360987
 20
1392.66129234582
 30
0.0
 10
1836.891413591373
 20
1392.66129234582
 30
0.0
 10
1837.077113819359
 20
1392.318246895417
 30
0.0
 10
1837.077113819359
 20
1390.911292345821
 30
0.0
  0
SPLINE
  5
10D
330
1F
100
AcDbEntity
  8
0
  6
Continuous
 62
     7
370
    18
100
AcDbSpline
210
0.0
220
0.0
230
1.0
 70
    24
 71
     3
 72
     8
 73
     4
 74
     0
 42
0.000000001
 43
0.00000001
 40
0.0
 40
0.0
 40
0.0
 40
0.0
 40
1.0
 40
1.0
 40
1.0
 40
1.0
 10
1704.827113819356
 20
1390.911292345822
 30
0.0
 10
1703.952113819358
 20
1390.911292345822
 30
0.0
 10
1702.202113819361
 20
1390.911292345822
 30
0.0
 10
1701.327113819362
 20
1390.911292345822
 30
0.0
  0
SPLINE
  5
10E
330
1F
100
AcDbEntity
  8
0
  6
Continuous
 62
     7
370
    18
100
AcDbSpline
210
0.0
220
0.0
230
1.0
 70
     8
 71
     3
 72
    10
 73
     6
 74
     0
 42
0.000000001
 43
0.00000001
 40
0.0
 40
0.0
 40
0.0
 40
0.0
 40
1.0
 40
1.0
 40
1.724061311377763
 40
1.724061311377763
 40
1.724061311377763
 40
1.724061311377763
 10
1837.702113819359
 20
1395.911292345821
 30
0.0
 10
1838.452113819358
 20
1395.911292345821
 30
0.0
 10
1839.957563482833
 20
1396.00154087146
 30
0.0
 10
1841.241213912411
 20
1395.845946879996
 30
0.0
 10
1841.485310641627
 20
1395.269947083983
 30
0.0
 10
1841.264613819359
 20
1394.78629234582
 30
0.0
  0
SPLINE
  5
10F
330
1F
100
AcDbEntity
  8
0
  6
Continuous
 62
     7
370
    18
100
AcDbSpline
210
0.0
220
0.0
230
1.0
 70
     8
 71
     3
 72
    12
 73
     8
 74
     0
 42
0.000000001
 43
0.00000001
 40
0.0
 40
0.0
 40
0.0
 40
0.0
 40
1.0
 40
1.0
 40
1.059492237851416
 40
1.059492237851416
 40
2.469252055791486
 40
2.469252055791486
 40
2.469252055791486
 40
2.469252055791486
 10
1921.452113819359
 20
1397.91129234582
 30
0.0
 10
1922.554536519034
 20
1397.91129234582
 30
0.0
 10
1923.901556599505
 20
1397.986431650784
 30
0.0
 10
1925.014613819359
 20
1397.708167345821
 30
0.0
 10
1925.138158409336
 20
1397.669044516732
 30
0.0
 10
1926.717635347025
 20
1397.477592766709
 30
0.0
 10
1926.827113819359
 20
1396.99490361074
 30
0.0
 10
1926.827113819359
 20
1395.411292345821
 30
0.0
  0
SPLINE
  5
110
330
1F
100
AcDbEntity
  8
0
  6
Continuous
 62
     7
370
    18
100
AcDbSpline
210
0.0
220
0.0
230
1.0
 70
     8
 71
     3
 72
    20
 73
    16
 74
     0
 42
0.000000001
 43
0.00000001
 40
0.0
 40
0.0
 40
0.0
 40
0.0
 40
1.0
 40
1.0
 40
1.646249000200274
 40
1.646249000200274
 40
4.011059281753417
 40
4.011059281753417
 40
6.718056495626734
 40
6.718056495626734
 40
10.57357563536292
 40
10.57357563536292
 40
13.31555275665534
 40
13.31555275665534
 40
13.75934142545315
 40
13.75934142545315
 40
13.75934142545315
 40
13.75934142545315
 10
1926.827113819359
 20
1395.411292345821
 30
0.0
 10
1926.486423481126
 20
1395.411292345821
 30
0.0
 10
1925.46065721193
 20
1395.448162168108
 30
0.0
 10
1925.652373785476
 20
1394.873012447468
 30
0.0
 10
1926.249038793095
 20
1394.84789375076
 30
0.0
 10
1927.195223533864
 20
1394.269669742512
 30
0.0
 10
1927.077113819359
 20
1393.140556449579
 30
0.0
 10
1927.077113819359
 20
1391.308416629182
 30
0.0
 10
1926.417514595281
 20
1390.911292345821
 30
0.0
 10
1924.077113819359
 20
1390.911292345821
 30
0.0
 10
1921.327113819359
 20
1390.911292345821
 30
0.0
 10
1918.97423810272
 20
1390.911292345821
 30
0.0
 10
1918.577113819359
 20
1391.570891569898
 30
0.0
 10
1918.577113819359
 20
1392.69254234582
 30
0.0
 10
1918.577113819359
 20
1393.005042345821
 30
0.0
 10
1918.577113819359
 20
1393.16129234582
 30
0.0
  0
SPLINE
  5
111
330
1F
100
AcDbEntity
  8
0
  6
Continuous
 62
     7
370
    18
100
AcDbSpline
210
0.0
220
0.0
230
1.0
 70
    24
 71
     3
 72
     8
 73
     4
 74
     0
 42
0.000000001
 43
0.00000001
 40
0.0
 40
0.0
 40
0.0
 40
0.0
 40
1.0
 40
1.0
 40
1.0
 40
1.0
 10
1843.327113819359
 20
1390.911292345821
 30
0.0
 10
1842.827113819359
 20
1390.911292345821
 30
0.0
 10
1841.827113819359
 20
1390.911292345821
 30
0.0
 10
1841.327113819358
 20
1390.911292345821
 30
0.0
  0
SPLINE
  5
112
330
1F
100
AcDbEntity
  8
0
  6
Continuous
 62
     7
370
    18
100
AcDbSpline
210
0.0
220
0.0
230
1.0
 70
     8
 71
     3
 72
    20
 73
    16
 74
     0
 42
0.000000001
 43
0.00000001
 40
0.0
 40
0.0
 40
0.0
 40
0.0
 40
1.0
 40
1.0
 40
1.646249000200303
 40
1.646249000200303
 40
4.011059281753734
 40
4.011059281753734
 40
6.718056495627336
 40
6.718056495627336
 40
10.57357563536389
 40
10.57357563536389
 40
13.31555275665654
 40
13.31555275665654
 40
13.7593414254544
 40
13.7593414254544
 40
13.7593414254544
 40
13.7593414254544
 10
1787.577113819359
 20
1395.411292345821
 30
0.0
 10
1787.236423481127
 20
1395.411292345821
 30
0.0
 10
1786.21065721193
 20
1395.448162168108
 30
0.0
 10
1786.402373785476
 20
1394.873012447468
 30
0.0
 10
1786.999038793095
 20
1394.84789375076
 30
0.0
 10
1787.945223533864
 20
1394.269669742512
 30
0.0
 10
1787.827113819359
 20
1393.140556449579
 30
0.0
 10
1787.827113819359
 20
1391.308416629182
 30
0.0
 10
1787.167514595281
 20
1390.911292345821
 30
0.0
 10
1784.827113819359
 20
1390.911292345821
 30
0.0
 10
1782.077113819359
 20
1390.911292345821
 30
0.0
 10
1779.72423810272
 20
1390.911292345821
 30
0.0
 10
1779.327113819359
 20
1391.570891569898
 30
0.0
 10
1779.327113819359
 20
1392.69254234582
 30
0.0
 10
1779.327113819359
 20
1393.005042345821
 30
0.0
 10
1779.327113819359
 20
1393.16129234582
 30
0.0
  0
SPLINE
  5
113
330
1F
100
AcDbEntity
  8
0
  6
Continuous
 62
     7
370
    18
100
AcDbSpline
210
0.0
220
0.0
230
1.0
 70
     8
 71
     3
 72
    12
 73
     8
 74
     0
 42
0.000000001
 43
0.00000001
 40
0.0
 40
0.0
 40
0.0
 40
0.0
 40
1.0
 40
1.0
 40
1.669292035781093
 40
1.669292035781093
 40
2.068239101543916
 40
2.068239101543916
 40
2.068239101543916
 40
2.068239101543916
 10
1810.327113819359
 20
1390.911292345821
 30
0.0
 10
1810.327113819359
 20
1392.005042345821
 30
0.0
 10
1810.458726252584
 20
1394.200489771722
 30
0.0
 10
1810.239026665992
 20
1396.013011361099
 30
0.0
 10
1809.63365759514
 20
1395.911292345821
 30
0.0
 10
1808.545863819359
 20
1395.911292345821
 30
0.0
 10
1807.733363819359
 20
1395.911292345821
 30
0.0
 10
1807.327113819359
 20
1395.911292345821
 30
0.0
  0
SPLINE
  5
114
330
1F
100
AcDbEntity
  8
0
  6
Continuous
 62
     7
370
    18
100
AcDbSpline
210
0.0
220
0.0
230
1.0
 70
    24
 71
     3
 72
     8
 73
     4
 74
     0
 42
0.000000001
 43
0.00000001
 40
0.0
 40
0.0
 40
0.0
 40
0.0
 40
1.0
 40
1.0
 40
1.0
 40
1.0
 10
1898.827113819359
 20
1392.411292345821
 30
0.0
 10
1898.827113819359
 20
1392.03629234582
 30
0.0
 10
1898.827113819359
 20
1391.28629234582
 30
0.0
 10
1898.827113819359
 20
1390.911292345821
 30
0.0
  0
SPLINE
  5
115
330
1F
100
AcDbEntity
  8
0
  6
Continuous
 62
     7
370
    18
100
AcDbSpline
210
0.0
220
0.0
230
1.0
 70
    24
 71
     3
 72
     8
 73
     4
 74
     0
 42
0.000000001
 43
0.00000001
 40
0.0
 40
0.0
 40
0.0
 40
0.0
 40
1.0
 40
1.0
 40
1.0
 40
1.0
 10
1702.827113819359
 20
1397.66129234582
 30
0.0
 10
1703.327113819359
 20
1397.66129234582
 30
0.0
 10
1704.327113819359
 20
1397.66129234582
 30
0.0
 10
1704.827113819356
 20
1397.66129234582
 30
0.0
  0
SPLINE
  5
116
330
1F
100
AcDbEntity
  8
0
  6
Continuous
 62
     7
370
    18
100
AcDbSpline
210
0.0
220
0.0
230
1.0
 70
     8
 71
     3
 72
    12
 73
     8
 74
     0
 42
0.000000001
 43
0.00000001
 40
1.577841799328547
 40
1.577841799328547
 40
1.577841799328547
 40
1.577841799328547
 40
1.863479924375741
 40
1.863479924375741
 40
2.315978351724246
 40
2.315978351724246
 40
2.848628995492681
 40
2.848628995492681
 40
2.848628995492681
 40
2.848628995492681
 10
1924.45211381936
 20
1395.223792345821
 30
0.0
 10
1924.26976901237
 20
1395.14058646302
 30
0.0
 10
1922.148637269014
 20
1395.161292345821
 30
0.0
 10
1921.640787899903
 20
1395.161292345821
 30
0.0
 10
1920.916930328772
 20
1395.264771611649
 30
0.0
 10
1920.585317092802
 20
1395.855908249684
 30
0.0
 10
1920.802170013309
 20
1396.1365170658
 30
0.0
 10
1921.202113819359
 20
1396.161292345821
 30
0.0
  0
SPLINE
  5
117
330
1F
100
AcDbEntity
  8
0
  6
Continuous
 62
     7
370
    18
100
AcDbSpline
210
0.0
220
0.0
230
1.0
 70
    24
 71
     3
 72
     8
 73
     4
 74
     0
 42
0.000000001
 43
0.00000001
 40
0.0
 40
0.0
 40
0.0
 40
0.0
 40
1.0
 40
1.0
 40
1.0
 40
1.0
 10
1918.577113819359
 20
1393.16129234582
 30
0.0
 10
1919.077113819359
 20
1393.16129234582
 30
0.0
 10
1920.077113819358
 20
1393.16129234582
 30
0.0
 10
1920.57711381936
 20
1393.16129234582
 30
0.0
  0
SPLINE
  5
118
330
1F
100
AcDbEntity
  8
0
  6
Continuous
 62
     7
370
    18
100
AcDbSpline
210
0.0
220
0.0
230
1.0
 70
    24
 71
     3
 72
     8
 73
     4
 74
     0
 42
0.000000001
 43
0.00000001
 40
0.0
 40
0.0
 40
0.0
 40
0.0
 40
1.0
 40
1.0
 40
1.0
 40
1.0
 10
1723.577113819359
 20
1390.911292345821
 30
0.0
 10
1723.577113819359
 20
1392.598792345821
 30
0.0
 10
1723.577113819359
 20
1395.97379234582
 30
0.0
 10
1723.577113819359
 20
1397.66129234582
 30
0.0
  0
SPLINE
  5
119
330
1F
100
AcDbEntity
  8
0
  6
Continuous
 62
     7
370
    18
100
AcDbSpline
210
0.0
220
0.0
230
1.0
 70
     8
 71
     3
 72
    14
 73
    10
 74
     0
 42
0.000000001
 43
0.00000001
 40
0.0
 40
0.0
 40
0.0
 40
0.0
 40
1.0
 40
1.0
 40
1.647231829889258
 40
1.647231829889258
 40
3.232311178125295
 40
3.232311178125295
 40
5.249338650897516
 40
5.249338650897516
 40
5.249338650897516
 40
5.249338650897516
 10
1782.202113819359
 20
1396.161292345821
 30
0.0
 10
1782.577195190739
 20
1396.161292345821
 30
0.0
 10
1784.85444148912
 20
1396.257438943114
 30
0.0
 10
1785.427138417863
 20
1395.996111218348
 30
0.0
 10
1785.595187723784
 20
1395.788085797151
 30
0.0
 10
1785.3172872572
 20
1394.919646839073
 30
0.0
 10
1783.599562236705
 20
1395.161292345821
 30
0.0
 10
1782.128229988906
 20
1395.161292345821
 30
0.0
 10
1781.895536249634
 20
1395.092869915545
 30
0.0
 10
1781.327113819359
 20
1395.661292345821
 30
0.0
  0
SPLINE
  5
11A
330
1F
100
AcDbEntity
  8
0
  6
Continuous
 62
     7
370
    18
100
AcDbSpline
210
0.0
220
0.0
230
1.0
 70
    24
 71
     3
 72
     8
 73
     4
 74
     0
 42
0.000000001
 43
0.00000001
 40
0.0
 40
0.0
 40
0.0
 40
0.0
 40
1.0
 40
1.0
 40
1.0
 40
1.0
 10
1812.327113819359
 20
1390.911292345821
 30
0.0
 10
1811.82711381936
 20
1390.911292345821
 30
0.0
 10
1810.82711381936
 20
1390.911292345821
 30
0.0
 10
1810.327113819359
 20
1390.911292345821
 30
0.0
  0
SPLINE
  5
11B
330
1F
100
AcDbEntity
  8
0
  6
Continuous
 62
     7
370
    18
100
AcDbSpline
210
0.0
220
0.0
230
1.0
 70
     8
 71
     3
 72
    14
 73
    10
 74
     0
 42
0.000000001
 43
0.00000001
 40
0.0
 40
0.0
 40
0.0
 40
0.0
 40
1.0
 40
1.0
 40
3.504357257626456
 40
3.504357257626456
 40
5.107954719549038
 40
5.107954719549038
 40
7.682373741821248
 40
7.682373741821248
 40
7.682373741821248
 40
7.682373741821248
 10
1701.333328154591
 20
1390.911292345821
 30
0.0
 10
1701.382391649804
 20
1391.254736812311
 30
0.0
 10
1700.728986935633
 20
1391.758747304431
 30
0.0
 10
1699.999524200549
 20
1392.731364284543
 30
0.0
 10
1698.917132108633
 20
1394.091220407098
 30
0.0
 10
1698.062025261634
 20
1395.231362869763
 30
0.0
 10
1697.655939869241
 20
1395.385338991679
 30
0.0
 10
1697.466757142307
 20
1393.824581494476
 30
0.0
 10
1697.583328154591
 20
1391.880042345821
 30
0.0
 10
1697.583328154591
 20
1390.911292345821
 30
0.0
  0
SPLINE
  5
11C
330
1F
100
AcDbEntity
  8
0
  6
Continuous
 62
     7
370
    18
100
AcDbSpline
210
0.0
220
0.0
230
1.0
 70
    24
 71
     3
 72
     8
 73
     4
 74
     0
 42
0.000000001
 43
0.00000001
 40
0.0
 40
0.0
 40
0.0
 40
0.0
 40
1.0
 40
1.0
 40
1.0
 40
1.0
 10
1704.827113819356
 20
1397.66129234582
 30
0.0
 10
1704.827113819356
 20
1395.97379234582
 30
0.0
 10
1704.827113819356
 20
1392.598792345821
 30
0.0
 10
1704.827113819356
 20
1390.911292345822
 30
0.0
  0
SPLINE
  5
11D
330
1F
100
AcDbEntity
  8
0
  6
Continuous
 62
     7
370
    18
100
AcDbSpline
210
0.0
220
0.0
230
1.0
 70
     8
 71
     3
 72
    24
 73
    20
 74
     0
 42
0.000000001
 43
0.00000001
 40
0.0
 40
0.0
 40
0.0
 40
0.0
 40
1.0
 40
1.0
 40
2.84682146408634
 40
2.84682146408634
 40
4.438859699228829
 40
4.438859699228829
 40
5.988064523527864
 40
5.988064523527864
 40
8.826466755819625
 40
8.826466755819625
 40
11.03735166409457
 40
11.03735166409457
 40
11.96019648949209
 40
11.96019648949209
 40
14.43814285926094
 40
14.43814285926094
 40
14.61319364393833
 40
14.61319364393833
 40
14.61319364393833
 40
14.61319364393833
 10
1781.327113819359
 20
1393.16129234582
 30
0.0
 10
1781.272132855266
 20
1392.77642559717
 30
0.0
 10
1781.832557536621
 20
1392.456087046758
 30
0.0
 10
1782.884618294507
 20
1392.328564530651
 30
0.0
 10
1784.264613819359
 20
1392.411292345821
 30
0.0
 10
1785.544767905283
 20
1392.411292345821
 30
0.0
 10
1786.038461674625
 20
1392.824944490554
 30
0.0
 10
1785.251496870972
 20
1393.611909294208
 30
0.0
 10
1784.000994071554
 20
1393.411292345821
 30
0.0
 10
1782.446473436201
 20
1393.411292345821
 30
0.0
 10
1782.421358693115
 20
1393.356481127381
 30
0.0
 10
1780.69715074914
 20
1393.787533113375
 30
0.0
 10
1780.013884390985
 20
1393.599795309834
 30
0.0
 10
1779.306213435525
 20
1394.572842873591
 30
0.0
 10
1779.266545657796
 20
1396.448994421538
 30
0.0
 10
1779.720066237564
 20
1397.691976751272
 30
0.0
 10
1781.067389718314
 20
1397.62761132056
 30
0.0
 10
1782.014613819359
 20
1397.86441734582
 30
0.0
 10
1782.139613819359
 20
1397.895667345821
 30
0.0
 10
1782.202113819359
 20
1397.911292345821
 30
0.0
  0
SPLINE
  5
11E
330
1F
100
AcDbEntity
  8
0
  6
Continuous
 62
     7
370
    18
100
AcDbSpline
210
0.0
220
0.0
230
1.0
 70
    24
 71
     3
 72
     8
 73
     4
 74
     0
 42
0.000000001
 43
0.00000001
 40
0.0
 40
0.0
 40
0.0
 40
0.0
 40
1.0
 40
1.0
 40
1.0
 40
1.0
 10
1807.327113819359
 20
1395.911292345821
 30
0.0
 10
1807.327113819359
 20
1396.348792345821
 30
0.0
 10
1807.327113819359
 20
1397.223792345821
 30
0.0
 10
1807.327113819359
 20
1397.66129234582
 30
0.0
  0
SPLINE
  5
11F
330
1F
100
AcDbEntity
  8
0
  6
Continuous
 62
     7
370
    18
100
AcDbSpline
210
0.0
220
0.0
230
1.0
 70
    24
 71
     3
 72
     8
 73
     4
 74
     0
 42
0.000000001
 43
0.00000001
 40
0.0
 40
0.0
 40
0.0
 40
0.0
 40
1.0
 40
1.0
 40
1.0
 40
1.0
 10
1837.077113819359
 20
1390.911292345821
 30
0.0
 10
1836.577113819359
 20
1390.911292345821
 30
0.0
 10
1835.577113819359
 20
1390.911292345821
 30
0.0
 10
1835.077113819359
 20
1390.911292345821
 30
0.0
  0
SPLINE
  5
120
330
1F
100
AcDbEntity
  8
0
  6
Continuous
 62
     7
370
    18
100
AcDbSpline
210
0.0
220
0.0
230
1.0
 70
     8
 71
     3
 72
    12
 73
     8
 74
     0
 42
0.000000001
 43
0.00000001
 40
0.0
 40
0.0
 40
0.0
 40
0.0
 40
1.0
 40
1.0
 40
1.225346954716585
 40
1.225346954716585
 40
1.577841799328547
 40
1.577841799328547
 40
1.577841799328547
 40
1.577841799328547
 10
1921.202113819359
 20
1396.161292345821
 30
0.0
 10
1921.952113819359
 20
1396.161292345821
 30
0.0
 10
1923.457563482833
 20
1396.25154087146
 30
0.0
 10
1924.369895970328
 20
1396.1409551154
 30
0.0
 10
1924.713103607878
 20
1395.947261756698
 30
0.0
 10
1924.845187723785
 20
1395.53449889449
 30
0.0
 10
1924.677138417863
 20
1395.326473473293
 30
0.0
 10
1924.45211381936
 20
1395.223792345821
 30
0.0
  0
SPLINE
  5
121
330
1F
100
AcDbEntity
  8
0
  6
Continuous
 62
     7
370
    18
100
AcDbSpline
210
0.0
220
0.0
230
1.0
 70
    24
 71
     3
 72
     8
 73
     4
 74
     0
 42
0.000000001
 43
0.00000001
 40
0.0
 40
0.0
 40
0.0
 40
0.0
 40
1.0
 40
1.0
 40
1.0
 40
1.0
 10
1757.827113819359
 20
1397.66129234582
 30
0.0
 10
1758.327113819359
 20
1397.66129234582
 30
0.0
 10
1759.327113819359
 20
1397.66129234582
 30
0.0
 10
1759.827113819359
 20
1397.66129234582
 30
0.0
  0
SPLINE
  5
122
330
1F
100
AcDbEntity
  8
0
  6
Continuous
 62
     7
370
    18
100
AcDbSpline
210
0.0
220
0.0
230
1.0
 70
     8
 71
     3
 72
    12
 73
     8
 74
     0
 42
0.000000001
 43
0.00000001
 40
0.0
 40
0.0
 40
0.0
 40
0.0
 40
1.0
 40
1.0
 40
1.761539211818453
 40
1.761539211818453
 40
2.239233677214646
 40
2.239233677214646
 40
2.239233677214646
 40
2.239233677214646
 10
1782.202113819359
 20
1397.911292345821
 30
0.0
 10
1783.304536519035
 20
1397.91129234582
 30
0.0
 10
1784.651556599505
 20
1397.986431650784
 30
0.0
 10
1786.502154336538
 20
1397.523782216526
 30
0.0
 10
1786.964219042973
 20
1397.732392888998
 30
0.0
 10
1787.656453303306
 20
1396.599645917542
 30
0.0
 10
1787.577113819359
 20
1395.927463277849
 30
0.0
 10
1787.577113819359
 20
1395.411292345821
 30
0.0
  0
SPLINE
  5
123
330
1F
100
AcDbEntity
  8
0
  6
Continuous
 62
     7
370
    18
100
AcDbSpline
210
0.0
220
0.0
230
1.0
 70
    24
 71
     3
 72
     8
 73
     4
 74
     0
 42
0.000000001
 43
0.00000001
 40
0.0
 40
0.0
 40
0.0
 40
0.0
 40
1.0
 40
1.0
 40
1.0
 40
1.0
 10
1898.827113819359
 20
1390.911292345821
 30
0.0
 10
1896.889613819359
 20
1390.911292345821
 30
0.0
 10
1893.014613819359
 20
1390.911292345821
 30
0.0
 10
1891.077113819359
 20
1390.911292345821
 30
0.0
  0
SPLINE
  5
124
330
1F
100
AcDbEntity
  8
0
  6
Continuous
 62
     7
370
    18
100
AcDbSpline
210
0.0
220
0.0
230
1.0
 70
    24
 71
     3
 72
     8
 73
     4
 74
     0
 42
0.000000001
 43
0.00000001
 40
0.0
 40
0.0
 40
0.0
 40
0.0
 40
1.0
 40
1.0
 40
1.0
 40
1.0
 10
1891.077113819359
 20
1390.911292345821
 30
0.0
 10
1891.077113819359
 20
1392.598792345821
 30
0.0
 10
1891.077113819359
 20
1395.97379234582
 30
0.0
 10
1891.077113819359
 20
1397.66129234582
 30
0.0
  0
SPLINE
  5
125
330
1F
100
AcDbEntity
  8
0
  6
Continuous
 62
     7
370
    18
100
AcDbSpline
210
0.0
220
0.0
230
1.0
 70
     8
 71
     3
 72
    12
 73
     8
 74
     0
 42
0.000000001
 43
0.00000001
 40
0.0
 40
0.0
 40
0.0
 40
0.0
 40
1.0
 40
1.0
 40
2.100823264507139
 40
2.100823264507139
 40
3.750764701960262
 40
3.750764701960262
 40
3.750764701960262
 40
3.750764701960262
 10
1726.202113819359
 20
1395.911292345821
 30
0.0
 10
1727.077113819359
 20
1395.911292345821
 30
0.0
 10
1728.833471760079
 20
1396.0165822924
 30
0.0
 10
1730.658335206746
 20
1395.795386723107
 30
0.0
 10
1730.577113819358
 20
1394.679230092743
 30
0.0
 10
1730.577113819358
 20
1392.447934920773
 30
0.0
 10
1729.555899653618
 20
1392.66129234582
 30
0.0
 10
1728.20211381936
 20
1392.66129234582
 30
0.0
  0
SPLINE
  5
126
330
1F
100
AcDbEntity
  8
0
  6
Continuous
 62
     7
370
    18
100
AcDbSpline
210
0.0
220
0.0
230
1.0
 70
     8
 71
     3
 72
    12
 73
     8
 74
     0
 42
0.000000001
 43
0.00000001
 40
1.724061311377763
 40
1.724061311377763
 40
1.724061311377763
 40
1.724061311377763
 40
2.437839502158603
 40
2.437839502158603
 40
3.151617692938614
 40
3.151617692938614
 40
3.8553088460909
 40
3.8553088460909
 40
3.8553088460909
 40
3.8553088460909
 10
1841.264613819359
 20
1394.78629234582
 30
0.0
 10
1841.047051333925
 20
1394.309506473487
 30
0.0
 10
1839.726192251585
 20
1394.41129234582
 30
0.0
 10
1838.678035387132
 20
1394.41129234582
 30
0.0
 10
1837.357176304792
 20
1394.309506473487
 30
0.0
 10
1836.925125903875
 20
1395.256340330815
 30
0.0
 10
1837.173183947845
 20
1395.878526778558
 30
0.0
 10
1837.702113819359
 20
1395.911292345821
 30
0.0
  0
SPLINE
  5
127
330
1F
100
AcDbEntity
  8
0
  6
Continuous
 62
     7
370
    18
100
AcDbSpline
210
0.0
220
0.0
230
1.0
 70
     8
 71
     3
 72
    16
 73
    12
 74
     0
 42
0.000000001
 43
0.00000001
 40
0.0
 40
0.0
 40
0.0
 40
0.0
 40
1.0
 40
1.0
 40
1.568945871497022
 40
1.568945871497022
 40
1.908184038144556
 40
1.908184038144556
 40
2.22552440810489
 40
2.22552440810489
 40
2.549580356059483
 40
2.549580356059483
 40
2.549580356059483
 40
2.549580356059483
 10
1835.077113819359
 20
1397.66129234582
 30
0.0
 10
1836.795863819358
 20
1397.66129234582
 30
0.0
 10
1840.233363819359
 20
1397.66129234582
 30
0.0
 10
1842.929989535997
 20
1397.66129234582
 30
0.0
 10
1843.327113819359
 20
1397.001693121743
 30
0.0
 10
1843.327113819359
 20
1395.460665022185
 30
0.0
 10
1843.406864852287
 20
1394.570794411676
 30
0.0
 10
1842.889613819358
 20
1393.536292345821
 30
0.0
 10
1842.889613819358
 20
1393.536292345821
 30
0.0
 10
1843.394904335968
 20
1392.525711312603
 30
0.0
 10
1843.327113819359
 20
1391.459025158415
 30
0.0
 10
1843.327113819359
 20
1390.911292345821
 30
0.0
  0
SPLINE
  5
128
330
1F
100
AcDbEntity
  8
0
  6
Continuous
 62
     7
370
    18
100
AcDbSpline
210
0.0
220
0.0
230
1.0
 70
     8
 71
     3
 72
    14
 73
    10
 74
     0
 42
0.000000001
 43
0.00000001
 40
0.0
 40
0.0
 40
0.0
 40
0.0
 40
1.0
 40
1.0
 40
1.767481449398427
 40
1.767481449398427
 40
2.796052877970425
 40
2.796052877970425
 40
2.881767163684746
 40
2.881767163684746
 40
2.881767163684746
 40
2.881767163684746
 10
1898.327113819359
 20
1393.661292345821
 30
0.0
 10
1897.233363819359
 20
1393.661292345821
 30
0.0
 10
1895.037916393458
 20
1393.792904779045
 30
0.0
 10
1893.118780486025
 20
1393.560282244811
 30
0.0
 10
1893.118780486025
 20
1392.512302446831
 30
0.0
 10
1895.068939324147
 20
1392.275919557362
 30
0.0
 10
1897.327113819359
 20
1392.411292345821
 30
0.0
 10
1898.545863819359
 20
1392.411292345821
 30
0.0
 10
1898.733363819359
 20
1392.411292345821
 30
0.0
 10
1898.827113819359
 20
1392.411292345821
 30
0.0
  0
MTEXT
  5
12A
330
1F
100
AcDbEntity
  8
SLD-0
 62
     1
100
AcDbMText
 10
1547.7699002517
 20
300.9162574642
 30
0.0
 40
10.5833333333
 41
0.0
 71
     1
 72
     1
  1
SIDE VIEW
  7
SLDTEXTSTYLE0
 73
     1
 44
1.0
  0
MTEXT
  5
12B
330
1F
100
AcDbEntity
  8
SLD-0
 62
     1
100
AcDbMText
 10
546.6858065402
 20
300.9162574642
 30
0.0
 40
10.5833333333
 41
0.0
 71
     1
 72
     1
  1
FRONT VIEW
  7
SLDTEXTSTYLE0
 73
     1
 44
1.0
  0
MTEXT
  5
12C
330
1F
100
AcDbEntity
  8
SLD-0
 62
     1
100
AcDbMText
 10
555.2798649943
 20
808.9290811387
 30
0.0
 40
10.5833333333
 41
0.0
 71
     1
 72
     1
  1
TOP VIEW
  7
SLDTEXTSTYLE0
 73
     1
 44
1.0
  0
MTEXT
  5
12E
330
1F
100
AcDbEntity
  8
0
  6
Continuous
 62
     7
370
     0
100
AcDbMText
 10
2063.182191389
 20
1349.5196190858
 30
0.0
 40
7.9375
 41
0.0
 71
     1
 72
     1
  1
1
  7
SLDTEXTSTYLE1
 73
     1
 44
1.0
  0
MTEXT
  5
12F
330
1F
100
AcDbEntity
  8
0
  6
Continuous
 62
     7
370
     0
100
AcDbMText
 10
2063.8788496683
 20
1122.7280992933
 30
0.0
 40
7.9375
 41
0.0
 71
     1
 72
     1
  1
2
  7
SLDTEXTSTYLE1
 73
     1
 44
1.0
  0
MTEXT
  5
130
330
1F
100
AcDbEntity
  8
0
  6
Continuous
 62
     7
370
     0
100
AcDbMText
 10
2063.7808042915
 20
872.8761096899
 30
0.0
 40
7.9375
 41
0.0
 71
     1
 72
     1
  1
3
  7
SLDTEXTSTYLE1
 73
     1
 44
1.0
  0
MTEXT
  5
131
330
1F
100
AcDbEntity
  8
0
  6
Continuous
 62
     7
370
     0
100
AcDbMText
 10
2063.7400757902
 20
622.7134023673
 30
0.0
 40
7.9375
 41
0.0
 71
     1
 72
     1
  1
4
  7
SLDTEXTSTYLE1
 73
     1
 44
1.0
  0
MTEXT
  5
132
330
1F
100
AcDbEntity
  8
0
  6
Continuous
 62
     7
370
     0
100
AcDbMText
 10
2063.8017586972
 20
372.7229025466
 30
0.0
 40
7.9375
 41
0.0
 71
     1
 72
     1
  1
5
  7
SLDTEXTSTYLE1
 73
     1
 44
1.0
  0
MTEXT
  5
133
330
1F
100
AcDbEntity
  8
0
  6
Continuous
 62
     7
370
     0
100
AcDbMText
 10
30.6233095407
 20
1349.6837678181
 30
0.0
 40
7.9375
 41
0.0
 71
     1
 72
     1
  1
1
  7
SLDTEXTSTYLE1
 73
     1
 44
1.0
  0
MTEXT
  5
134
330
1F
100
AcDbEntity
  8
0
  6
Continuous
 62
     7
370
     0
100
AcDbMText
 10
30.8762467313
 20
142.3134289229
 30
0.0
 40
7.9375
 41
0.0
 71
     1
 72
     1
  1
6
  7
SLDTEXTSTYLE1
 73
     1
 44
1.0
  0
MTEXT
  5
135
330
1F
100
AcDbEntity
  8
0
  6
Continuous
 62
     7
370
     0
100
AcDbMText
 10
31.2428768489
 20
372.8870512788
 30
0.0
 40
7.9375
 41
0.0
 71
     1
 72
     1
  1
5
  7
SLDTEXTSTYLE1
 73
     1
 44
1.0
  0
MTEXT
  5
136
330
1F
100
AcDbEntity
  8
0
  6
Continuous
 62
     7
370
     0
100
AcDbMText
 10
31.1811939419
 20
622.8775510996
 30
0.0
 40
7.9375
 41
0.0
 71
     1
 72
     1
  1
4
  7
SLDTEXTSTYLE1
 73
     1
 44
1.0
  0
MTEXT
  5
137
330
1F
100
AcDbEntity
  8
0
  6
Continuous
 62
     7
370
     0
100
AcDbMText
 10
31.2219224432
 20
873.0402584221
 30
0.0
 40
7.9375
 41
0.0
 71
     1
 72
     1
  1
3
  7
SLDTEXTSTYLE1
 73
     1
 44
1.0
  0
MTEXT
  5
138
330
1F
100
AcDbEntity
  8
0
  6
Continuous
 62
     7
370
     0
100
AcDbMText
 10
31.31996782
 20
1122.8922480255
 30
0.0
 40
7.9375
 41
0.0
 71
     1
 72
     1
  1
2
  7
SLDTEXTSTYLE1
 73
     1
 44
1.0
  0
MTEXT
  5
139
330
1F
100
AcDbEntity
  8
0
  6
Continuous
 62
     7
370
     0
100
AcDbMText
 10
1424.2802421601
 20
1457.9218243103
 30
0.0
 40
7.9375
 41
0.0
 71
     1
 72
     1
  1
F
  7
SLDTEXTSTYLE1
 73
     1
 44
1.0
  0
MTEXT
  5
13A
330
1F
100
AcDbEntity
  8
0
  6
Continuous
 62
     7
370
     0
100
AcDbMText
 10
1676.2559191587
 20
1457.9079029377
 30
0.0
 40
7.9375
 41
0.0
 71
     1
 72
     1
  1
G
  7
SLDTEXTSTYLE1
 73
     1
 44
1.0
  0
MTEXT
  5
13B
330
1F
100
AcDbEntity
  8
0
  6
Continuous
 62
     7
370
     0
100
AcDbMText
 10
1927.4492183135
 20
1457.9183170627
 30
0.0
 40
7.9375
 41
0.0
 71
     1
 72
     1
  1
H
  7
SLDTEXTSTYLE1
 73
     1
 44
1.0
  0
MTEXT
  5
13C
330
1F
100
AcDbEntity
  8
0
  6
Continuous
 62
     7
370
     0
100
AcDbMText
 10
168.434994208
 20
1457.6138306623
 30
0.0
 40
7.9375
 41
0.0
 71
     1
 72
     1
  1
A
  7
SLDTEXTSTYLE1
 73
     1
 44
1.0
  0
MTEXT
  5
13D
330
1F
100
AcDbEntity
  8
0
  6
Continuous
 62
     7
370
     0
100
AcDbMText
 10
424.6934140396
 20
1457.7577240095
 30
0.0
 40
7.9375
 41
0.0
 71
     1
 72
     1
  1
B
  7
SLDTEXTSTYLE1
 73
     1
 44
1.0
  0
MTEXT
  5
13E
330
1F
100
AcDbEntity
  8
0
  6
Continuous
 62
     7
370
     0
100
AcDbMText
 10
676.6690910383
 20
1457.7438026368
 30
0.0
 40
7.9375
 41
0.0
 71
     1
 72
     1
  1
C
  7
SLDTEXTSTYLE1
 73
     1
 44
1.0
  0
MTEXT
  5
13F
330
1F
100
AcDbEntity
  8
0
  6
Continuous
 62
     7
370
     0
100
AcDbMText
 10
925.7166479766
 20
1457.7786908855
 30
0.0
 40
7.9375
 41
0.0
 71
     1
 72
     1
  1
D
  7
SLDTEXTSTYLE1
 73
     1
 44
1.0
  0
MTEXT
  5
140
330
1F
100
AcDbEntity
  8
0
  6
Continuous
 62
     7
370
     0
100
AcDbMText
 10
1175.3846355636
 20
1457.6585500159
 30
0.0
 40
7.9375
 41
0.0
 71
     1
 72
     1
  1
E
  7
SLDTEXTSTYLE1
 73
     1
 44
1.0
  0
MTEXT
  5
141
330
1F
100
AcDbEntity
  8
0
  6
Continuous
 62
     7
370
     0
100
AcDbMText
 10
1175.0336907502
 20
35.6114541241
 30
0.0
 40
7.9375
 41
0.0
 71
     1
 72
     1
  1
E
  7
SLDTEXTSTYLE1
 73
     1
 44
1.0
  0
MTEXT
  5
142
330
1F
100
AcDbEntity
  8
0
  6
Continuous
 62
     7
370
     0
100
AcDbMText
 10
925.3657031632
 20
35.7315949937
 30
0.0
 40
7.9375
 41
0.0
 71
     1
 72
     1
  1
D
  7
SLDTEXTSTYLE1
 73
     1
 44
1.0
  0
MTEXT
  5
143
330
1F
100
AcDbEntity
  8
0
  6
Continuous
 62
     7
370
     0
100
AcDbMText
 10
676.3181462249
 20
35.696706745
 30
0.0
 40
7.9375
 41
0.0
 71
     1
 72
     1
  1
C
  7
SLDTEXTSTYLE1
 73
     1
 44
1.0
  0
MTEXT
  5
144
330
1F
100
AcDbEntity
  8
0
  6
Continuous
 62
     7
370
     0
100
AcDbMText
 10
168.0840493946
 20
35.5667347705
 30
0.0
 40
7.9375
 41
0.0
 71
     1
 72
     1
  1
A
  7
SLDTEXTSTYLE1
 73
     1
 44
1.0
  0
MTEXT
  5
145
330
1F
100
AcDbEntity
  8
0
  6
Continuous
 62
     7
370
     0
100
AcDbMText
 10
1543.6631063581
 20
205.9598661459
 30
0.0
 40
7.9375
 41
0.0
 71
     1
 72
     1
  1
REQUESTED
  7
SLDTEXTSTYLE1
 73
     1
 44
1.0
  0
MTEXT
  5
146
330
1F
100
AcDbEntity
  8
0
  6
Continuous
 62
     7
370
     0
100
AcDbMText
 10
1285.1203072563
 20
51.1261343437
 30
0.0
 40
7.9375
 41
0.0
 71
     1
 72
     1
  1
FILE
  7
SLDTEXTSTYLE1
 73
     1
 44
1.0
  0
MTEXT
  5
147
330
1F
100
AcDbEntity
  8
0
  6
Continuous
 62
     7
370
     0
100
AcDbMText
 10
1283.1501528614
 20
222.5661845383
 30
0.0
 40
7.9375
 41
0.0
 71
     1
 72
     1
  1
REVISIONS
  7
SLDTEXTSTYLE1
 73
     1
 44
1.0
  0
MTEXT
  5
148
330
1F
100
AcDbEntity
  8
0
  6
Continuous
 62
     7
370
     0
100
AcDbMText
 10
1692.3575714757
 20
205.9598661459
 30
0.0
 40
7.9375
 41
0.0
 71
     1
 72
     1
  1
DATE
  7
SLDTEXTSTYLE1
 73
     1
 44
1.0
  0
MTEXT
  5
149
330
1F
100
AcDbEntity
  8
0
  6
Continuous
 62
     7
370
     0
100
AcDbMText
 10
1285.1203072563
 20
95.2158678407
 30
0.0
 40
7.9375
 41
0.0
 71
     1
 72
     1
  1
TOOL NUMBER
  7
SLDTEXTSTYLE1
 73
     1
 44
1.0
  0
MTEXT
  5
14A
330
1F
100
AcDbEntity
  8
0
  6
Continuous
 62
     7
370
     0
100
AcDbMText
 10
1450.7397660733
 20
222.5661845383
 30
0.0
 40
7.9375
 41
0.0
 71
     1
 72
     1
  1
DRAWN
  7
SLDTEXTSTYLE1
 73
     1
 44
1.0
  0
MTEXT
  5
14B
330
1F
100
AcDbEntity
  8
0
  6
Continuous
 62
     7
370
     0
100
AcDbMText
 10
1502.4365764373
 20
222.5661845383
 30
0.0
 40
7.9375
 41
0.0
 71
     1
 72
     1
  1
DATE
  7
SLDTEXTSTYLE1
 73
     1
 44
1.0
  0
MTEXT
  5
14C
330
1F
100
AcDbEntity
  8
0
  6
Continuous
 62
     7
370
     0
100
AcDbMText
 10
1543.6265258003
 20
119.8701910953
 30
0.0
 40
7.9375
 41
0.0
 71
     1
 72
     1
  1
MATERIAL
  7
SLDTEXTSTYLE1
 73
     1
 44
1.0
  0
MTEXT
  5
14D
330
1F
100
AcDbEntity
  8
0
  6
Continuous
 62
     7
370
     0
100
AcDbMText
 10
1580.1411420249
 20
222.9159801483
 30
0.0
 40
7.9375
 41
0.0
 71
     1
 72
     1
  1
DO NOT SCALE DRAWING
  7
SLDTEXTSTYLE1
 73
     1
 44
1.0
  0
MTEXT
  5
14E
330
1F
100
AcDbEntity
  8
0
  6
Continuous
 62
     7
370
     0
100
AcDbMText
 10
1757.8203320667
 20
109.4527819355
 30
0.0
 40
7.9375
 41
0.0
 71
     1
 72
     1
  1
PART NUMBER
  7
SLDTEXTSTYLE1
 73
     1
 44
1.0
  0
MTEXT
  5
14F
330
1F
100
AcDbEntity
  8
0
  6
Continuous
 62
     7
370
     0
100
AcDbMText
 10
1761.4632302576
 20
222.9159801483
 30
0.0
 40
7.9375
 41
0.0
 71
     1
 72
     1
  1
TITLE
  7
SLDTEXTSTYLE1
 73
     1
 44
1.0
  0
MTEXT
  5
150
330
1F
100
AcDbEntity
  8
0
  6
Continuous
 62
     7
370
     0
100
AcDbMText
 10
1648.2745128143
 20
52.1229530026
 30
0.0
 40
7.9375
 41
0.0
 71
     1
 72
     1
  1
UNITS = MM
  7
SLDTEXTSTYLE1
 73
     1
 44
1.0
  0
MTEXT
  5
151
330
1F
100
AcDbEntity
  8
0
  6
Continuous
 62
     7
370
     0
100
AcDbMText
 10
1790.7321012065
 20
52.0659101099
 30
0.0
 40
7.9375
 41
0.0
 71
     1
 72
     1
  1
SCALE : 1:5 (UOS)
  7
SLDTEXTSTYLE1
 73
     1
 44
1.0
  0
MTEXT
  5
152
330
1F
100
AcDbEntity
  8
0
  6
Continuous
 62
     7
370
     0
100
AcDbMText
 10
1966.1187956436
 20
52.0659101099
 30
0.0
 40
7.9375
 41
0.0
 71
     1
 72
     1
  1
SHEET 1 OF 1
  7
SLDTEXTSTYLE1
 73
     1
 44
1.0
  0
MTEXT
  5
153
330
1F
100
AcDbEntity
  8
0
  6
Continuous
 62
     7
370
     0
100
AcDbMText
 10
1562.7499279408
 20
52.3242089051
 30
0.0
 40
7.9375
 41
0.0
 71
     1
 72
     1
  1
A3
  7
SLDTEXTSTYLE1
 73
     1
 44
1.0
  0
MTEXT
  5
154
330
1F
100
AcDbEntity
  8
0
  6
Continuous
 62
     7
370
     0
100
AcDbMText
 10
424.3424692262
 20
35.7106281177
 30
0.0
 40
7.9375
 41
0.0
 71
     1
 72
     1
  1
B
  7
SLDTEXTSTYLE1
 73
     1
 44
1.0
  0
MTEXT
  5
155
330
1F
100
AcDbEntity
  8
0
  6
Continuous
 62
     7
370
     0
100
AcDbMText
 10
1543.6631063581
 20
177.5433661459
 30
0.0
 40
7.9375
 41
0.0
 71
     1
 72
     1
  1
DRAWN
  7
SLDTEXTSTYLE1
 73
     1
 44
1.0
  0
MTEXT
  5
156
330
1F
100
AcDbEntity
  8
0
  6
Continuous
 62
     7
370
     0
100
AcDbMText
 10
1692.3575714757
 20
177.5433661459
 30
0.0
 40
7.9375
 41
0.0
 71
     1
 72
     1
  1
DATE
  7
SLDTEXTSTYLE1
 73
     1
 44
1.0
  0
MTEXT
  5
157
330
1F
100
AcDbEntity
  8
0
  6
Continuous
 62
     7
370
     0
100
AcDbMText
 10
1692.3575714757
 20
149.1268661459
 30
0.0
 40
7.9375
 41
0.0
 71
     1
 72
     1
  1
DATE
  7
SLDTEXTSTYLE1
 73
     1
 44
1.0
  0
MTEXT
  5
158
330
1F
100
AcDbEntity
  8
0
  6
Continuous
 62
     7
370
     0
100
AcDbMText
 10
1543.6631063581
 20
149.1268661459
 30
0.0
 40
7.9375
 41
0.0
 71
     1
 72
     1
  1
APPROVED
  7
SLDTEXTSTYLE1
 73
     1
 44
1.0
  0
MTEXT
  5
159
330
1F
100
AcDbEntity
  8
0
  6
Continuous
 62
     7
370
     0
100
AcDbMText
 10
1285.1203072563
 20
72.2530727966
 30
0.0
 40
7.9375
 41
0.0
 71
     1
 72
     1
  1
PART WEIGHT(GRAMS)
  7
SLDTEXTSTYLE1
 73
     1
 44
1.0
  0
MTEXT
  5
15A
330
1F
100
AcDbEntity
  8
0
  6
Continuous
 62
     7
370
     0
100
AcDbMText
 10
1786.6402516559
 20
86.3023300546
 30
0.0
 40
7.9375
 41
0.0
 71
     1
 72
     1
  1
SCUP 100
  7
SLDTEXTSTYLE1
 73
     1
 44
1.0
  0
MTEXT
  5
15B
330
1F
100
AcDbEntity
  8
0
  6
Continuous
 62
     7
370
     0
100
AcDbMText
 10
1786.6402516559
 20
202.9524036561
 30
0.0
 40
7.9375
 41
0.0
 71
     1
 72
     1
  1
100x100MM SCUPPER DRAIN
  7
SLDTEXTSTYLE1
 73
     1
 44
1.0
  0
MTEXT
  5
15C
330
1F
100
AcDbEntity
  8
0
  6
Continuous
 62
     7
370
     0
100
AcDbMText
 10
1424.6626979307
 20
34.6024932086
 30
0.0
 40
7.9375
 41
0.0
 71
     1
 72
     1
  1
F
  7
SLDTEXTSTYLE1
 73
     1
 44
1.0
  0
MTEXT
  5
15D
330
1F
100
AcDbEntity
  8
0
  6
Continuous
 62
     7
370
     0
100
AcDbMText
 10
1675.4873912957
 20
35.3158811301
 30
0.0
 40
7.9375
 41
0.0
 71
     1
 72
     1
  1
G
  7
SLDTEXTSTYLE1
 73
     1
 44
1.0
  0
MTEXT
  5
15E
330
1F
100
AcDbEntity
  8
0
  6
Continuous
 62
     7
370
     0
100
AcDbMText
 10
1926.4935169363
 20
35.1736043919
 30
0.0
 40
7.9375
 41
0.0
 71
     1
 72
     1
  1
H
  7
SLDTEXTSTYLE1
 73
     1
 44
1.0
  0
MTEXT
  5
15F
330
1F
100
AcDbEntity
  8
0
  6
Continuous
 62
     7
370
     0
100
AcDbMText
 10
1464.6893227095
 20
93.3857959602
 30
0.0
 40
7.9375
 41
0.0
 71
     1
 72
     1
  1
0.0
  7
SLDTEXTSTYLE1
 73
     1
 44
1.0
  0
MTEXT
  5
160
330
1F
100
AcDbEntity
  8
0
  6
Continuous
 62
     7
370
     0
100
AcDbMText
 10
1464.6893227095
 20
72.2530727966
 30
0.0
 40
7.9375
 41
0.0
 71
     1
 72
     1
  1
0.0
  7
SLDTEXTSTYLE1
 73
     1
 44
1.0
  0
MTEXT
  5
161
330
1F
100
AcDbEntity
  8
0
  6
Continuous
 62
     7
370
     0
100
AcDbMText
 10
1599.8019225286
 20
191.516523796
 30
0.0
 40
7.9375
 41
0.0
 71
     1
 72
     1
  1
J.M
  7
SLDTEXTSTYLE1
 73
     1
 44
1.0
  0
MTEXT
  5
162
330
1F
100
AcDbEntity
  8
0
  6
Continuous
 62
     7
370
     0
100
AcDbMText
 10
1679.2634554734
 20
194.405913799
 30
0.0
 40
7.9375
 41
0.0
 71
     1
 72
     1
  1
1.4.2014
  7
SLDTEXTSTYLE1
 73
     1
 44
1.0
  0
MTEXT
  5
163
330
1F
100
AcDbEntity
  8
0
  6
Continuous
 62
     7
370
     0
100
AcDbMText
 10
1680.0516508882
 20
165.0424931845
 30
0.0
 40
7.9375
 41
0.0
 71
     1
 72
     1
  1
2.4.2014
  7
SLDTEXTSTYLE1
 73
     1
 44
1.0
  0
MTEXT
  5
164
330
1F
100
AcDbEntity
  8
0
  6
Continuous
 62
     7
370
     0
100
AcDbMText
 10
1601.6595181632
 20
169.0133445707
 30
0.0
 40
7.9375
 41
0.0
 71
     1
 72
     1
  1
S.L.
  7
SLDTEXTSTYLE1
 73
     1
 44
1.0
  0
MTEXT
  5
165
330
1F
100
AcDbEntity
  8
SLD-0
100
AcDbMText
 10
1330.376346883
 20
58.6150758249
 30
0.0
 40
6.6145833333
 41
0.0
 71
     1
 72
     1
  1
S/CAD FILES/2014/DIVERSE/SCUP100
  7
SLDTEXTSTYLE1
 73
     1
 44
1.0
  0
MTEXT
  5
166
330
1F
100
AcDbEntity
  8
SLD-0
100
AcDbMText
 10
1290.9663238217
 20
116.7019266909
 30
0.0
 40
7.9375
 41
0.0
 71
     1
 72
     1
  1
XXX
  7
SLDTEXTSTYLE1
 73
     1
 44
1.0
  0
MTEXT
  5
167
330
1F
100
AcDbEntity
  8
SLD-0
100
AcDbMText
 10
1460.2096460973
 20
116.7019266909
 30
0.0
 40
7.9375
 41
0.0
 71
     1
 72
     1
  1
S.L.
  7
SLDTEXTSTYLE1
 73
     1
 44
1.0
  0
MTEXT
  5
168
330
1F
100
AcDbEntity
  8
SLD-0
100
AcDbMText
 10
1505.1136457158
 20
116.7019266909
 30
0.0
 40
7.9375
 41
0.0
 71
     1
 72
     1
  1
XXX
  7
SLDTEXTSTYLE1
 73
     1
 44
1.0
  0
MTEXT
  5
169
330
1F
100
AcDbEntity
  8
SLD-0
100
AcDbMText
 10
1365.6805000657
 20
222.5661845383
 30
0.0
 40
7.9375
 41
0.0
 71
     1
 72
     1
  1
CHANGES
  7
SLDTEXTSTYLE1
 73
     1
 44
1.0
  0
MTEXT
  5
16A
330
1F
100
AcDbEntity
  8
SLD-0
100
AcDbMText
 10
1374.641227801
 20
116.7019266909
 30
0.0
 40
7.9375
 41
0.0
 71
     1
 72
     1
  1
XXX
  7
SLDTEXTSTYLE1
 73
     1
 44
1.0
  0
INSERT
  5
171
330
1F
100
AcDbEntity
  8
SLD-0
 62
     7
100
AcDbBlockReference
  2
SW_NOTE_0
 10
46.2011278298
 20
67.6118399718
 30
0.0
  0
MTEXT
  5
173
330
1F
100
AcDbEntity
  8
SLD-0
 62
     7
100
AcDbMText
 10
1645.1399556488
 20
1353.5504300173
 30
0.0
 40
7.9375
 41
0.0
 71
     1
 72
     1
  1
CODE
  7
SLDTEXTSTYLE2
 73
     1
 44
1.0
  0
MTEXT
  5
174
330
1F
100
AcDbEntity
  8
SLD-0
 62
     7
100
AcDbMText
 10
1767.7559595832
 20
1374.674003695
 30
0.0
 40
7.9375
 41
0.0
 71
     1
 72
     1
  1
DESCRIPTION
  7
SLDTEXTSTYLE2
 73
     1
 44
1.0
  0
MTEXT
  5
175
330
1F
100
AcDbEntity
  8
SLD-0
 62
     7
100
AcDbMText
 10
1916.2149213718
 20
1353.5504300173
 30
0.0
 40
7.9375
 41
0.0
 71
     1
 72
     1
  1
FINISH
  7
SLDTEXTSTYLE2
 73
     1
 44
1.0
  0
MTEXT
  5
176
330
1F
100
AcDbEntity
  8
SLD-0
100
AcDbMText
 10
1757.8203320667
 20
141.4196521444
 30
0.0
 40
7.9375
 41
0.0
 71
     1
 72
     1
  1
APPLICABLE STANDARD(S):
  7
SLDTEXTSTYLE1
 73
     1
 44
1.0
  0
LINE
  5
177
330
1F
100
AcDbEntity
  8
0
  6
Continuous
 62
     7
370
    18
100
AcDbLine
 10
678.0440750588
 20
529.8271694915
 30
0.0
 11
675.4440750517
 21
529.8271694915
 31
0.0
  0
LINE
  5
178
330
1F
100
AcDbEntity
  8
0
  6
Continuous
 62
     7
370
    18
100
AcDbLine
 10
675.4440750517
 20
529.8271694915
 30
0.0
 11
675.4440750517
 21
579.8271665113
 31
0.0
  0
LINE
  5
179
330
1F
100
AcDbEntity
  8
0
  6
Continuous
 62
     7
370
    18
100
AcDbLine
 10
675.4440750517
 20
579.8271665113
 30
0.0
 11
678.0440750588
 21
579.8271665113
 31
0.0
  0
LINE
  5
17A
330
1F
100
AcDbEntity
  8
0
  6
Continuous
 62
     7
370
    18
100
AcDbLine
 10
678.0440750588
 20
579.8271665113
 30
0.0
 11
678.0440750588
 21
529.8271694915
 31
0.0
  0
LINE
  5
17B
330
1F
100
AcDbEntity
  8
0
  6
Continuous
 62
     7
370
    18
100
AcDbLine
 10
745.4440753497
 20
404.8271694915
 30
0.0
 11
745.4440753497
 21
407.4271694986
 31
0.0
  0
LINE
  5
17C
330
1F
100
AcDbEntity
  8
0
  6
Continuous
 62
     7
370
    18
100
AcDbLine
 10
795.4440723695
 20
407.4271694986
 30
0.0
 11
795.4440723695
 21
404.8271694915
 31
0.0
  0
LINE
  5
17D
330
1F
100
AcDbEntity
  8
0
  6
Continuous
 62
     7
370
    18
100
AcDbLine
 10
745.4440753497
 20
407.4271694986
 30
0.0
 11
795.4440723695
 21
407.4271694986
 31
0.0
  0
LINE
  5
17E
330
1F
100
AcDbEntity
  8
0
  6
Continuous
 62
     7
370
    18
100
AcDbLine
 10
795.4440723695
 20
404.8271694915
 30
0.0
 11
745.4440753497
 21
404.8271694915
 31
0.0
  0
LINE
  5
17F
330
1F
100
AcDbEntity
  8
0
  6
Continuous
 62
     7
370
    18
100
AcDbLine
 10
675.4440750517
 20
529.8271694915
 30
0.0
 11
675.4440750517
 21
414.827169268
 31
0.0
  0
LINE
  5
180
330
1F
100
AcDbEntity
  8
0
  6
Continuous
 62
     7
370
    18
100
AcDbLine
 10
745.4440753497
 20
407.4271694986
 30
0.0
 11
685.4440748282
 21
407.4271694986
 31
0.0
  0
LINE
  5
181
330
1F
100
AcDbEntity
  8
0
  6
Continuous
 62
     7
370
    18
100
AcDbLine
 10
685.4440748282
 20
404.8271694915
 30
0.0
 11
745.4440753497
 21
404.8271694915
 31
0.0
  0
ARC
  5
182
330
1F
100
AcDbEntity
  8
0
  6
Continuous
 62
     7
370
    18
100
AcDbCircle
 10
685.4440750517
 20
414.8271694915
 30
0.0
 40
10.0
100
AcDbArc
 50
180.0
 51
270.0
  0
ARC
  5
183
330
1F
100
AcDbEntity
  8
0
  6
Continuous
 62
     7
370
    18
100
AcDbCircle
 10
685.4440750517
 20
414.8271694915
 30
0.0
 40
7.400000000000205
100
AcDbArc
 50
180.0
 51
270.0
  0
LINE
  5
184
330
1F
100
AcDbEntity
  8
0
  6
Continuous
 62
     7
370
    18
100
AcDbLine
 10
678.0440750588
 20
414.827169268
 30
0.0
 11
678.0440750588
 21
529.8271694915
 31
0.0
  0
LINE
  5
185
330
1F
100
AcDbEntity
  8
0
  6
Continuous
 62
     7
370
    18
100
AcDbLine
 10
675.4440750517
 20
495.669945492
 30
0.0
 11
672.4440750256
 21
495.669945492
 31
0.0
  0
SPLINE
  5
186
330
1F
100
AcDbEntity
  8
0
  6
Continuous
 62
     7
370
    18
100
AcDbSpline
210
0.0
220
0.0
230
1.0
 70
     8
 71
     3
 72
    27
 73
    23
 74
     0
 42
0.000000001
 43
0.00000001
 40
0.0
 40
0.0
 40
0.0
 40
0.0
 40
0.1250000000000014
 40
0.1250000000000014
 40
0.1875000000000021
 40
0.1875000000000021
 40
0.2500000000000028
 40
0.2500000000000028
 40
0.3750000000000042
 40
0.3750000000000042
 40
0.5000000000000056
 40
0.5000000000000056
 40
0.6250000000000069
 40
0.6250000000000069
 40
0.6875000000000061
 40
0.6875000000000061
 40
0.7500000000000052
 40
0.8125000000000043
 40
0.8125000000000043
 40
0.8750000000000034
 40
0.8750000000000034
 40
1.0
 40
1.0
 40
1.0
 40
1.0
 10
672.444075051674
 20
495.6699461536957
 30
0.0
 10
672.4544495444009
 20
496.1983754945852
 30
0.0
 10
672.4646512816353
 20
496.718006798162
 30
0.0
 10
672.4797030251398
 20
497.4847935828188
 30
0.0
 10
672.4846781601829
 20
497.7382635005226
 30
0.0
 10
672.4945419787518
 20
498.2408549224049
 30
0.0
 10
672.4994444212867
 20
498.4906780478815
 30
0.0
 10
672.5137048829381
 20
499.2174782953256
 30
0.0
 10
672.5227216722826
 20
499.6771699758185
 30
0.0
 10
672.5397830582306
 20
500.5472999408724
 30
0.0
 10
672.547860722924
 20
500.9594294798853
 30
0.0
 10
672.5623379521555
 20
501.6983494636881
 30
0.0
 10
672.5688330024493
 20
502.0300073888691
 30
0.0
 10
672.5774355669206
 20
502.4694280239065
 30
0.0
 10
672.5801074832159
 20
502.6059377457401
 30
0.0
 10
672.584949819875
 20
502.8533735902952
 30
0.0
 10
672.5893245103084
 20
503.0769547111734
 30
0.0
 10
672.5927788966247
 20
503.2535514595339
 30
0.0
 10
672.5957672449506
 20
503.40633780715
 30
0.0
 10
672.5970324262482
 20
503.4710316587779
 30
0.0
 10
672.600067744372
 20
503.6262491648837
 30
0.0
 10
672.6010829204026
 20
503.6781745874256
 30
0.0
 10
672.6010829204026
 20
503.6781745874256
 30
0.0
  0
ARC
  5
187
330
1F
100
AcDbEntity
  8
0
  6
Continuous
 62
     7
370
    18
100
AcDbCircle
 10
672.4440750517
 20
506.6740631917
 30
0.0
 40
3.000000000000114
100
AcDbArc
 50
273.0
 51
0.0
  0
LWPOLYLINE
  5
188
330
1F
100
AcDbEntity
  8
0
  6
Continuous
 62
     7
370
    18
100
AcDbPolyline
 90
        9
 70
   128
 43
0.0
 10
675.5815076901
 20
413.174969493
 10
675.5246557438
 20
413.1654457884
 10
675.356284715
 20
413.1372397529
 10
675.0828649963
 20
413.091435446
 10
674.7149039581
 20
413.0297939988
 10
674.2665421041
 20
412.9546837645
 10
673.7550098039
 20
412.8689899804
 10
673.1999648325
 20
412.7760076659
 10
672.6227373872
 20
412.6793093743
  0
SPLINE
  5
189
330
1F
100
AcDbEntity
  8
0
  6
Continuous
 62
     7
370
    18
100
AcDbSpline
210
0.0
220
0.0
230
1.0
 70
     8
 71
     3
 72
    16
 73
    12
 74
     0
 42
0.000000001
 43
0.00000001
 40
0.0
 40
0.0
 40
0.0
 40
0.0
 40
0.2500000000000001
 40
0.2500000000000001
 40
0.5000000000000001
 40
0.5000000000000001
 40
0.6250000000000001
 40
0.6250000000000001
 40
0.7500000000000002
 40
0.7500000000000002
 40
1.0
 40
1.0
 40
1.0
 40
1.0
 10
675.4719400331501
 20
408.2162201490871
 30
0.0
 10
675.7201503285809
 20
408.3542024531864
 30
0.0
 10
675.9629916804286
 20
408.4633474599872
 30
0.0
 10
676.4379762054599
 20
408.624192162904
 30
0.0
 10
676.6600257698296
 20
408.6723266094072
 30
0.0
 10
676.9676529949545
 20
408.6963540462643
 30
0.0
 10
677.0658980982955
 20
408.6960697845591
 30
0.0
 10
677.2474974342618
 20
408.6791711942739
 30
0.0
 10
677.3317598984019
 20
408.6626661243491
 30
0.0
 10
677.564885730183
 20
408.5889225613595
 30
0.0
 10
677.694180167427
 20
408.5057904109985
 30
0.0
 10
677.7867235874648
 20
408.3956091401543
 30
0.0
  0
SPLINE
  5
18A
330
1F
100
AcDbEntity
  8
0
  6
Continuous
 62
     7
370
    18
100
AcDbSpline
210
0.0
220
0.0
230
1.0
 70
     8
 71
     3
 72
    17
 73
    13
 74
     0
 42
0.000000001
 43
0.00000001
 40
0.0
 40
0.0
 40
0.0
 40
0.0
 40
0.0000188027577087
 40
0.0000188027577087
 40
0.0000188027577087
 40
0.000037475789254
 40
0.000037475789254
 40
0.000037475789254
 40
0.0000702116592656
 40
0.0000702116592656
 40
0.0000702116592656
 40
0.0000765574726113
 40
0.0000765574726113
 40
0.0000765574726113
 40
0.0000765574726113
 10
675.4719400331501
 20
408.2162201490871
 30
0.0
 10
675.4667578485014
 20
408.2133393266873
 30
0.0
 10
675.4621320782137
 20
408.2096640608601
 30
0.0
 10
675.4584440982978
 20
408.2055275854876
 30
0.0
 10
675.4547693004185
 20
408.2014058952199
 30
0.0
 10
675.4519179740705
 20
408.1967551658819
 30
0.0
 10
675.4498226754077
 20
408.1919601079392
 30
0.0
 10
675.4461680288482
 20
408.1835965069289
 30
0.0
 10
675.4446186768781
 20
408.1746068866772
 30
0.0
 10
675.4441964106244
 20
408.1657608090288
 30
0.0
 10
675.4441138274759
 20
408.1640307703727
 30
0.0
 10
675.4440750516741
 20
408.1622995608301
 30
0.0
 10
675.4440750516741
 20
408.1605692128313
 30
0.0
  0
SPLINE
  5
18B
330
1F
100
AcDbEntity
  8
0
  6
Continuous
 62
     7
370
    18
100
AcDbSpline
210
0.0
220
0.0
230
1.0
 70
     8
 71
     3
 72
    18
 73
    14
 74
     0
 42
0.000000001
 43
0.00000001
 40
0.0
 40
0.0
 40
0.0
 40
0.0
 40
0.25
 40
0.25
 40
0.5
 40
0.5
 40
0.625
 40
0.625
 40
0.75
 40
0.75
 40
0.875
 40
0.875
 40
1.0
 40
1.0
 40
1.0
 40
1.0
 10
675.4440750516741
 20
408.1605692128313
 30
0.0
 10
675.1209482592662
 20
408.4376841999936
 30
0.0
 10
674.8091581435481
 20
408.7392383823569
 30
0.0
 10
674.2259729010314
 20
409.3891406861802
 30
0.0
 10
673.9535316122757
 20
409.73795714089
 30
0.0
 10
673.5809892238079
 20
410.3062257316963
 30
0.0
 10
673.4623052131565
 20
410.5043659871743
 30
0.0
 10
673.24310224152
 20
410.910234342977
 30
0.0
 10
673.1422574994135
 20
411.1182532949834
 30
0.0
 10
672.9593415387852
 20
411.5452318703582
 30
0.0
 10
672.8772649164655
 20
411.7641880364311
 30
0.0
 10
672.7336338115929
 20
412.2141197429048
 30
0.0
 10
672.6720857075796
 20
412.445617626334
 30
0.0
 10
672.6227374747517
 20
412.6793094545304
 30
0.0
  0
ARC
  5
18C
330
1F
100
AcDbEntity
  8
0
  6
Continuous
 62
     7
370
    18
100
AcDbCircle
 10
685.4440750517
 20
414.8271694915
 30
0.0
 40
13.00000000000016
100
AcDbArc
 50
180.0
 51
189.5100151155
  0
LINE
  5
18D
330
1F
100
AcDbEntity
  8
0
  6
Continuous
 62
     7
370
    18
100
AcDbLine
 10
675.4440750517
 20
414.827169268
 30
0.0
 11
672.4440750256
 21
414.827169268
 31
0.0
  0
LINE
  5
18E
330
1F
100
AcDbEntity
  8
0
  6
Continuous
 62
     7
370
    18
100
AcDbLine
 10
672.4440750256
 20
414.827169268
 30
0.0
 11
672.4440750256
 21
495.669945492
 31
0.0
  0
LINE
  5
18F
330
1F
100
AcDbEntity
  8
0
  6
Continuous
 62
     7
370
    18
100
AcDbLine
 10
175.4440750517
 20
469.6232819693
 30
0.0
 11
672.4440750256
 21
495.669945492
 31
0.0
  0
SPLINE
  5
190
330
1F
100
AcDbEntity
  8
0
  6
Continuous
 62
     7
370
    18
100
AcDbSpline
210
0.0
220
0.0
230
1.0
 70
    24
 71
     3
 72
    18
 73
    14
 74
     0
 42
0.000000001
 43
0.00000001
 40
0.0
 40
0.0
 40
0.0
 40
0.0
 40
0.1249999999999999
 40
0.1249999999999999
 40
0.2499999999999998
 40
0.2499999999999998
 40
0.5000000000000009
 40
0.5000000000000009
 40
0.750000000000002
 40
0.750000000000002
 40
0.875000000000001
 40
0.875000000000001
 40
1.0
 40
1.0
 40
1.0
 40
1.0
 10
175.444075051674
 20
477.6232798500257
 30
0.0
 10
175.4440750516739
 20
477.6232798500257
 30
0.0
 10
175.4440750516739
 20
477.5716584416874
 30
0.0
 10
175.444075051674
 20
477.367114069406
 30
0.0
 10
175.444075051674
 20
477.2141313618206
 30
0.0
 10
175.444075051674
 20
476.6130594955622
 30
0.0
 10
175.444075051674
 20
476.019236491229
 30
0.0
 10
175.4440750516739
 20
474.5379651549555
 30
0.0
 10
175.4440750516739
 20
473.6503807291099
 30
0.0
 10
175.444075051674
 20
472.1965688987703
 30
0.0
 10
175.444075051674
 20
471.6925467440428
 30
0.0
 10
175.444075051674
 20
470.6671156677311
 30
0.0
 10
175.4440750516741
 20
470.1482922975752
 30
0.0
 10
175.444075051674
 20
469.6232798500257
 30
0.0
  0
LINE
  5
191
330
1F
100
AcDbEntity
  8
0
  6
Continuous
 62
     7
370
    18
100
AcDbLine
 10
175.4440750517
 20
477.6232832806
 30
0.0
 11
672.6010829732
 21
503.6781722443
 31
0.0
  0
LINE
  5
192
330
1F
100
AcDbEntity
  8
0
  6
Continuous
 62
     7
370
    18
100
AcDbLine
 10
675.4440750517
 20
404.8271694915
 30
0.0
 11
675.4440750517
 21
408.1605692623
 31
0.0
  0
LINE
  5
193
330
1F
100
AcDbEntity
  8
0
  6
Continuous
 62
     7
370
    18
100
AcDbLine
 10
175.4440750517
 20
378.6232800918
 30
0.0
 11
675.4440750517
 21
404.8271694915
 31
0.0
  0
LINE
  5
194
330
1F
100
AcDbEntity
  8
0
  6
Continuous
 62
     7
370
    18
100
AcDbLine
 10
175.4440750517
 20
386.6232795404
 30
0.0
 11
672.6227373872
 21
412.6793093743
 31
0.0
  0
SPLINE
  5
195
330
1F
100
AcDbEntity
  8
0
  6
Continuous
 62
     7
370
    18
100
AcDbSpline
210
0.0
220
0.0
230
1.0
 70
    24
 71
     3
 72
    22
 73
    18
 74
     0
 42
0.000000001
 43
0.00000001
 40
0.0
 40
0.0
 40
0.0
 40
0.0
 40
0.124999999999999
 40
0.124999999999999
 40
0.1874999999999985
 40
0.1874999999999985
 40
0.249999999999998
 40
0.249999999999998
 40
0.4999999999999987
 40
0.4999999999999987
 40
0.624999999999999
 40
0.624999999999999
 40
0.7499999999999993
 40
0.7499999999999993
 40
0.8749999999999997
 40
0.8749999999999997
 40
1.0
 40
1.0
 40
1.0
 40
1.0
 10
175.444075051674
 20
386.6232798500258
 30
0.0
 10
175.4440750516739
 20
386.0974676394688
 30
0.0
 10
175.444075051674
 20
385.5803979638741
 30
0.0
 10
175.4440750516739
 20
384.8173699200527
 30
0.0
 10
175.444075051674
 20
384.5651387572498
 30
0.0
 10
175.444075051674
 20
384.0649937156795
 30
0.0
 10
175.444075051674
 20
383.8164930353757
 30
0.0
 10
175.444075051674
 20
382.6048573213809
 30
0.0
 10
175.4440750516741
 20
381.7141084746797
 30
0.0
 10
175.444075051674
 20
380.6009073056029
 30
0.0
 10
175.444075051674
 20
380.2661545460454
 30
0.0
 10
175.444075051674
 20
379.6822775503495
 30
0.0
 10
175.444075051674
 20
379.4339574649255
 30
0.0
 10
175.444075051674
 20
379.0316345960316
 30
0.0
 10
175.444075051674
 20
378.878792827506
 30
0.0
 10
175.444075051674
 20
378.674621488985
 30
0.0
 10
175.4440750516741
 20
378.6232798500257
 30
0.0
 10
175.444075051674
 20
378.6232798500257
 30
0.0
  0
LINE
  5
196
330
1F
100
AcDbEntity
  8
0
  6
Continuous
 62
     7
370
    18
100
AcDbLine
 10
175.4440750517
 20
386.6232795404
 30
0.0
 11
175.4440750517
 21
469.6232819693
 31
0.0
  0
LINE
  5
197
330
1F
100
AcDbEntity
  8
0
  6
Continuous
 62
     7
370
    18
100
AcDbLine
 10
685.4440748282
 20
404.8271694915
 30
0.0
 11
675.4440750517
 21
404.8271694915
 31
0.0
  0
SPLINE
  5
198
330
1F
100
AcDbEntity
  8
0
  6
Continuous
 62
     8
370
    18
100
AcDbSpline
210
0.0
220
0.0
230
1.0
 70
     8
 71
     3
 72
    12
 73
     8
 74
     0
 42
0.000000001
 43
0.00000001
 40
0.0
 40
0.0
 40
0.0
 40
0.0
 40
0.2338875140168852
 40
0.5720540499404172
 40
0.7770122877098021
 40
0.9862416694802806
 40
1.0
 40
1.0
 40
1.0
 40
1.0
 10
684.5130083672491
 20
404.9093447825716
 30
0.0
 10
683.770267950715
 20
404.9520891124794
 30
0.0
 10
681.9536354335039
 20
405.0566353818198
 30
0.0
 10
679.5329765144604
 20
405.7835342316848
 30
0.0
 10
677.2939941202854
 20
406.8521997305937
 30
0.0
 10
676.0929836170095
 20
407.6808411811938
 30
0.0
 10
675.5080315469373
 20
408.1851070325325
 30
0.0
 10
675.4719400339316
 20
408.2162202099415
 30
0.0
  0
DIMENSION
  5
199
330
1F
100
AcDbEntity
  8
SLD-0
 62
     1
100
AcDbDimension
  2
_D
 10
875.4440750517
 20
579.8271694915
 30
0.0
 11
875.4440750517
 21
492.3271694915
 31
0.0
 70
   160
  1
<>
 71
     2
 42
-1.0
  3
SLDDIMSTYLE0
100
AcDbAlignedDimension
 13
795.4440750517
 23
404.8271694915
 33
0.0
 14
678.0440750517
 24
579.8271694915
 34
0.0
 50
90.0
100
AcDbRotatedDimension
  0
DIMENSION
  5
1A5
330
1F
100
AcDbEntity
  8
SLD-0
 62
     1
100
AcDbDimension
  2
_D_1
 10
675.4440750517
 20
629.8271694915
 30
0.0
 11
720.9906093183
 21
629.8271694915
 31
0.0
 70
   160
  1
<>
 71
     2
 42
-1.0
  3
SLDDIMSTYLE1
100
AcDbAlignedDimension
 13
678.0440750517
 23
579.8271694915
 33
0.0
 14
675.4440750517
 24
579.8271694915
 34
0.0
100
AcDbRotatedDimension
  0
DIMENSION
  5
1B2
330
1F
100
AcDbEntity
  8
SLD-0
 62
     1
100
AcDbDimension
  2
_D_2
 10
845.4440750517
 20
404.8271694915
 30
0.0
 11
845.4440750517
 21
454.2526720395
 31
0.0
 70
   160
  1
<>
 71
     2
 42
-1.0
  3
SLDDIMSTYLE0
100
AcDbAlignedDimension
 13
672.6010829204
 23
503.6781745874
 33
0.0
 14
795.4440750517
 24
404.8271694915
 34
0.0
 50
90.0
100
AcDbRotatedDimension
  0
DIMENSION
  5
1BC
330
1F
100
AcDbEntity
  8
SLD-0
 62
     1
100
AcDbDimension
  2
_D_3
 10
675.4440750517
 20
404.8271694915
 30
0.0
 11
681.0654235061
 21
311.1173521235
 31
0.0
 70
   162
  1
<>
 71
     1
 42
-1.0
  3
SLDDIMSTYLE2
100
AcDb2LineAngularDimension
 13
675.4440750517
 23
404.8271694915
 33
0.0
 14
795.4440750517
 24
404.8271694915
 34
0.0
 15
175.4440750517
 25
378.62327985
 35
0.0
 16
677.901521652
 26
310.9810700211
 36
0.0
  0
DIMENSION
  5
1C5
330
1F
100
AcDbEntity
  8
SLD-0
 62
     1
100
AcDbDimension
  2
_D_4
 10
685.4440750517
 20
414.8271694915
 30
0.0
 11
720.21935869
 21
452.6395308165
 31
0.0
 70
   164
  1
<>
 71
     1
 42
-1.0
  3
SLDDIMSTYLE3
100
AcDbRadialDimension
 15
0.0
 25
0.0
 35
0.0
 40
0.0
  0
DIMENSION
  5
1CF
330
1F
100
AcDbEntity
  8
SLD-0
 62
     1
100
AcDbDimension
  2
_D_5
 10
219.6187700801
 20
479.938377517
 30
0.0
 11
217.909845279
 21
512.5466052355
 31
0.0
 70
   160
  1
<>
 71
     2
 42
-1.0
  3
SLDDIMSTYLE4
100
AcDbAlignedDimension
 13
175.4440750517
 23
378.62327985
 33
0.0
 14
175.4440750517
 24
477.62327985
 34
0.0
 50
-87.0
100
AcDbRotatedDimension
  0
SOLID
  5
1D9
330
1F
100
AcDbEntity
  8
SLD-0
 62
     1
100
AcDbTrace
 10
690.4627943359
 20
420.2652258305
 30
0.0
 11
702.2472868466
 21
426.3992079194
 31
0.0
 12
695.6334345424
 22
432.5030556976
 32
0.0
 13
695.6334345424
 23
432.5030556976
 33
0.0
  0
LINE
  5
1DA
330
1F
100
AcDbEntity
  8
SLD-0
 62
     1
100
AcDbLine
 10
690.4627943359
 20
420.2652258305
 30
0.0
 11
733.4596659817
 21
466.8546836514
 31
0.0
  0
LINE
  5
1DB
330
1F
100
AcDbEntity
  8
0
  6
Continuous
 62
     7
370
    18
100
AcDbLine
 10
678.0440750588
 20
1206.2595779299
 30
0.0
 11
675.4440750517
 21
1206.2595779299
 31
0.0
  0
LINE
  5
1DC
330
1F
100
AcDbEntity
  8
0
  6
Continuous
 62
     7
370
    18
100
AcDbLine
 10
675.4440750517
 20
1256.2595749496
 30
0.0
 11
678.0440750588
 21
1256.2595749496
 31
0.0
  0
LINE
  5
1DD
330
1F
100
AcDbEntity
  8
0
  6
Continuous
 62
     7
370
    18
100
AcDbLine
 10
675.4440750517
 20
1206.2595779299
 30
0.0
 11
675.4440750517
 21
1256.2595749496
 31
0.0
  0
LINE
  5
1DE
330
1F
100
AcDbEntity
  8
0
  6
Continuous
 62
     7
370
    18
100
AcDbLine
 10
678.0440750588
 20
1256.2595749496
 30
0.0
 11
678.0440750588
 21
1206.2595779299
 31
0.0
  0
LINE
  5
1DF
330
1F
100
AcDbEntity
  8
0
  6
Continuous
 62
     7
370
    18
100
AcDbLine
 10
675.4440750517
 20
961.2595731615
 30
0.0
 11
678.0440750588
 21
961.2595731615
 31
0.0
  0
LINE
  5
1E0
330
1F
100
AcDbEntity
  8
0
  6
Continuous
 62
     7
370
    18
100
AcDbLine
 10
675.4440750517
 20
1206.2595779299
 30
0.0
 11
675.4440750517
 21
961.2595731615
 31
0.0
  0
LINE
  5
1E1
330
1F
100
AcDbEntity
  8
0
  6
Continuous
 62
     7
370
    18
100
AcDbLine
 10
678.0440750588
 20
1206.2595779299
 30
0.0
 11
678.0440750588
 21
961.2595731615
 31
0.0
  0
LINE
  5
1E2
330
1F
100
AcDbEntity
  8
0
  6
Continuous
 62
     7
370
    18
100
AcDbLine
 10
678.0440750588
 20
911.2595761417
 30
0.0
 11
675.4440750517
 21
911.2595761417
 31
0.0
  0
LINE
  5
1E3
330
1F
100
AcDbEntity
  8
0
  6
Continuous
 62
     7
370
    18
100
AcDbLine
 10
675.4440750517
 20
911.2595761417
 30
0.0
 11
675.4440750517
 21
961.2595731615
 31
0.0
  0
LINE
  5
1E4
330
1F
100
AcDbEntity
  8
0
  6
Continuous
 62
     7
370
    18
100
AcDbLine
 10
678.0440750588
 20
961.2595731615
 30
0.0
 11
678.0440750588
 21
911.2595761417
 31
0.0
  0
ARC
  5
1E5
330
1F
100
AcDbEntity
  8
0
  6
Continuous
 62
     7
370
    18
100
AcDbCircle
 10
672.4440750517
 20
1031.2595755457
 30
0.0
 40
3.0
100
AcDbArc
 50
0.0
 51
90.0
  0
SPLINE
  5
1E6
330
1F
100
AcDbEntity
  8
0
  6
Continuous
 62
     7
370
    18
100
AcDbSpline
210
0.0
220
0.0
230
1.0
 70
     8
 71
     3
 72
    27
 73
    23
 74
     0
 42
0.000000001
 43
0.00000001
 40
0.0
 40
0.0
 40
0.0
 40
0.0
 40
0.1250000000000014
 40
0.1250000000000014
 40
0.1875000000000021
 40
0.1875000000000021
 40
0.2500000000000028
 40
0.2500000000000028
 40
0.3750000000000042
 40
0.3750000000000042
 40
0.5000000000000056
 40
0.5000000000000056
 40
0.6250000000000069
 40
0.6250000000000069
 40
0.6875000000000061
 40
0.6875000000000061
 40
0.7500000000000052
 40
0.8125000000000043
 40
0.8125000000000043
 40
0.8750000000000034
 40
0.8750000000000034
 40
1.0
 40
1.0
 40
1.0
 40
1.0
 10
672.4440750516742
 20
1034.259575545693
 30
0.0
 10
672.454449544401
 20
1034.259575545693
 30
0.0
 10
672.4646512816353
 20
1034.311312657673
 30
0.0
 10
672.4797030251398
 20
1034.463367086436
 30
0.0
 10
672.484678160183
 20
1034.526552045071
 30
0.0
 10
672.4945419787521
 20
1034.678493056568
 30
0.0
 10
672.4994444212867
 20
1034.767683727333
 30
0.0
 10
672.5137048829382
 20
1035.068238294658
 30
0.0
 10
672.5227216722827
 20
1035.31349572461
 30
0.0
 10
672.5397830582307
 20
1035.893008614335
 30
0.0
 10
672.547860722924
 20
1036.230399830019
 30
0.0
 10
672.5623379521555
 20
1036.967588741353
 30
0.0
 10
672.5688330024494
 20
1037.369874959754
 30
0.0
 10
672.5774355669206
 20
1038.025056827952
 30
0.0
 10
672.580107483216
 20
1038.252156716112
 30
0.0
 10
672.5849498198751
 20
1038.713743400241
 30
0.0
 10
672.5893245103086
 20
1039.185143350302
 30
0.0
 10
672.5927788966248
 20
1039.675871547461
 30
0.0
 10
672.5957672449506
 20
1040.176394771203
 30
0.0
 10
672.5970324262482
 20
1040.432671938224
 30
0.0
 10
672.6000677443722
 20
1041.208247126222
 30
0.0
 10
672.6010829204027
 20
1041.731026176273
 30
0.0
 10
672.6010829204027
 20
1042.259575545693
 30
0.0
  0
LINE
  5
1E7
330
1F
100
AcDbEntity
  8
0
  6
Continuous
 62
     7
370
    18
100
AcDbLine
 10
675.4440750517
 20
1042.2595771252
 30
0.0
 11
672.6010829732
 21
1042.2595771252
 31
0.0
  0
LINE
  5
1E8
330
1F
100
AcDbEntity
  8
0
  6
Continuous
 62
     7
370
    18
100
AcDbLine
 10
675.4440750517
 20
1125.2595739662
 30
0.0
 11
672.6010829732
 21
1125.2595739662
 31
0.0
  0
SPLINE
  5
1E9
330
1F
100
AcDbEntity
  8
0
  6
Continuous
 62
     7
370
    18
100
AcDbSpline
210
0.0
220
0.0
230
1.0
 70
     8
 71
     3
 72
    27
 73
    23
 74
     0
 42
0.000000001
 43
0.00000001
 40
0.0
 40
0.0
 40
0.0
 40
0.0
 40
0.1250000000000014
 40
0.1250000000000014
 40
0.1875000000000022
 40
0.1875000000000022
 40
0.2500000000000029
 40
0.2500000000000029
 40
0.3750000000000016
 40
0.3750000000000016
 40
0.5000000000000002
 40
0.5000000000000002
 40
0.6249999999999989
 40
0.6249999999999989
 40
0.6874999999999996
 40
0.6874999999999996
 40
0.7500000000000003
 40
0.812500000000001
 40
0.812500000000001
 40
0.8750000000000018
 40
0.8750000000000018
 40
1.0
 40
1.0
 40
1.0
 40
1.0
 10
672.601082920403
 20
1125.259575545693
 30
0.0
 10
672.601082920403
 20
1125.788123697895
 30
0.0
 10
672.600067869996
 20
1126.307816979951
 30
0.0
 10
672.5970846575666
 20
1127.074620908597
 30
0.0
 10
672.5958449897504
 20
1127.328083759298
 30
0.0
 10
672.5928637225087
 20
1127.830635493716
 30
0.0
 10
672.5911136817685
 20
1128.080408570813
 30
0.0
 10
672.5852167006739
 20
1128.806928967286
 30
0.0
 10
672.5804046032343
 20
1129.266322779568
 30
0.0
 10
672.5690325446053
 20
1130.135681838435
 30
0.0
 10
672.5624119285552
 20
1130.54726437143
 30
0.0
 10
672.5479454462201
 20
1131.28496236746
 30
0.0
 10
672.5400500895895
 20
1131.615971608275
 30
0.0
 10
672.5271898313537
 20
1132.054417437014
 30
0.0
 10
672.5227333720135
 20
1132.190558695314
 30
0.0
 10
672.5136744921749
 20
1132.43732193857
 30
0.0
 10
672.5044222696663
 20
1132.660276472808
 30
0.0
 10
672.4947895103932
 20
1132.83634717589
 30
0.0
 10
672.4849641656447
 20
1132.98866505125
 30
0.0
 10
672.4799330301678
 20
1133.053153498928
 30
0.0
 10
672.4647111112135
 20
1133.207832507402
 30
0.0
 10
672.4544495209733
 20
1133.259575545693
 30
0.0
 10
672.4440750516742
 20
1133.259575545693
 30
0.0
  0
ARC
  5
1EA
330
1F
100
AcDbEntity
  8
0
  6
Continuous
 62
     7
370
    18
100
AcDbCircle
 10
672.4440750517
 20
1136.2595755457
 30
0.0
 40
3.0
100
AcDbArc
 50
270.0
 51
0.0
  0
LINE
  5
1EB
330
1F
100
AcDbEntity
  8
0
  6
Continuous
 62
     7
370
    18
100
AcDbLine
 10
672.6010829732
 20
1042.2595771252
 30
0.0
 11
672.6010829732
 21
1125.2595739662
 31
0.0
  0
LINE
  5
1EC
330
1F
100
AcDbEntity
  8
0
  6
Continuous
 62
     7
370
    18
100
AcDbLine
 10
175.4440750517
 20
1034.2595758139
 30
0.0
 11
672.4440750256
 21
1034.2595758139
 31
0.0
  0
SPLINE
  5
1ED
330
1F
100
AcDbEntity
  8
0
  6
Continuous
 62
     7
370
    18
100
AcDbSpline
210
0.0
220
0.0
230
1.0
 70
    24
 71
     3
 72
    18
 73
    14
 74
     0
 42
0.000000001
 43
0.00000001
 40
0.0
 40
0.0
 40
0.0
 40
0.0
 40
0.1249999999999999
 40
0.1249999999999999
 40
0.2499999999999998
 40
0.2499999999999998
 40
0.5000000000000009
 40
0.5000000000000009
 40
0.750000000000002
 40
0.750000000000002
 40
0.875000000000001
 40
0.875000000000001
 40
1.0
 40
1.0
 40
1.0
 40
1.0
 10
175.444075051674
 20
1042.259575545693
 30
0.0
 10
175.444075051674
 20
1041.734563098144
 30
0.0
 10
175.444075051674
 20
1041.211823749333
 30
0.0
 10
175.444075051674
 20
1040.184114718331
 30
0.0
 10
175.444075051674
 20
1039.680263031667
 30
0.0
 10
175.444075051674
 20
1038.229873399954
 30
0.0
 10
175.444075051674
 20
1037.341422771586
 30
0.0
 10
175.444075051674
 20
1035.860954098919
 30
0.0
 10
175.444075051674
 20
1035.267969770348
 30
0.0
 10
175.444075051674
 20
1034.666604672994
 30
0.0
 10
175.444075051674
 20
1034.514166901057
 30
0.0
 10
175.444075051674
 20
1034.310762594268
 30
0.0
 10
175.4440750516742
 20
1034.259575545693
 30
0.0
 10
175.444075051674
 20
1034.259575545693
 30
0.0
  0
LINE
  5
1EE
330
1F
100
AcDbEntity
  8
0
  6
Continuous
 62
     7
370
    18
100
AcDbLine
 10
175.4440750517
 20
1042.2595771252
 30
0.0
 11
672.6010829732
 21
1042.2595771252
 31
0.0
  0
LINE
  5
1EF
330
1F
100
AcDbEntity
  8
0
  6
Continuous
 62
     7
370
    18
100
AcDbLine
 10
175.4440750517
 20
1125.2595739662
 30
0.0
 11
672.6010829732
 21
1125.2595739662
 31
0.0
  0
SPLINE
  5
1F0
330
1F
100
AcDbEntity
  8
0
  6
Continuous
 62
     7
370
    18
100
AcDbSpline
210
0.0
220
0.0
230
1.0
 70
    24
 71
     3
 72
    18
 73
    14
 74
     0
 42
0.000000001
 43
0.00000001
 40
0.0
 40
0.0
 40
0.0
 40
0.0
 40
0.1249999999999999
 40
0.1249999999999999
 40
0.2499999999999998
 40
0.2499999999999998
 40
0.5000000000000003
 40
0.5000000000000003
 40
0.7500000000000008
 40
0.7500000000000008
 40
0.8750000000000004
 40
0.8750000000000004
 40
1.0
 40
1.0
 40
1.0
 40
1.0
 10
175.444075051674
 20
1133.259575545693
 30
0.0
 10
175.444075051674
 20
1133.259575545693
 30
0.0
 10
175.444075051674
 20
1133.207954137355
 30
0.0
 10
175.444075051674
 20
1133.003409765073
 30
0.0
 10
175.444075051674
 20
1132.850427057488
 30
0.0
 10
175.444075051674
 20
1132.24935519123
 30
0.0
 10
175.444075051674
 20
1131.655532186896
 30
0.0
 10
175.444075051674
 20
1130.174260850623
 30
0.0
 10
175.444075051674
 20
1129.286676424777
 30
0.0
 10
175.444075051674
 20
1127.832864594438
 30
0.0
 10
175.444075051674
 20
1127.32884243971
 30
0.0
 10
175.444075051674
 20
1126.303411363398
 30
0.0
 10
175.444075051674
 20
1125.784587993242
 30
0.0
 10
175.444075051674
 20
1125.259575545693
 30
0.0
  0
LINE
  5
1F1
330
1F
100
AcDbEntity
  8
0
  6
Continuous
 62
     7
370
    18
100
AcDbLine
 10
175.4440750517
 20
1133.2595752775
 30
0.0
 11
672.4440750256
 21
1133.2595752775
 31
0.0
  0
LINE
  5
1F2
330
1F
100
AcDbEntity
  8
0
  6
Continuous
 62
     7
370
    18
100
AcDbLine
 10
175.4440750517
 20
1125.2595739662
 30
0.0
 11
175.4440750517
 21
1042.2595771252
 31
0.0
  0
LINE
  5
1F3
330
1F
100
AcDbEntity
  8
0
  6
Continuous
 62
     7
370
    18
100
AcDbLine
 10
685.4440748282
 20
1256.2595749496
 30
0.0
 11
685.4440748282
 21
1125.2595739662
 31
0.0
  0
SPLINE
  5
1F4
330
1F
100
AcDbEntity
  8
0
  6
Continuous
 62
     7
370
    18
100
AcDbSpline
210
0.0
220
0.0
230
1.0
 70
     8
 71
     3
 72
    26
 73
    22
 74
     0
 42
0.000000001
 43
0.00000001
 40
0.0
 40
0.0
 40
0.0
 40
0.0
 40
0.1250000000000012
 40
0.1250000000000012
 40
0.1875000000000016
 40
0.1875000000000016
 40
0.2500000000000019
 40
0.2500000000000019
 40
0.3750000000000017
 40
0.3750000000000017
 40
0.5000000000000014
 40
0.5000000000000014
 40
0.6250000000000012
 40
0.6250000000000012
 40
0.750000000000001
 40
0.750000000000001
 40
0.875000000000001
 40
0.875000000000001
 40
0.9375000000000004
 40
0.9375000000000004
 40
1.0
 40
1.0
 40
1.0
 40
1.0
 10
678.4440750516741
 20
1130.259575545693
 30
0.0
 10
678.5902062297245
 20
1130.259575545693
 30
0.0
 10
678.7707450626331
 20
1130.206136968507
 30
0.0
 10
679.0884851893265
 20
1130.064563776549
 30
0.0
 10
679.2031398673985
 20
1130.006451103819
 30
0.0
 10
679.4427878532101
 20
1129.873929231963
 30
0.0
 10
679.5678085288121
 20
1129.799613538774
 30
0.0
 10
679.9572268217291
 20
1129.556082102259
 30
0.0
 10
680.2368565790068
 20
1129.36579593736
 30
0.0
 10
680.827022505601
 20
1128.944318366938
 30
0.0
 10
681.1312873104577
 20
1128.717654543729
 30
0.0
 10
681.7564711355278
 20
1128.240309157911
 30
0.0
 10
682.0774088441827
 20
1127.989532885671
 30
0.0
 10
682.7356857442223
 20
1127.467729380439
 30
0.0
 10
683.0706366116593
 20
1127.198547357785
 30
0.0
 10
683.7410437496922
 20
1126.655543143447
 30
0.0
 10
684.0782404429644
 20
1126.380318099628
 30
0.0
 10
684.5876032417515
 20
1125.963099027873
 30
0.0
 10
684.7579867145884
 20
1125.823290190227
 30
0.0
 10
685.1000647307005
 20
1125.542350035957
 30
0.0
 10
685.2730266056743
 20
1125.400176475235
 30
0.0
 10
685.4440750516741
 20
1125.259575545693
 30
0.0
  0
LINE
  5
1F5
330
1F
100
AcDbEntity
  8
0
  6
Continuous
 62
     7
370
    18
100
AcDbLine
 10
678.0440750588
 20
1130.2595766484
 30
0.0
 11
678.4440750778
 21
1130.2595766484
 31
0.0
  0
LINE
  5
1F6
330
1F
100
AcDbEntity
  8
0
  6
Continuous
 62
     7
370
    18
100
AcDbLine
 10
685.4440748282
 20
1256.2595749496
 30
0.0
 11
678.0440750588
 21
1256.2595749496
 31
0.0
  0
LINE
  5
1F7
330
1F
100
AcDbEntity
  8
0
  6
Continuous
 62
     7
370
    18
100
AcDbLine
 10
685.4440748282
 20
1042.2595771252
 30
0.0
 11
685.4440748282
 21
911.2595761417
 31
0.0
  0
SPLINE
  5
1F8
330
1F
100
AcDbEntity
  8
0
  6
Continuous
 62
     7
370
    18
100
AcDbSpline
210
0.0
220
0.0
230
1.0
 70
     8
 71
     3
 72
    26
 73
    22
 74
     0
 42
0.000000001
 43
0.00000001
 40
0.0
 40
0.0
 40
0.0
 40
0.0
 40
0.1250000000000003
 40
0.1250000000000003
 40
0.1875000000000004
 40
0.1875000000000004
 40
0.2500000000000005
 40
0.2500000000000005
 40
0.3750000000000006
 40
0.3750000000000006
 40
0.5000000000000007
 40
0.5000000000000007
 40
0.6250000000000007
 40
0.6250000000000007
 40
0.7500000000000008
 40
0.7500000000000008
 40
0.875000000000001
 40
0.875000000000001
 40
0.9375000000000006
 40
0.9375000000000006
 40
1.0
 40
1.0
 40
1.0
 40
1.0
 10
678.4440750516741
 20
1037.259575545693
 30
0.0
 10
678.5902062297245
 20
1037.259575545693
 30
0.0
 10
678.770745062633
 20
1037.313014122879
 30
0.0
 10
679.0884851893265
 20
1037.454587314837
 30
0.0
 10
679.2031398673985
 20
1037.512699987567
 30
0.0
 10
679.44278785321
 20
1037.645221859423
 30
0.0
 10
679.5678085288121
 20
1037.719537552612
 30
0.0
 10
679.9572268217291
 20
1037.963068989127
 30
0.0
 10
680.2368565790068
 20
1038.153355154026
 30
0.0
 10
680.827022505601
 20
1038.574832724448
 30
0.0
 10
681.1312873104577
 20
1038.801496547657
 30
0.0
 10
681.7564711355277
 20
1039.278841933474
 30
0.0
 10
682.0774088441827
 20
1039.529618205715
 30
0.0
 10
682.7356857442223
 20
1040.051421710947
 30
0.0
 10
683.0706366116593
 20
1040.320603733601
 30
0.0
 10
683.7410437496922
 20
1040.863607947939
 30
0.0
 10
684.0782404429644
 20
1041.138832991758
 30
0.0
 10
684.5876032417515
 20
1041.556052063513
 30
0.0
 10
684.7579867145884
 20
1041.695860901159
 30
0.0
 10
685.1000647307006
 20
1041.976801055429
 30
0.0
 10
685.273026605716
 20
1042.118974616101
 30
0.0
 10
685.4440750516741
 20
1042.259575545693
 30
0.0
  0
LINE
  5
1F9
330
1F
100
AcDbEntity
  8
0
  6
Continuous
 62
     7
370
    18
100
AcDbLine
 10
678.4440750778
 20
1037.259574443
 30
0.0
 11
678.0440750588
 21
1037.259574443
 31
0.0
  0
LINE
  5
1FA
330
1F
100
AcDbEntity
  8
0
  6
Continuous
 62
     7
370
    18
100
AcDbLine
 10
685.4440748282
 20
911.2595761417
 30
0.0
 11
678.0440750588
 21
911.2595761417
 31
0.0
  0
LINE
  5
1FB
330
1F
100
AcDbEntity
  8
0
  6
Continuous
 62
     7
370
    18
100
AcDbLine
 10
795.4440723695
 20
1206.2595779299
 30
0.0
 11
795.4440723695
 21
961.2595731615
 31
0.0
  0
ARC
  5
1FC
330
1F
100
AcDbEntity
  8
0
  6
Continuous
 62
     7
370
    18
100
AcDbCircle
 10
745.4440750517
 20
961.2595755457
 30
0.0
 40
50.00000000000011
100
AcDbArc
 50
270.0
 51
0.0
  0
ARC
  5
1FD
330
1F
100
AcDbEntity
  8
0
  6
Continuous
 62
     7
370
    18
100
AcDbCircle
 10
745.4440750517
 20
1206.2595755457
 30
0.0
 40
50.00000000000011
100
AcDbArc
 50
0.0
 51
90.0
  0
LINE
  5
1FE
330
1F
100
AcDbEntity
  8
0
  6
Continuous
 62
     7
370
    18
100
AcDbLine
 10
745.4440753497
 20
911.2595761417
 30
0.0
 11
685.4440748282
 21
911.2595761417
 31
0.0
  0
LINE
  5
1FF
330
1F
100
AcDbEntity
  8
0
  6
Continuous
 62
     7
370
    18
100
AcDbLine
 10
745.4440753497
 20
1256.2595749496
 30
0.0
 11
685.4440748282
 21
1256.2595749496
 31
0.0
  0
LINE
  5
200
330
1F
100
AcDbEntity
  8
0
  6
Continuous
 62
     8
370
    18
100
AcDbLine
 10
685.4440748282
 20
1125.2595739662
 30
0.0
 11
678.0440750588
 21
1125.2595739662
 31
0.0
  0
LINE
  5
201
330
1F
100
AcDbEntity
  8
0
  6
Continuous
 62
     8
370
    18
100
AcDbLine
 10
685.4440748282
 20
1042.2595771252
 30
0.0
 11
678.0440750588
 21
1042.2595771252
 31
0.0
  0
DIMENSION
  5
202
330
1F
100
AcDbEntity
  8
SLD-0
 62
     1
100
AcDbDimension
  2
_D_6
 10
675.4440750517
 20
1306.2595755457
 30
0.0
 11
425.4440750517
 21
1306.2595755457
 31
0.0
 70
   160
  1
<>
 71
     2
 42
-1.0
  3
SLDDIMSTYLE0
100
AcDbAlignedDimension
 13
175.4440750517
 23
1125.2595755457
 33
0.0
 14
675.4440750517
 24
1256.2595755457
 34
0.0
100
AcDbRotatedDimension
  0
DIMENSION
  5
20C
330
1F
100
AcDbEntity
  8
SLD-0
 62
     1
100
AcDbDimension
  2
_D_7
 10
795.4440750517
 20
1306.2595755457
 30
0.0
 11
735.4440750517
 21
1306.2595755457
 31
0.0
 70
   160
  1
<>
 71
     2
 42
-1.0
  3
SLDDIMSTYLE0
100
AcDbAlignedDimension
 13
675.4440750517
 23
1256.2595755457
 33
0.0
 14
795.4440750517
 24
1206.2595755457
 34
0.0
100
AcDbRotatedDimension
  0
DIMENSION
  5
216
330
1F
100
AcDbEntity
  8
SLD-0
 62
     1
100
AcDbDimension
  2
_D_8
 10
175.4440750517
 20
1336.2595755457
 30
0.0
 11
485.4440750517
 21
1336.2595755457
 31
0.0
 70
   160
  1
<>
 71
     2
 42
-1.0
  3
SLDDIMSTYLE0
100
AcDbAlignedDimension
 13
795.4440750517
 23
1206.2595755457
 33
0.0
 14
175.4440750517
 24
1125.2595755457
 34
0.0
100
AcDbRotatedDimension
  0
DIMENSION
  5
220
330
1F
100
AcDbEntity
  8
SLD-0
 62
     1
100
AcDbDimension
  2
_D_9
 10
845.4440750517
 20
911.2595755457
 30
0.0
 11
845.4440750517
 21
1083.7595755457
 31
0.0
 70
   160
  1
<>
 71
     2
 42
-1.0
  3
SLDDIMSTYLE0
100
AcDbAlignedDimension
 13
745.4440750517
 23
1256.2595755457
 33
0.0
 14
745.4440750517
 24
911.2595755457
 34
0.0
 50
90.0
100
AcDbRotatedDimension
  0
DIMENSION
  5
22A
330
1F
100
AcDbEntity
  8
SLD-0
 62
     1
100
AcDbDimension
  2
_D_10
 10
125.4440500517
 20
1034.2595755457
 30
0.0
 11
125.4440500517
 21
1083.7595755457
 31
0.0
 70
   160
  1
<>
 71
     2
 42
-1.0
  3
SLDDIMSTYLE0
100
AcDbAlignedDimension
 13
175.4440750517
 23
1133.2595755457
 33
0.0
 14
175.4440750517
 24
1034.2595755457
 34
0.0
 50
90.0
100
AcDbRotatedDimension
  0
LINE
  5
234
330
1F
100
AcDbEntity
  8
0
  6
Continuous
 62
     7
370
    18
100
AcDbLine
 10
1731.3123841723
 20
404.8271694915
 30
0.0
 11
1731.3123841723
 21
407.4271694986
 31
0.0
  0
LINE
  5
235
330
1F
100
AcDbEntity
  8
0
  6
Continuous
 62
     7
370
    18
100
AcDbLine
 10
1731.3123841723
 20
407.4271694986
 30
0.0
 11
1781.312381192
 21
407.4271694986
 31
0.0
  0
LINE
  5
236
330
1F
100
AcDbEntity
  8
0
  6
Continuous
 62
     7
370
    18
100
AcDbLine
 10
1781.312381192
 20
407.4271694986
 30
0.0
 11
1781.312381192
 21
404.8271694915
 31
0.0
  0
LINE
  5
237
330
1F
100
AcDbEntity
  8
0
  6
Continuous
 62
     7
370
    18
100
AcDbLine
 10
1781.312381192
 20
404.8271694915
 30
0.0
 11
1731.3123841723
 21
404.8271694915
 31
0.0
  0
LINE
  5
238
330
1F
100
AcDbEntity
  8
0
  6
Continuous
 62
     7
370
    18
100
AcDbLine
 10
1486.3123794039
 20
407.4271694986
 30
0.0
 11
1486.3123794039
 21
404.8271694915
 31
0.0
  0
LINE
  5
239
330
1F
100
AcDbEntity
  8
0
  6
Continuous
 62
     7
370
    18
100
AcDbLine
 10
1731.3123841723
 20
407.4271694986
 30
0.0
 11
1486.3123794039
 21
407.4271694986
 31
0.0
  0
LINE
  5
23A
330
1F
100
AcDbEntity
  8
0
  6
Continuous
 62
     7
370
    18
100
AcDbLine
 10
1731.3123841723
 20
404.8271694915
 30
0.0
 11
1486.3123794039
 21
404.8271694915
 31
0.0
  0
LINE
  5
23B
330
1F
100
AcDbEntity
  8
0
  6
Continuous
 62
     7
370
    18
100
AcDbLine
 10
1436.3123823841
 20
404.8271694915
 30
0.0
 11
1436.3123823841
 21
407.4271694986
 31
0.0
  0
LINE
  5
23C
330
1F
100
AcDbEntity
  8
0
  6
Continuous
 62
     7
370
    18
100
AcDbLine
 10
1436.3123823841
 20
407.4271694986
 30
0.0
 11
1486.3123794039
 21
407.4271694986
 31
0.0
  0
LINE
  5
23D
330
1F
100
AcDbEntity
  8
0
  6
Continuous
 62
     7
370
    18
100
AcDbLine
 10
1486.3123794039
 20
404.8271694915
 30
0.0
 11
1436.3123823841
 21
404.8271694915
 31
0.0
  0
LINE
  5
23E
330
1F
100
AcDbEntity
  8
0
  6
Continuous
 62
     7
370
    18
100
AcDbLine
 10
1781.312381192
 20
414.827169268
 30
0.0
 11
1655.3123828908
 21
414.827169268
 31
0.0
  0
SPLINE
  5
23F
330
1F
100
AcDbEntity
  8
0
  6
Continuous
 62
     7
370
    18
100
AcDbSpline
210
0.0
220
0.0
230
1.0
 70
     8
 71
     3
 72
    26
 73
    22
 74
     0
 42
0.000000001
 43
0.00000001
 40
0.0
 40
0.0
 40
0.0
 40
0.0
 40
0.1250000000000012
 40
0.1250000000000012
 40
0.1875000000000016
 40
0.1875000000000016
 40
0.2500000000000019
 40
0.2500000000000019
 40
0.3750000000000017
 40
0.3750000000000017
 40
0.5000000000000014
 40
0.5000000000000014
 40
0.6250000000000012
 40
0.6250000000000012
 40
0.750000000000001
 40
0.750000000000001
 40
0.875000000000001
 40
0.875000000000001
 40
0.9375000000000004
 40
0.9375000000000004
 40
1.0
 40
1.0
 40
1.0
 40
1.0
 10
1655.312381788083
 20
412.4271694915447
 30
0.0
 10
1655.312381788083
 20
412.0009535555643
 30
0.0
 10
1655.258943210897
 20
411.5998571262422
 30
0.0
 10
1655.117370018939
 20
411.0306319817743
 30
0.0
 10
1655.059257346209
 20
410.845185560784
 30
0.0
 10
1654.926735474353
 20
410.4924238287962
 30
0.0
 10
1654.852419781164
 20
410.3247326946813
 30
0.0
 10
1654.608888344649
 20
409.8447726856506
 30
0.0
 10
1654.41860217975
 20
409.554547657692
 30
0.0
 10
1653.997124609328
 20
409.0307489571366
 30
0.0
 10
1653.770460786119
 20
408.8023942196047
 30
0.0
 10
1653.293115400302
 20
408.4006904761126
 30
0.0
 10
1653.042339128061
 20
408.2274844665026
 30
0.0
 10
1652.520535622829
 20
407.9311625932223
 30
0.0
 10
1652.251353600175
 20
407.8094508044549
 30
0.0
 10
1651.708349385837
 20
407.6173657505169
 30
0.0
 10
1651.433124342018
 20
407.5462307861632
 30
0.0
 10
1651.015905270263
 20
407.4749011890902
 30
0.0
 10
1650.876096432617
 20
407.4570487636521
 30
0.0
 10
1650.595156278347
 20
407.4331818225625
 30
0.0
 10
1650.452982717625
 20
407.4271694915446
 30
0.0
 10
1650.312381788083
 20
407.4271694915446
 30
0.0
  0
LINE
  5
240
330
1F
100
AcDbEntity
  8
0
  6
Continuous
 62
     7
370
    18
100
AcDbLine
 10
1655.3123828908
 20
414.827169268
 30
0.0
 11
1655.3123828908
 21
412.4271696197
 31
0.0
  0
LINE
  5
241
330
1F
100
AcDbEntity
  8
0
  6
Continuous
 62
     7
370
    18
100
AcDbLine
 10
1781.312381192
 20
407.4271694986
 30
0.0
 11
1781.312381192
 21
414.827169268
 31
0.0
  0
LINE
  5
242
330
1F
100
AcDbEntity
  8
0
  6
Continuous
 62
     7
370
    18
100
AcDbLine
 10
1562.3123806854
 20
414.827169268
 30
0.0
 11
1436.3123823841
 21
414.827169268
 31
0.0
  0
LINE
  5
243
330
1F
100
AcDbEntity
  8
0
  6
Continuous
 62
     7
370
    18
100
AcDbLine
 10
1562.3123806854
 20
412.4271696197
 30
0.0
 11
1562.3123806854
 21
414.827169268
 31
0.0
  0
SPLINE
  5
244
330
1F
100
AcDbEntity
  8
0
  6
Continuous
 62
     7
370
    18
100
AcDbSpline
210
0.0
220
0.0
230
1.0
 70
     8
 71
     3
 72
    26
 73
    22
 74
     0
 42
0.000000001
 43
0.00000001
 40
0.0
 40
0.0
 40
0.0
 40
0.0
 40
0.1250000000000003
 40
0.1250000000000003
 40
0.1875000000000004
 40
0.1875000000000004
 40
0.2500000000000005
 40
0.2500000000000005
 40
0.3750000000000006
 40
0.3750000000000006
 40
0.5000000000000007
 40
0.5000000000000007
 40
0.6250000000000007
 40
0.6250000000000007
 40
0.7500000000000008
 40
0.7500000000000008
 40
0.875000000000001
 40
0.875000000000001
 40
0.9375000000000006
 40
0.9375000000000006
 40
1.0
 40
1.0
 40
1.0
 40
1.0
 10
1562.312381788083
 20
412.4271694915447
 30
0.0
 10
1562.312381788083
 20
412.0009535555643
 30
0.0
 10
1562.365820365269
 20
411.5998571262422
 30
0.0
 10
1562.507393557227
 20
411.0306319817743
 30
0.0
 10
1562.565506229957
 20
410.845185560784
 30
0.0
 10
1562.698028101813
 20
410.4924238287962
 30
0.0
 10
1562.772343795002
 20
410.3247326946813
 30
0.0
 10
1563.015875231517
 20
409.8447726856506
 30
0.0
 10
1563.206161396416
 20
409.554547657692
 30
0.0
 10
1563.627638966838
 20
409.0307489571366
 30
0.0
 10
1563.854302790047
 20
408.8023942196047
 30
0.0
 10
1564.331648175865
 20
408.4006904761126
 30
0.0
 10
1564.582424448105
 20
408.2274844665026
 30
0.0
 10
1565.104227953337
 20
407.9311625932223
 30
0.0
 10
1565.373409975991
 20
407.8094508044549
 30
0.0
 10
1565.916414190329
 20
407.6173657505169
 30
0.0
 10
1566.191639234148
 20
407.5462307861632
 30
0.0
 10
1566.608858305903
 20
407.4749011890902
 30
0.0
 10
1566.748667143549
 20
407.4570487636521
 30
0.0
 10
1567.029607297819
 20
407.4331818225625
 30
0.0
 10
1567.171780858491
 20
407.4271694915446
 30
0.0
 10
1567.312381788083
 20
407.4271694915446
 30
0.0
  0
LINE
  5
245
330
1F
100
AcDbEntity
  8
0
  6
Continuous
 62
     7
370
    18
100
AcDbLine
 10
1436.3123823841
 20
407.4271694986
 30
0.0
 11
1436.3123823841
 21
414.827169268
 31
0.0
  0
ARC
  5
246
330
1F
100
AcDbEntity
  8
0
  6
Continuous
 62
     7
370
    18
100
AcDbCircle
 10
1486.3123817881
 20
529.8271694915
 30
0.0
 40
50.0
100
AcDbArc
 50
90.0
 51
180.0
  0
LINE
  5
247
330
1F
100
AcDbEntity
  8
0
  6
Continuous
 62
     7
370
    18
100
AcDbLine
 10
1731.3123841723
 20
579.8271665113
 30
0.0
 11
1486.3123794039
 21
579.8271665113
 31
0.0
  0
ARC
  5
248
330
1F
100
AcDbEntity
  8
0
  6
Continuous
 62
     7
370
    18
100
AcDbCircle
 10
1731.3123817881
 20
529.8271694915
 30
0.0
 40
50.0
100
AcDbArc
 50
0.0
 51
90.0
  0
LINE
  5
249
330
1F
100
AcDbEntity
  8
0
  6
Continuous
 62
     7
370
    18
100
AcDbLine
 10
1567.3123833676
 20
500.4271710055
 30
0.0
 11
1650.3123802086
 21
500.4271710055
 31
0.0
  0
ARC
  5
24A
330
1F
100
AcDbEntity
  8
0
  6
Continuous
 62
     7
370
    18
100
AcDbCircle
 10
1567.3123817881
 20
495.4271694915
 30
0.0
 40
5.0
100
AcDbArc
 50
90.0
 51
180.0
  0
ARC
  5
24B
330
1F
100
AcDbEntity
  8
0
  6
Continuous
 62
     7
370
    18
100
AcDbCircle
 10
1650.3123817881
 20
495.4271694915
 30
0.0
 40
5.0
100
AcDbArc
 50
0.0
 51
90.0
  0
LINE
  5
24C
330
1F
100
AcDbEntity
  8
0
  6
Continuous
 62
     7
370
    18
100
AcDbLine
 10
1562.3123806854
 20
414.827169268
 30
0.0
 11
1562.3123806854
 21
495.4271683233
 31
0.0
  0
LINE
  5
24D
330
1F
100
AcDbEntity
  8
0
  6
Continuous
 62
     7
370
    18
100
AcDbLine
 10
1655.3123828908
 20
495.4271683233
 30
0.0
 11
1655.3123828908
 21
414.827169268
 31
0.0
  0
LINE
  5
24E
330
1F
100
AcDbEntity
  8
0
  6
Continuous
 62
     7
370
    18
100
AcDbLine
 10
1436.3123823841
 20
414.827169268
 30
0.0
 11
1436.3123823841
 21
529.8271694915
 31
0.0
  0
LINE
  5
24F
330
1F
100
AcDbEntity
  8
0
  6
Continuous
 62
     7
370
    18
100
AcDbLine
 10
1781.312381192
 20
414.827169268
 30
0.0
 11
1781.312381192
 21
529.8271694915
 31
0.0
  0
LINE
  5
250
330
1F
100
AcDbEntity
  8
0
  6
Continuous
 62
     7
370
    18
100
AcDbLine
 10
1658.3123815199
 20
386.6232795404
 30
0.0
 11
1658.3123815199
 21
404.8271694915
 31
0.0
  0
SPLINE
  5
251
330
1F
100
AcDbEntity
  8
0
  6
Continuous
 62
     7
370
    18
100
AcDbSpline
210
0.0
220
0.0
230
1.0
 70
     8
 71
     3
 72
    18
 73
    14
 74
     0
 42
0.000000001
 43
0.00000001
 40
0.0
 40
0.0
 40
0.0
 40
0.0
 40
0.125
 40
0.125
 40
0.25
 40
0.25
 40
0.5
 40
0.5
 40
0.75
 40
0.75
 40
0.875
 40
0.875
 40
1.0
 40
1.0
 40
1.0
 40
1.0
 10
1650.312381788083
 20
378.6232798500257
 30
0.0
 10
1650.837394235632
 20
378.6232798500257
 30
0.0
 10
1651.360133584442
 20
378.6749012583641
 30
0.0
 10
1652.387842615445
 20
378.8794456306455
 30
0.0
 10
1652.891694302109
 20
379.0324283382308
 30
0.0
 10
1654.342083933822
 20
379.6335002044893
 30
0.0
 10
1655.23053456219
 20
380.2273232088225
 30
0.0
 10
1656.711003234857
 20
381.7085945450959
 30
0.0
 10
1657.303987563428
 20
382.5961789709416
 30
0.0
 10
1657.905352660782
 20
384.0499908012811
 30
0.0
 10
1658.057790432719
 20
384.5540129560086
 30
0.0
 10
1658.261194739508
 20
385.5794440323203
 30
0.0
 10
1658.312381788083
 20
386.0982674024763
 30
0.0
 10
1658.312381788083
 20
386.6232798500258
 30
0.0
  0
LINE
  5
252
330
1F
100
AcDbEntity
  8
0
  6
Continuous
 62
     7
370
    18
100
AcDbLine
 10
1650.3123802086
 20
378.6232800918
 30
0.0
 11
1650.3123802086
 21
404.8271694915
 31
0.0
  0
LINE
  5
253
330
1F
100
AcDbEntity
  8
0
  6
Continuous
 62
     7
370
    18
100
AcDbLine
 10
1567.3123833676
 20
378.6232800918
 30
0.0
 11
1567.3123833676
 21
404.8271694915
 31
0.0
  0
SPLINE
  5
254
330
1F
100
AcDbEntity
  8
0
  6
Continuous
 62
     7
370
    18
100
AcDbSpline
210
0.0
220
0.0
230
1.0
 70
     8
 71
     3
 72
    22
 73
    18
 74
     0
 42
0.000000001
 43
0.00000001
 40
0.0
 40
0.0
 40
0.0
 40
0.0
 40
0.124999999999999
 40
0.124999999999999
 40
0.1874999999999985
 40
0.1874999999999985
 40
0.249999999999998
 40
0.249999999999998
 40
0.4999999999999987
 40
0.4999999999999987
 40
0.624999999999999
 40
0.624999999999999
 40
0.7499999999999993
 40
0.7499999999999993
 40
0.8749999999999997
 40
0.8749999999999997
 40
1.0
 40
1.0
 40
1.0
 40
1.0
 10
1559.312381788083
 20
386.6232798500258
 30
0.0
 10
1559.312381788083
 20
386.0974676394688
 30
0.0
 10
1559.363717001563
 20
385.5803979638741
 30
0.0
 10
1559.514567481878
 20
384.8173699200527
 30
0.0
 10
1559.577249581892
 20
384.5651387572498
 30
0.0
 10
1559.727964403745
 20
384.0649937156795
 30
0.0
 10
1559.816339468112
 20
383.8164930353757
 30
0.0
 10
1560.315845262611
 20
382.6048573213809
 30
0.0
 10
1560.909303870307
 20
381.7141084746797
 30
0.0
 10
1562.020324386694
 20
380.6009073056029
 30
0.0
 10
1562.427447552476
 20
380.2661545460454
 30
0.0
 10
1563.300136569679
 20
379.6822775503495
 30
0.0
 10
1563.764182003274
 20
379.4339574649255
 30
0.0
 10
1564.734979916561
 20
379.0316345960316
 30
0.0
 10
1565.239400931314
 20
378.878792827506
 30
0.0
 10
1566.266839281073
 20
378.674621488985
 30
0.0
 10
1566.786569577526
 20
378.6232798500257
 30
0.0
 10
1567.312381788083
 20
378.6232798500257
 30
0.0
  0
LINE
  5
255
330
1F
100
AcDbEntity
  8
0
  6
Continuous
 62
     7
370
    18
100
AcDbLine
 10
1559.3123820563
 20
386.6232795404
 30
0.0
 11
1559.3123820563
 21
404.8271694915
 31
0.0
  0
SPLINE
  5
256
330
1F
100
AcDbEntity
  8
0
  6
Continuous
 62
     7
370
    18
100
AcDbSpline
210
0.0
220
0.0
230
1.0
 70
     8
 71
     3
 72
    18
 73
    14
 74
     0
 42
0.000000001
 43
0.00000001
 40
0.0
 40
0.0
 40
0.0
 40
0.0
 40
0.1250000000000003
 40
0.1250000000000003
 40
0.2500000000000006
 40
0.2500000000000006
 40
0.5000000000000012
 40
0.5000000000000012
 40
0.7500000000000018
 40
0.7500000000000018
 40
0.8750000000000009
 40
0.8750000000000009
 40
1.0
 40
1.0
 40
1.0
 40
1.0
 10
1655.312381788083
 20
412.8271694915447
 30
0.0
 10
1655.312381788083
 20
412.4990367118262
 30
0.0
 10
1655.280118407872
 20
412.17232461882
 30
0.0
 10
1655.152278175196
 20
411.5300064744434
 30
0.0
 10
1655.056663982955
 20
411.2150991702782
 30
0.0
 10
1654.680994066543
 20
410.308605650458
 30
0.0
 10
1654.309854688835
 20
409.7533240077282
 30
0.0
 10
1653.384060103664
 20
408.8280310873112
 30
0.0
 10
1652.829319837511
 20
408.4574158819541
 30
0.0
 10
1651.920687443549
 20
408.0815626961081
 30
0.0
 10
1651.605673596844
 20
407.9862890886474
 30
0.0
 10
1650.964779174149
 20
407.8591613969038
 30
0.0
 10
1650.640514567802
 20
407.8271694915446
 30
0.0
 10
1650.312381788083
 20
407.8271694915446
 30
0.0
  0
LINE
  5
257
330
1F
100
AcDbEntity
  8
0
  6
Continuous
 62
     7
370
    18
100
AcDbLine
 10
1650.3123802086
 20
407.8271695176
 30
0.0
 11
1567.3123833676
 21
407.8271695176
 31
0.0
  0
SPLINE
  5
258
330
1F
100
AcDbEntity
  8
0
  6
Continuous
 62
     7
370
    18
100
AcDbSpline
210
0.0
220
0.0
230
1.0
 70
     8
 71
     3
 72
    16
 73
    12
 74
     0
 42
0.000000001
 43
0.00000001
 40
0.0
 40
0.0
 40
0.0
 40
0.0
 40
0.114642785886242
 40
0.229284946847349
 40
0.3439273681166689
 40
0.4585693525572859
 40
0.5732117726805446
 40
0.6878541489007117
 40
0.8024964027262873
 40
0.9171386840201973
 40
0.9999999999999999
 40
0.9999999999999999
 40
0.9999999999999999
 40
0.9999999999999999
 10
1567.312383367606
 20
407.8271695176217
 30
0.0
 10
1567.035270995942
 20
407.8405007606542
 30
0.0
 10
1566.48104776317
 20
407.8671631740498
 30
0.0
 10
1565.67263143894
 20
408.0809130046597
 30
0.0
 10
1564.909488110078
 20
408.4156730409835
 30
0.0
 10
1564.21245026402
 20
408.8747418494285
 30
0.0
 10
1563.601550216724
 20
409.442196884972
 30
0.0
 10
1563.090611292296
 20
410.1028785608626
 30
0.0
 10
1562.705029064333
 20
410.8398702282773
 30
0.0
 10
1562.440223723617
 20
411.5543845862096
 30
0.0
 10
1562.400915554476
 20
412.0312569172221
 30
0.0
 10
1562.384424074479
 20
412.231325520769
 30
0.0
  0
SPLINE
  5
259
330
1F
100
AcDbEntity
  8
0
  6
Continuous
 62
     7
370
    18
100
AcDbSpline
210
0.0
220
0.0
230
1.0
 70
     8
 71
     3
 72
    18
 73
    14
 74
     0
 42
0.000000001
 43
0.00000001
 40
0.0
 40
0.0
 40
0.0
 40
0.0
 40
0.1250000000000001
 40
0.1250000000000001
 40
0.2500000000000002
 40
0.2500000000000002
 40
0.5000000000000004
 40
0.5000000000000004
 40
0.7500000000000007
 40
0.7500000000000007
 40
0.8750000000000003
 40
0.8750000000000003
 40
1.0
 40
1.0
 40
1.0
 40
1.0
 10
1650.312381788083
 20
474.6232798500257
 30
0.0
 10
1650.640514567801
 20
474.6232798500258
 30
0.0
 10
1650.967226660808
 20
474.5910164698142
 30
0.0
 10
1651.609544805184
 20
474.4631762371384
 30
0.0
 10
1651.92445210935
 20
474.3675620448976
 30
0.0
 10
1652.83094562917
 20
473.991892128486
 30
0.0
 10
1653.3862272719
 20
473.6207527507777
 30
0.0
 10
1654.311520192316
 20
472.6949581656068
 30
0.0
 10
1654.682135397673
 20
472.1402178994533
 30
0.0
 10
1655.05798858352
 20
471.2315855054911
 30
0.0
 10
1655.15326219098
 20
470.9165716587864
 30
0.0
 10
1655.280389882724
 20
470.2756772360916
 30
0.0
 10
1655.312381788083
 20
469.9514126297444
 30
0.0
 10
1655.312381788083
 20
469.6232798500259
 30
0.0
  0
LINE
  5
25A
330
1F
100
AcDbEntity
  8
0
  6
Continuous
 62
     7
370
    18
100
AcDbLine
 10
1567.3123833676
 20
474.623277201
 30
0.0
 11
1650.3123802086
 21
474.623277201
 31
0.0
  0
LINE
  5
25B
330
1F
100
AcDbEntity
  8
0
  6
Continuous
 62
     7
370
    18
100
AcDbLine
 10
1567.3123833676
 20
378.6232800918
 30
0.0
 11
1650.3123802086
 21
378.6232800918
 31
0.0
  0
SPLINE
  5
25C
330
1F
100
AcDbEntity
  8
0
  6
Continuous
 62
     7
370
    18
100
AcDbSpline
210
0.0
220
0.0
230
1.0
 70
     8
 71
     3
 72
    18
 73
    14
 74
     0
 42
0.000000001
 43
0.00000001
 40
0.0
 40
0.0
 40
0.0
 40
0.0
 40
0.1250000000000024
 40
0.1250000000000024
 40
0.2500000000000048
 40
0.2500000000000048
 40
0.5000000000000047
 40
0.5000000000000047
 40
0.7500000000000046
 40
0.7500000000000046
 40
0.8750000000000022
 40
0.8750000000000022
 40
1.0
 40
1.0
 40
1.0
 40
1.0
 10
1562.312381788083
 20
469.6232798500257
 30
0.0
 10
1562.312381788083
 20
469.9514126297441
 30
0.0
 10
1562.344645168295
 20
470.2781247227504
 30
0.0
 10
1562.47248540097
 20
470.920442867127
 30
0.0
 10
1562.568099593211
 20
471.2353501712922
 30
0.0
 10
1562.943769509623
 20
472.1418436911124
 30
0.0
 10
1563.314908887331
 20
472.6971253338423
 30
0.0
 10
1564.240703472502
 20
473.6224182542592
 30
0.0
 10
1564.795443738655
 20
473.9930334596163
 30
0.0
 10
1565.704076132618
 20
474.3688866454624
 30
0.0
 10
1566.019089979322
 20
474.464160252923
 30
0.0
 10
1566.659984402017
 20
474.5912879446665
 30
0.0
 10
1566.984249008364
 20
474.6232798500257
 30
0.0
 10
1567.312381788083
 20
474.6232798500257
 30
0.0
  0
LINE
  5
25D
330
1F
100
AcDbEntity
  8
0
  6
Continuous
 62
     8
370
    18
100
AcDbLine
 10
1650.3123802086
 20
500.4271710055
 30
0.0
 11
1650.3123802086
 21
474.623277201
 31
0.0
  0
LINE
  5
25E
330
1F
100
AcDbEntity
  8
0
  6
Continuous
 62
     8
370
    18
100
AcDbLine
 10
1567.3123833676
 20
500.4271710055
 30
0.0
 11
1567.3123833676
 21
474.623277201
 31
0.0
  0
DIMENSION
  5
25F
330
1F
100
AcDbEntity
  8
SLD-0
 62
     1
100
AcDbDimension
  2
_D_11
 10
1486.3123817881
 20
529.8271694915
 30
0.0
 11
1386.3123817881
 21
629.8271694915
 31
0.0
 70
   164
  1
<>
 71
     1
 42
-1.0
  3
SLDDIMSTYLE5
100
AcDbRadialDimension
 15
0.0
 25
0.0
 35
0.0
 40
0.0
  0
DIMENSION
  5
266
330
1F
100
AcDbEntity
  8
SLD-0
 62
     1
100
AcDbDimension
  2
_D_12
 10
1650.3123817881
 20
386.62327985
 30
0.0
 11
1708.763351445
 21
328.1723101931
 31
0.0
 70
   164
  1
<>
 71
     1
 42
-1.0
  3
SLDDIMSTYLE5
100
AcDbRadialDimension
 15
0.0
 25
0.0
 35
0.0
 40
0.0
  0
DIMENSION
  5
26C
330
1F
100
AcDbEntity
  8
SLD-0
 62
     1
100
AcDbDimension
  2
_D_13
 10
1831.3123817881
 20
407.4271694915
 30
0.0
 11
1831.3123817881
 21
453.9271694915
 31
0.0
 70
   160
  1
<>
 71
     2
 42
-1.0
  3
SLDDIMSTYLE0
100
AcDbAlignedDimension
 13
1650.3123817881
 23
500.4271694915
 33
0.0
 14
1731.3123817881
 24
407.4271694915
 34
0.0
 50
90.0
100
AcDbRotatedDimension
  0
DIMENSION
  5
276
330
1F
100
AcDbEntity
  8
SLD-0
 62
     1
100
AcDbDimension
  2
_D_14
 10
1655.3123817881
 20
629.8271694915
 30
0.0
 11
1608.8123817881
 21
629.8271694915
 31
0.0
 70
   160
  1
<>
 71
     2
 42
-1.0
  3
SLDDIMSTYLE0
100
AcDbAlignedDimension
 13
1562.3123817881
 23
495.4271694915
 33
0.0
 14
1655.3123817881
 24
495.4271694915
 34
0.0
 50
0.0
100
AcDbRotatedDimension
  0
SOLID
  5
280
330
1F
100
AcDbEntity
  8
SLD-0
 62
     1
100
AcDbTrace
 10
1655.9692360376
 20
380.9664256005
 30
0.0
 11
1661.6260902871
 21
368.9456103204
 31
0.0
 12
1667.9900513177
 22
375.309571351
 32
0.0
 13
1667.9900513177
 23
375.309571351
 33
0.0
  0
LINE
  5
281
330
1F
100
AcDbEntity
  8
SLD-0
 62
     1
100
AcDbLine
 10
1655.9692360376
 20
380.9664256005
 30
0.0
 11
1719.293206415
 21
317.6424552231
 31
0.0
  0
SOLID
  5
282
330
1F
100
AcDbEntity
  8
SLD-0
 62
     1
100
AcDbTrace
 10
1450.9570427288
 20
565.1825085509
 30
0.0
 11
1445.3001884793
 21
577.203323831
 31
0.0
 12
1438.9362274486
 22
570.8393628004
 32
0.0
 13
1438.9362274486
 23
570.8393628004
 33
0.0
  0
LINE
  5
283
330
1F
100
AcDbEntity
  8
SLD-0
 62
     1
100
AcDbLine
 10
1450.9570427288
 20
565.1825085509
 30
0.0
 11
1373.4519693322
 21
642.6875819474
 31
0.0
  0
LINE
  5
284
330
1F
100
AcDbEntity
  8
0
  6
Continuous
 62
     7
370
    18
100
AcDbLine
 10
1178.7351172725
 20
1135.292881828
 30
0.0
 11
1443.5477809538
 21
998.4458686433
 31
0.0
  0
LINE
  5
285
330
1F
100
AcDbEntity
  8
0
  6
Continuous
 62
     7
370
    18
100
AcDbLine
 10
1540.4008331684
 20
1098.3752465694
 30
0.0
 11
1245.2055547985
 21
1250.9230591978
 31
0.0
  0
LINE
  5
286
330
1F
100
AcDbEntity
  8
0
  6
Continuous
 62
     7
370
    18
100
AcDbLine
 10
1678.9807357741
 20
1164.2974351561
 30
0.0
 11
1677.142258138
 21
1165.3587657043
 31
0.0
  0
LINE
  5
287
330
1F
100
AcDbEntity
  8
0
  6
Continuous
 62
     7
370
    18
100
AcDbLine
 10
1751.641754599
 20
991.4144383426
 30
0.0
 11
1751.641754599
 21
993.5374444592
 31
0.0
  0
ARC
  5
288
330
1F
100
AcDbEntity
  8
0
  6
Continuous
 62
     7
370
    18
100
AcDbCircle
 10
1458.89994715
 20
908.4325447875
 30
0.0
 40
15.36804799601877
100
AcDbArc
 50
182.6054789953
 51
237.3945211503
  0
LINE
  5
289
330
1F
100
AcDbEntity
  8
0
  6
Continuous
 62
     7
370
    18
100
AcDbLine
 10
1443.5477862222
 20
1001.6361296813
 30
0.0
 11
1443.5477862222
 21
907.7339361319
 31
0.0
  0
LINE
  5
28A
330
1F
100
AcDbEntity
  8
0
  6
Continuous
 62
     7
370
    18
100
AcDbLine
 10
1445.3862638583
 20
1000.574799133
 30
0.0
 11
1443.5477862222
 21
1001.6361296813
 31
0.0
  0
LINE
  5
28B
330
1F
100
AcDbEntity
  8
0
  6
Continuous
 62
     7
370
    18
100
AcDbLine
 10
1445.3862638583
 20
906.6726055837
 30
0.0
 11
1445.3862638583
 21
1000.574799133
 31
0.0
  0
ARC
  5
28C
330
1F
100
AcDbEntity
  8
0
  6
Continuous
 62
     7
370
    18
100
AcDbCircle
 10
1456.7468630524
 20
907.1895761041
 30
0.0
 40
11.37235562968865
100
AcDbArc
 50
182.605479551
 51
237.3945205946
  0
LINE
  5
28D
330
1F
100
AcDbEntity
  8
0
  6
Continuous
 62
     7
370
    18
100
AcDbLine
 10
1493.045261116
 20
873.1172502768
 30
0.0
 11
1450.618853876
 21
897.6094938444
 31
0.0
  0
LINE
  5
28E
330
1F
100
AcDbEntity
  8
0
  6
Continuous
 62
     7
370
    18
100
AcDbLine
 10
1493.045261116
 20
870.9942441601
 30
0.0
 11
1493.045261116
 21
873.1172502768
 31
0.0
  0
LINE
  5
28F
330
1F
100
AcDbEntity
  8
0
  6
Continuous
 62
     7
370
    18
100
AcDbLine
 10
1450.618853876
 20
895.4864877277
 30
0.0
 11
1493.045261116
 21
870.9942441601
 31
0.0
  0
LWPOLYLINE
  5
290
330
1F
100
AcDbEntity
  8
0
  6
Continuous
 62
     7
370
    18
100
AcDbPolyline
 90
       19
 70
   128
 43
0.0
 10
1480.7416008102
 20
1061.8120388729
 10
1477.6601814953
 20
1059.8778199235
 10
1474.6022169016
 20
1057.6475901138
 10
1471.5909720895
 20
1055.1383451273
 10
1468.6493644078
 20
1052.3691673903
 10
1465.7997949066
 20
1049.3611409159
 10
1463.0639376026
 20
1046.1371566453
 10
1460.4626130391
 20
1042.7217421158
 10
1458.0156302348
 20
1039.1409093832
 10
1455.7416075601
 20
1035.4218934394
 10
1453.6578462963
 20
1031.5929940481
 10
1451.7802041952
 20
1027.6833689102
 10
1450.122979575
 20
1023.7227720761
 10
1448.6987848803
 20
1019.741334944
 10
1447.518451851
 20
1015.769353339
 10
1446.5909683027
 20
1011.8370806736
 10
1445.9233938324
 20
1007.9744237698
 10
1445.5207965987
 20
1004.2107725219
 10
1445.3862638583
 20
1000.574799133
  0
LINE
  5
291
330
1F
100
AcDbEntity
  8
0
  6
Continuous
 62
     7
370
    18
100
AcDbLine
 10
1653.9827655727
 20
1161.8220345176
 30
0.0
 11
1480.7416008102
 21
1061.8120388729
 31
0.0
  0
LWPOLYLINE
  5
292
330
1F
100
AcDbEntity
  8
0
  6
Continuous
 62
     7
370
    18
100
AcDbPolyline
 90
       19
 70
   128
 43
0.0
 10
1689.3381025247
 20
1141.4051979358
 10
1689.2035697842
 20
1144.8858431288
 10
1688.8009725505
 20
1148.1846655049
 10
1688.1333980803
 20
1151.2765573315
 10
1687.2059145319
 20
1154.1379802857
 10
1686.0255815027
 20
1156.7471783827
 10
1684.6013868079
 20
1159.084275321
 10
1682.9441621878
 20
1161.1314813363
 10
1681.0665200866
 20
1162.8732270489
 10
1678.9827588228
 20
1164.2962668952
 10
1676.7087361481
 20
1165.3897521448
 10
1674.2617533438
 20
1166.1453586682
 10
1671.6604287803
 20
1166.5573477864
 10
1668.9245714764
 20
1166.6225784498
 10
1666.0750019751
 20
1166.3405620086
 10
1663.1333942934
 20
1165.7134318087
 10
1660.1221494813
 20
1164.745967539
 10
1657.0641848876
 20
1163.4455465808
 10
1653.9827655727
 20
1161.8220345176
  0
LINE
  5
293
330
1F
100
AcDbEntity
  8
0
  6
Continuous
 62
     7
370
    18
100
AcDbLine
 10
1689.3381025247
 20
1047.5030043865
 30
0.0
 11
1689.3381025247
 21
1141.4051979358
 31
0.0
  0
LINE
  5
294
330
1F
100
AcDbEntity
  8
0
  6
Continuous
 62
     7
370
    18
100
AcDbLine
 10
1689.3381025247
 20
1047.5030043865
 30
0.0
 11
1600.2426492964
 21
996.0692940351
 31
0.0
  0
LINE
  5
295
330
1F
100
AcDbEntity
  8
0
  6
Continuous
 62
     7
370
    18
100
AcDbLine
 10
1600.2426492964
 20
1061.8824827017
 30
0.0
 11
1600.2426492964
 21
996.0692940351
 31
0.0
  0
ARC
  5
296
330
1F
100
AcDbEntity
  8
0
  6
Continuous
 62
     7
370
    18
100
AcDbCircle
 10
1598.0872750818
 20
1062.2321167589
 30
0.0
 40
2.183548025345683
100
AcDbArc
 50
350.7860229164
 51
129.2032253289
  0
LINE
  5
297
330
1F
100
AcDbEntity
  8
0
  6
Continuous
 62
     7
370
    18
100
AcDbLine
 10
1538.0172528891
 20
1030.0432322257
 30
0.0
 11
1596.7071134938
 21
1063.9241675768
 31
0.0
  0
ARC
  5
298
330
1F
100
AcDbEntity
  8
0
  6
Continuous
 62
     7
370
    18
100
AcDbCircle
 10
1542.1578101267
 20
1023.5701952943
 30
0.0
 40
7.684036787537694
100
AcDbArc
 50
122.6055116786
 51
177.3944881757
  0
LINE
  5
299
330
1F
100
AcDbEntity
  8
0
  6
Continuous
 62
     7
370
    18
100
AcDbLine
 10
1534.4817170866
 20
958.1063159351
 30
0.0
 11
1534.4817170866
 21
1023.9195046017
 31
0.0
  0
LINE
  5
29A
330
1F
100
AcDbEntity
  8
0
  6
Continuous
 62
     7
370
    18
100
AcDbLine
 10
1534.4817170866
 20
958.1063159351
 30
0.0
 11
1445.3862638583
 21
906.6726055837
 31
0.0
  0
LWPOLYLINE
  5
29B
330
1F
100
AcDbEntity
  8
0
  6
Continuous
 62
     7
370
    18
100
AcDbPolyline
 90
       19
 70
   128
 43
0.0
 10
1443.5477862222
 20
1001.6361296813
 10
1443.6823189626
 20
1005.2721030701
 10
1444.0849161963
 20
1009.035754318
 10
1444.7524906666
 20
1012.8984112218
 10
1445.6799742149
 20
1016.8306838873
 10
1446.8603072442
 20
1020.8026654922
 10
1448.2845019389
 20
1024.7841026243
 10
1449.9417265591
 20
1028.7446994584
 10
1451.8193686602
 20
1032.6543245963
 10
1453.903129924
 20
1036.4832239877
 10
1456.1771525987
 20
1040.2022399315
 10
1458.624135403
 20
1043.783072664
 10
1461.2254599665
 20
1047.1984871936
 10
1463.9613172705
 20
1050.4224714642
 10
1466.8108867717
 20
1053.4304979386
 10
1469.7524944534
 20
1056.1996756755
 10
1472.7637392655
 20
1058.708920662
 10
1475.8217038592
 20
1060.9391504717
 10
1478.9031231742
 20
1062.8733694211
  0
LINE
  5
29C
330
1F
100
AcDbEntity
  8
0
  6
Continuous
 62
     7
370
    18
100
AcDbLine
 10
1478.9031231742
 20
1062.8733694211
 30
0.0
 11
1480.7416008102
 21
1061.8120388729
 31
0.0
  0
LINE
  5
29D
330
1F
100
AcDbEntity
  8
0
  6
Continuous
 62
     7
370
    18
100
AcDbLine
 10
1653.9827655727
 20
1161.8220345176
 30
0.0
 11
1652.1442879366
 21
1162.8833650659
 31
0.0
  0
LINE
  5
29E
330
1F
100
AcDbEntity
  8
0
  6
Continuous
 62
     7
370
    18
100
AcDbLine
 10
1652.1442879366
 20
1162.8833650659
 30
0.0
 11
1478.9031231742
 21
1062.8733694211
 31
0.0
  0
LWPOLYLINE
  5
29F
330
1F
100
AcDbEntity
  8
0
  6
Continuous
 62
     7
370
    18
100
AcDbPolyline
 90
       19
 70
   128
 43
0.0
 10
1493.045261116
 20
873.1172502768
 10
1496.2612131713
 20
871.4160488685
 10
1499.7217802671
 20
869.8831348791
 10
1503.4005995495
 20
868.5301627896
 10
1507.2696855111
 20
867.3674367181
 10
1511.29959331
 20
866.4038039729
 10
1515.4596453087
 20
865.6465972662
 10
1519.718189224
 20
865.1015830113
 10
1524.0428193978
 20
864.7729065781
 10
1528.4006033363
 20
864.6630710035
 10
1532.7583872748
 20
864.7729065781
 10
1537.0830069119
 20
865.1015830113
 10
1541.3415560955
 20
865.6466003076
 10
1545.5016133626
 20
866.4038039729
 10
1549.5315106248
 20
867.3674367181
 10
1553.4006018548
 20
868.5301658309
 10
1557.0794264055
 20
869.8831348791
 10
1560.5399776962
 20
871.4160519098
 10
1563.7559350199
 20
873.1172502768
  0
LINE
  5
2A0
330
1F
100
AcDbEntity
  8
0
  6
Continuous
 62
     7
370
    18
100
AcDbLine
 10
1563.7559350199
 20
873.1172502768
 30
0.0
 11
1563.7559350199
 21
870.9942441601
 31
0.0
  0
LWPOLYLINE
  5
2A1
330
1F
100
AcDbEntity
  8
0
  6
Continuous
 62
     7
370
    18
100
AcDbPolyline
 90
       19
 70
   128
 43
0.0
 10
1563.7559350199
 20
870.9942441601
 10
1560.5399776962
 20
869.2930457932
 10
1557.0794264055
 20
867.7601287624
 10
1553.4006018548
 20
866.4071597142
 10
1549.5315106248
 20
865.2444306014
 10
1545.5016133626
 20
864.2807978562
 10
1541.3415560955
 20
863.5235941909
 10
1537.0830069119
 20
862.9785768946
 10
1532.7583872748
 20
862.6499004614
 10
1528.4006033363
 20
862.5400648868
 10
1524.0428193978
 20
862.6499004614
 10
1519.718189224
 20
862.9785768946
 10
1515.4596453087
 20
863.5235911495
 10
1511.29959331
 20
864.2807978562
 10
1507.2696855111
 20
865.2444306014
 10
1503.4005995495
 20
866.4071566729
 10
1499.7217802671
 20
867.7601287624
 10
1496.2612131713
 20
869.2930427518
 10
1493.045261116
 20
870.9942441601
  0
LINE
  5
2A2
330
1F
100
AcDbEntity
  8
0
  6
Continuous
 62
     7
370
    18
100
AcDbLine
 10
1543.2498429068
 20
951.0842255702
 30
0.0
 11
1450.618853876
 21
897.6094938444
 31
0.0
  0
LINE
  5
2A3
330
1F
100
AcDbEntity
  8
0
  6
Continuous
 62
     7
370
    18
100
AcDbLine
 10
1543.2498429068
 20
951.0842255702
 30
0.0
 11
1536.178775253
 21
955.1662660381
 31
0.0
  0
LINE
  5
2A4
330
1F
100
AcDbEntity
  8
0
  6
Continuous
 62
     7
370
    18
100
AcDbLine
 10
1536.178775253
 20
955.1662660381
 30
0.0
 11
1594.8686358577
 21
989.0472013892
 31
0.0
  0
LINE
  5
2A5
330
1F
100
AcDbEntity
  8
0
  6
Continuous
 62
     7
370
    18
100
AcDbLine
 10
1601.9397035115
 20
984.9651609213
 30
0.0
 11
1594.8686358577
 21
989.0472013892
 31
0.0
  0
LINE
  5
2A6
330
1F
100
AcDbEntity
  8
0
  6
Continuous
 62
     7
370
    18
100
AcDbLine
 10
1694.5706925424
 20
1038.4398926472
 30
0.0
 11
1601.9397035115
 21
984.9651609213
 31
0.0
  0
LINE
  5
2A7
330
1F
100
AcDbEntity
  8
0
  6
Continuous
 62
     7
370
    18
100
AcDbLine
 10
1736.9970997824
 20
1013.9476490796
 30
0.0
 11
1694.5706925424
 21
1038.4398926472
 31
0.0
  0
LWPOLYLINE
  5
2A8
330
1F
100
AcDbEntity
  8
0
  6
Continuous
 62
     7
370
    18
100
AcDbPolyline
 90
       19
 70
   128
 43
0.0
 10
1736.9970997824
 20
973.1272459216
 10
1739.9439810885
 20
974.9837785671
 10
1742.5993589852
 20
976.9815123043
 10
1744.9430240587
 20
979.1052525124
 10
1746.9571481921
 20
981.3388313364
 10
1748.6263899324
 20
983.6652415068
 10
1749.9380472733
 20
986.0667914486
 10
1750.8821472166
 20
988.5251995637
 10
1751.4514931881
 20
991.0217493396
 10
1751.641754599
 20
993.5374444592
 10
1751.4514931881
 20
996.0531395789
 10
1750.8821472166
 20
998.5496954375
 10
1749.9380525416
 20
1001.0081005112
 10
1748.6263899324
 20
1003.4096474117
 10
1746.9571481921
 20
1005.7360636648
 10
1744.9430293271
 20
1007.9696394475
 10
1742.5993589852
 20
1010.0933766142
 10
1739.9439863568
 20
1012.0911194754
 10
1736.9970997824
 20
1013.9476490796
  0
LINE
  5
2A9
330
1F
100
AcDbEntity
  8
0
  6
Continuous
 62
     7
370
    18
100
AcDbLine
 10
1736.9970997824
 20
973.1272459216
 30
0.0
 11
1563.7559350199
 21
873.1172502768
 31
0.0
  0
LINE
  5
2AA
330
1F
100
AcDbEntity
  8
0
  6
Continuous
 62
     7
370
    18
100
AcDbLine
 10
1736.9970997824
 20
971.0042398049
 30
0.0
 11
1736.9970997824
 21
973.1272459216
 31
0.0
  0
LINE
  5
2AB
330
1F
100
AcDbEntity
  8
0
  6
Continuous
 62
     7
370
    18
100
AcDbLine
 10
1736.9970997824
 20
971.0042398049
 30
0.0
 11
1563.7559350199
 21
870.9942441601
 31
0.0
  0
ARC
  5
2AC
330
1F
100
AcDbEntity
  8
0
  6
Continuous
 62
     7
370
    18
100
AcDbCircle
 10
1543.1838719514
 20
958.1853655349
 30
0.0
 40
8.702513897177624
100
AcDbArc
 50
180.5204554433
 51
194.6571011066
  0
SPLINE
  5
2AD
330
1F
100
AcDbEntity
  8
0
  6
Continuous
 62
     7
370
    18
100
AcDbSpline
210
0.0
220
0.0
230
1.0
 70
     8
 71
     3
 72
    26
 73
    22
 74
     0
 42
0.000000001
 43
0.00000001
 40
0.0
 40
0.0
 40
0.0
 40
0.0
 40
0.1250000000000003
 40
0.1250000000000003
 40
0.1875000000000004
 40
0.1875000000000004
 40
0.2500000000000005
 40
0.2500000000000005
 40
0.3750000000000006
 40
0.3750000000000006
 40
0.5000000000000007
 40
0.5000000000000007
 40
0.6250000000000007
 40
0.6250000000000007
 40
0.7500000000000008
 40
0.7500000000000008
 40
0.875000000000001
 40
0.875000000000001
 40
0.9375000000000006
 40
0.9375000000000006
 40
1.0
 40
1.0
 40
1.0
 40
1.0
 10
1534.764560573764
 20
955.9833369997065
 30
0.0
 10
1534.867890920706
 20
955.575662953727
 30
0.0
 10
1535.033337934028
 20
955.1962685097906
 30
0.0
 10
1535.358121496336
 20
954.6595608909043
 30
0.0
 10
1535.480286461656
 20
954.4850556438378
 30
0.0
 10
1535.743450291766
 20
954.1532819785875
 30
0.0
 10
1535.884402389875
 20
953.9956573443153
 30
0.0
 10
1536.331965435706
 20
953.5441988023814
 30
0.0
 10
1536.664246170865
 20
953.2707478056439
 30
0.0
 10
1537.379586147748
 20
952.7741855182529
 30
0.0
 10
1537.75500938098
 20
952.5560475200197
 30
0.0
 10
1538.534615262455
 20
952.1676917686485
 30
0.0
 10
1538.938878095244
 20
951.997621810025
 30
0.0
 10
1539.773320952158
 20
951.6999539137529
 30
0.0
 10
1540.200507415479
 20
951.5737241617437
 30
0.0
 10
1541.058518811109
 20
951.3648724856627
 30
0.0
 10
1541.491566374352
 20
951.2814908054575
 30
0.0
 10
1542.146758698338
 20
951.1856338352509
 30
0.0
 10
1542.366097784551
 20
951.1585759111964
 30
0.0
 10
1542.806638157631
 20
951.1141308565682
 30
0.0
 10
1543.029472561198
 20
951.0966536281278
 30
0.0
 10
1543.249841948002
 20
951.0842248284549
 30
0.0
  0
SPLINE
  5
2AE
330
1F
100
AcDbEntity
  8
0
  6
Continuous
 62
     7
370
    18
100
AcDbSpline
210
0.0
220
0.0
230
1.0
 70
     8
 71
     3
 72
    18
 73
    14
 74
     0
 42
0.000000001
 43
0.00000001
 40
0.0
 40
0.0
 40
0.0
 40
0.0
 40
0.1249999999999999
 40
0.1249999999999999
 40
0.2499999999999998
 40
0.2499999999999998
 40
0.5000000000000009
 40
0.5000000000000009
 40
0.750000000000002
 40
0.750000000000002
 40
0.875000000000001
 40
0.875000000000001
 40
1.0
 40
1.0
 40
1.0
 40
1.0
 10
1182.625383542864
 20
1216.586282286582
 30
0.0
 10
1182.254143680994
 20
1216.371970076088
 30
0.0
 10
1181.884511142657
 20
1216.116434767044
 30
0.0
 10
1181.157811117749
 20
1215.529900944483
 30
0.0
 10
1180.801534173396
 20
1215.199310018153
 30
0.0
 10
1179.77595382945
 20
1214.11645537816
 30
0.0
 10
1179.147724365381
 20
1213.268905510108
 30
0.0
 10
1178.100874927604
 20
1211.455053693732
 30
0.0
 10
1177.681571687734
 20
1210.48824617802
 30
0.0
 10
1177.256342349426
 20
1209.055669813922
 30
0.0
 10
1177.148552567181
 20
1208.581889437714
 30
0.0
 10
1177.004724002527
 20
1207.661552651108
 30
0.0
 10
1176.968529293371
 20
1207.217017434377
 30
0.0
 10
1176.968529293371
 20
1206.788323344205
 30
0.0
  0
LINE
  5
2AF
330
1F
100
AcDbEntity
  8
0
  6
Continuous
 62
     7
370
    18
100
AcDbLine
 10
1176.968529483
 20
1139.0154358144
 30
0.0
 11
1176.968529483
 21
1206.7883251842
 31
0.0
  0
LINE
  5
2B0
330
1F
100
AcDbEntity
  8
0
  6
Continuous
 62
     7
370
    18
100
AcDbLine
 10
1241.3152452645
 20
1250.4672210837
 30
0.0
 11
1182.6253846598
 21
1216.5862857326
 31
0.0
  0
LWPOLYLINE
  5
2B1
330
1F
100
AcDbEntity
  8
0
  6
Continuous
 62
     7
370
    18
100
AcDbPolyline
 90
        3
 70
   128
 43
0.0
 10
1535.2607615747
 20
954.7763371874
 10
1535.4890262721
 20
954.846530448
 10
1536.178775253
 20
955.1662660381
  0
SPLINE
  5
2B2
330
1F
100
AcDbEntity
  8
0
  6
Continuous
 62
     7
370
    18
100
AcDbSpline
210
0.0
220
0.0
230
1.0
 70
     8
 71
     3
 72
    11
 73
     7
 74
     0
 42
0.000000001
 43
0.00000001
 40
0.0
 40
0.0
 40
0.0
 40
0.0
 40
0.4143929575607795
 40
0.6193564468504829
 40
0.8243199117958718
 40
1.0
 40
1.0
 40
1.0
 40
1.0
 10
1176.968529483032
 20
1139.015435814383
 30
0.0
 10
1177.028115959211
 20
1138.314019147103
 30
0.0
 10
1177.117174587003
 20
1137.265673785817
 30
0.0
 10
1177.652309033281
 20
1136.245312455055
 30
0.0
 10
1178.138837295352
 20
1135.651946308563
 30
0.0
 10
1178.551363162825
 20
1135.414328144205
 30
0.0
 10
1178.741758035363
 20
1135.304659190855
 30
0.0
  0
LINE
  5
2B3
330
1F
100
AcDbEntity
  8
0
  6
Continuous
 62
     7
370
    18
100
AcDbLine
 10
1600.2426492964
 20
1061.8824827017
 30
0.0
 11
1598.4041716603
 21
1062.9438132499
 31
0.0
  0
ARC
  5
2B4
330
1F
100
AcDbEntity
  8
0
  6
Continuous
 62
     7
370
    18
100
AcDbCircle
 10
1595.1922490877
 20
1063.0570861484
 30
0.0
 40
3.213919314771208
100
AcDbArc
 50
357.9802220394
 51
24.6803568635
  0
SPLINE
  5
2B5
330
1F
100
AcDbEntity
  8
0
  6
Continuous
 62
     7
370
    18
100
AcDbSpline
210
0.0
220
0.0
230
1.0
 70
     8
 71
     3
 72
    12
 73
     8
 74
     0
 42
0.000000001
 43
0.00000001
 40
0.0
 40
0.0
 40
0.0
 40
0.0
 40
0.0249642664179415
 40
0.2442919668393192
 40
0.4636199977380657
 40
0.682947757658908
 40
1.0
 40
1.0
 40
1.0
 40
1.0
 10
1245.200075708208
 20
1250.913362344513
 30
0.0
 10
1245.176016377978
 20
1250.929863170049
 30
0.0
 10
1244.940579814196
 20
1251.091334733337
 30
0.0
 10
1244.390159000918
 20
1251.216427736194
 30
0.0
 10
1243.566272419277
 20
1251.260545013459
 30
0.0
 10
1242.536425673066
 20
1251.075236796105
 30
0.0
 10
1241.768916881976
 20
1250.693100462181
 30
0.0
 10
1241.315245264456
 20
1250.467221083682
 30
0.0
  0
LWPOLYLINE
  5
2B6
330
1F
100
AcDbEntity
  8
0
  6
Continuous
 62
     7
370
    18
100
AcDbPolyline
 90
       10
 70
   128
 43
0.0
 10
1652.1442879366
 20
1162.8833650659
 10
1655.2257072515
 20
1164.506877129
 10
1658.2836718452
 20
1165.8072980872
 10
1661.2949166574
 20
1166.774762357
 10
1664.236524339
 20
1167.4018925568
 10
1667.0860938403
 20
1167.6839089981
 10
1669.8219511442
 20
1167.6186783346
 10
1672.4232757078
 20
1167.2066892164
 10
1674.870258512
 20
1166.451082693
 10
1677.142258138
 20
1165.3587657043
  0
LINE
  5
2B7
330
1F
100
AcDbEntity
  8
0
  6
Continuous
 62
     7
370
    18
100
AcDbLine
 10
1594.8686358577
 20
989.3738177295
 30
0.0
 11
1536.178775253
 21
955.4928823784
 31
0.0
  0
SPLINE
  5
2B8
330
1F
100
AcDbEntity
  8
0
  6
Continuous
 62
     7
370
    18
100
AcDbSpline
210
0.0
220
0.0
230
1.0
 70
     8
 71
     3
 72
    18
 73
    14
 74
     0
 42
0.000000001
 43
0.00000001
 40
0.0
 40
0.0
 40
0.0
 40
0.0
 40
0.1250000000000003
 40
0.1250000000000003
 40
0.2500000000000006
 40
0.2500000000000006
 40
0.5000000000000012
 40
0.5000000000000012
 40
0.7500000000000018
 40
0.7500000000000018
 40
0.8750000000000009
 40
0.8750000000000009
 40
1.0
 40
1.0
 40
1.0
 40
1.0
 10
1598.404170880553
 20
995.4975426919507
 30
0.0
 10
1598.404170880553
 20
995.229608885593
 30
0.0
 10
1598.381357225622
 20
994.9496650852572
 30
0.0
 10
1598.290960530188
 20
994.3730012046719
 30
0.0
 10
1598.223351086477
 20
994.0768364377849
 30
0.0
 10
1597.957712341094
 20
993.1832974995785
 30
0.0
 10
1597.695277170352
 20
992.5783867769097
 30
0.0
 10
1597.040641541191
 20
991.444934239833
 30
0.0
 10
1596.648380937197
 20
990.9158645725322
 30
0.0
 10
1596.005880809821
 20
990.2380576784637
 30
0.0
 10
1595.783132382648
 20
990.0316729597836
 30
0.0
 10
1595.329951590336
 20
989.6662523083991
 30
0.0
 10
1595.100661888289
 20
989.5077634845237
 30
0.0
 10
1594.86863697462
 20
989.3738183529651
 30
0.0
  0
LINE
  5
2B9
330
1F
100
AcDbEntity
  8
0
  6
Continuous
 62
     7
370
    18
100
AcDbLine
 10
1598.4041716603
 20
995.170926922
 30
0.0
 11
1598.4041716603
 21
995.4975434523
 31
0.0
  0
ARC
  5
2BA
330
1F
100
AcDbEntity
  8
0
  6
Continuous
 62
     7
370
    18
100
AcDbCircle
 10
1590.728089255
 20
995.5202322999
 30
0.0
 40
7.68402598509975
100
AcDbArc
 50
302.6054690687
 51
357.3945138405
  0
SPLINE
  5
2BB
330
1F
100
AcDbEntity
  8
0
  6
Continuous
 62
     7
370
    18
100
AcDbSpline
210
0.0
220
0.0
230
1.0
 70
     8
 71
     3
 72
     9
 73
     5
 74
     0
 42
0.000000001
 43
0.00000001
 40
0.0
 40
0.0
 40
0.0
 40
0.0
 40
0.5487075715632823
 40
1.0
 40
1.0
 40
1.0
 40
1.0
 10
1536.178775253028
 20
955.4928823783835
 30
0.0
 10
1535.982251586998
 20
955.3880432628196
 30
0.0
 10
1535.624094207339
 20
955.1969777098781
 30
0.0
 10
1535.280643420549
 20
955.1155991353418
 30
0.0
 10
1535.12564668093
 20
955.0788736008166
 30
0.0
  0
ARC
  5
2BC
330
1F
100
AcDbEntity
  8
0
  6
Continuous
 62
     7
370
    18
100
AcDbCircle
 10
1608.9448041612
 20
996.1483436349
 30
0.0
 40
8.702513897174713
100
AcDbArc
 50
180.5204554433
 51
194.6571011066
  0
LINE
  5
2BD
330
1F
100
AcDbEntity
  8
0
  6
Continuous
 62
     7
370
    18
100
AcDbLine
 10
1600.5254920223
 20
993.9463147436
 30
0.0
 11
1598.4041716603
 21
995.170926922
 31
0.0
  0
LWPOLYLINE
  5
2BE
330
1F
100
AcDbEntity
  8
0
  6
Continuous
 62
     7
370
    18
100
AcDbPolyline
 90
       10
 70
   128
 43
0.0
 10
1751.641754599
 20
991.4144383426
 10
1751.4514931881
 20
988.8987432229
 10
1750.8821472166
 20
986.402193447
 10
1749.9380472733
 20
983.943785332
 10
1748.6263899324
 20
981.5422353901
 10
1746.9571481921
 20
979.2158252197
 10
1744.9430240587
 20
976.9822463957
 10
1742.5993589852
 20
974.8585061876
 10
1739.9439810885
 20
972.8607724505
 10
1736.9970997824
 20
971.0042398049
  0
SPLINE
  5
2BF
330
1F
100
AcDbEntity
  8
0
  6
Continuous
 62
     7
370
    18
100
AcDbSpline
210
0.0
220
0.0
230
1.0
 70
     8
 71
     3
 72
    26
 73
    22
 74
     0
 42
0.000000001
 43
0.00000001
 40
0.0
 40
0.0
 40
0.0
 40
0.0
 40
0.1250000000000012
 40
0.1250000000000012
 40
0.1875000000000016
 40
0.1875000000000016
 40
0.2500000000000019
 40
0.2500000000000019
 40
0.3750000000000017
 40
0.3750000000000017
 40
0.5000000000000014
 40
0.5000000000000014
 40
0.6250000000000012
 40
0.6250000000000012
 40
0.750000000000001
 40
0.750000000000001
 40
0.875000000000001
 40
0.875000000000001
 40
0.9375000000000004
 40
0.9375000000000004
 40
1.0
 40
1.0
 40
1.0
 40
1.0
 10
1600.525491224113
 20
993.9463141994622
 30
0.0
 10
1600.628821571055
 20
993.5386401534829
 30
0.0
 10
1600.718695023767
 20
993.1156180216477
 30
0.0
 10
1600.84326385794
 20
992.4633289004305
 30
0.0
 10
1600.883245093338
 20
992.2413799959473
 30
0.0
 10
1600.958994694958
 20
991.8014143995199
 30
0.0
 10
1600.994848531863
 20
991.5831178304926
 30
0.0
 10
1601.09800611731
 20
990.9328382483037
 30
0.0
 10
1601.161181577337
 20
990.504036082975
 30
0.0
 10
1601.280462257894
 20
989.6633760881406
 30
0.0
 10
1601.335334438243
 20
989.2601879059823
 30
0.0
 10
1601.439872001159
 20
988.4821235094887
 30
0.0
 10
1601.489483628626
 20
988.1073177679557
 30
0.0
 10
1601.585984891545
 20
987.3836452572342
 30
0.0
 10
1601.632490487682
 20
987.0376531183733
 30
0.0
 10
1601.72257795897
 20
986.3854883969532
 30
0.0
 10
1601.76639853254
 20
986.0774107583975
 30
0.0
 10
1601.831553986768
 20
985.6409327536027
 30
0.0
 10
1601.853173518644
 20
985.4997337603899
 30
0.0
 10
1601.896404515339
 20
985.2259268848787
 30
0.0
 10
1601.918175141128
 20
985.0923780082155
 30
0.0
 10
1601.939704786486
 20
984.9651614690972
 30
0.0
  0
ARC
  5
2C0
330
1F
100
AcDbEntity
  8
0
  6
Continuous
 62
     7
370
    18
100
AcDbCircle
 10
1700.6987017188
 20
1048.0199749069
 30
0.0
 40
11.37235562969051
100
AcDbArc
 50
182.605479551
 51
237.3945205946
  0
LINE
  5
2C1
330
1F
100
AcDbEntity
  8
0
  6
Continuous
 62
     8
370
    18
100
AcDbLine
 10
1176.968529483
 20
1206.7883251842
 30
0.0
 11
1469.247720088
 21
1055.7474581294
 31
0.0
  0
LINE
  5
2C2
330
1F
100
AcDbEntity
  8
0
  6
Continuous
 62
     8
370
    18
100
AcDbLine
 10
1182.6253846598
 20
1216.5862857326
 30
0.0
 11
1479.4567668104
 21
1063.1929827643
 31
0.0
  0
LINE
  5
2C3
330
1F
100
AcDbEntity
  8
0
  6
Continuous
 62
     8
370
    18
100
AcDbLine
 10
1176.968529483
 20
1139.0154358144
 30
0.0
 11
1443.547783588
 21
1001.2555035477
 31
0.0
  0
LINE
  5
2C4
330
1F
100
AcDbEntity
  8
0
  6
Continuous
 62
     8
370
    18
100
AcDbLine
 10
1241.3152452645
 20
1250.4672210837
 30
0.0
 11
1538.1466274151
 21
1097.0739181154
 31
0.0
  0
LINE
  5
2C5
330
1F
100
AcDbEntity
  8
0
  6
Continuous
 62
     8
370
    18
100
AcDbLine
 10
1536.178775253
 20
955.4928823784
 30
0.0
 11
1534.6990397377
 21
956.2575639688
 31
0.0
  0
LINE
  5
2C6
330
1F
100
AcDbEntity
  8
0
  6
Continuous
 62
     8
370
    18
100
AcDbLine
 10
1598.3918862848
 20
1063.2767790043
 30
0.0
 11
1596.9178037785
 21
1064.0385372991
 31
0.0
  0
LINE
  5
2C7
330
1F
100
AcDbEntity
  8
0
  6
Continuous
 62
     8
370
    18
100
AcDbLine
 10
1598.4041716603
 20
995.4975434523
 30
0.0
 11
1535.7944960934
 21
1027.8522914438
 31
0.0
  0
LINE
  5
2C8
330
1F
100
AcDbEntity
  8
0
  6
Continuous
 62
     8
370
    18
100
AcDbLine
 10
1594.8686358577
 20
989.3738177295
 30
0.0
 11
1534.4817165927
 21
1020.5799141968
 31
0.0
  0
MTEXT
  5
2C9
330
1F
100
AcDbEntity
  8
SLD-0
 62
     1
100
AcDbMText
 10
1363.9364169224
 20
795.7340245927
 30
0.0
 40
10.5833333333
 41
0.0
 71
     1
 72
     1
  1
ISOMETRIC VIEW
  7
SLDTEXTSTYLE3
 73
     1
 44
1.0
  0
ENDSEC
  0
SECTION
  2
OBJECTS
  0
DICTIONARY
  5
C
330
0
100
AcDbDictionary
281
     1
  3
ACAD_GROUP
350
D
  3
ACAD_LAYOUT
350
1A
  3
ACAD_MLINESTYLE
350
17
  3
ACAD_PLOTSETTINGS
350
19
  3
ACAD_PLOTSTYLENAME
350
E
  3
ACAD_SCALELIST
350
47
  0
DICTIONARY
  5
D
102
{ACAD_REACTORS
330
C
102
}
330
C
100
AcDbDictionary
281
     1
  0
DICTIONARY
  5
1A
102
{ACAD_REACTORS
330
C
102
}
330
C
100
AcDbDictionary
281
     1
  3
Layout1
350
1E
  3
Layout2
350
26
  3
Model
350
22
  0
DICTIONARY
  5
17
102
{ACAD_REACTORS
330
C
102
}
330
C
100
AcDbDictionary
281
     1
  3
Standard
350
18
  0
DICTIONARY
  5
19
102
{ACAD_REACTORS
330
C
102
}
330
C
100
AcDbDictionary
281
     1
  0
ACDBDICTIONARYWDFLT
  5
E
102
{ACAD_REACTORS
330
C
102
}
330
C
100
AcDbDictionary
281
     1
  3
Normal
350
F
100
AcDbDictionaryWithDefault
340
F
  0
DICTIONARY
  5
47
102
{ACAD_REACTORS
330
C
102
}
330
C
100
AcDbDictionary
281
     1
  3
A0
350
48
  3
A1
350
49
  3
A2
350
4A
  3
A3
350
4B
  3
A4
350
4C
  3
A5
350
4D
  3
A6
350
4E
  3
A7
350
4F
  3
A8
350
50
  3
A9
350
51
  3
B0
350
52
  3
B1
350
53
  3
B2
350
54
  3
B3
350
55
  3
B4
350
56
  3
B5
350
57
  3
B6
350
58
  3
B7
350
59
  3
B8
350
5A
  3
B9
350
5B
  3
C0
350
5C
  3
C1
350
5D
  3
C2
350
5E
  3
C3
350
5F
  3
C4
350
60
  3
C5
350
61
  3
C6
350
62
  3
C7
350
63
  3
C8
350
64
  3
C9
350
65
  3
D0
350
66
  3
D1
350
67
  3
D2
350
68
  0
LAYOUT
  5
1E
102
{ACAD_REACTORS
330
1A
102
}
330
1A
100
AcDbPlotSettings
  1

  2
none_device
  4

  6

 40
0.0
 41
0.0
 42
0.0
 43
0.0
 44
0.0
 45
0.0
 46
0.0
 47
0.0
 48
0.0
 49
0.0
140
0.0
141
0.0
142
1.0
143
1.0
 70
   688
 72
     1
 73
     0
 74
     5
  7

 75
    16
147
1.0
148
0.0
149
0.0
100
AcDbLayout
  1
Layout1
 70
     1
 71
     1
 10
0.0
 20
0.0
 11
420.0
 21
297.0
 12
0.0
 22
0.0
 32
0.0
 14
1.0000000000E+20
 24
1.0000000000E+20
 34
1.0000000000E+20
 15
-1.0000000000E+20
 25
-1.0000000000E+20
 35
-1.0000000000E+20
146
0.0
 13
0.0
 23
0.0
 33
0.0
 16
1.0
 26
0.0
 36
0.0
 17
0.0
 27
1.0
 37
0.0
 76
     0
330
1B
  0
LAYOUT
  5
26
102
{ACAD_REACTORS
330
1A
102
}
330
1A
100
AcDbPlotSettings
  1

  2
none_device
  4

  6

 40
0.0
 41
0.0
 42
0.0
 43
0.0
 44
0.0
 45
0.0
 46
0.0
 47
0.0
 48
0.0
 49
0.0
140
0.0
141
0.0
142
1.0
143
1.0
 70
   688
 72
     1
 73
     0
 74
     5
  7

 75
    16
147
1.0
148
0.0
149
0.0
100
AcDbLayout
  1
Layout2
 70
     1
 71
     2
 10
0.0
 20
0.0
 11
0.0
 21
0.0
 12
0.0
 22
0.0
 32
0.0
 14
0.0
 24
0.0
 34
0.0
 15
0.0
 25
0.0
 35
0.0
146
0.0
 13
0.0
 23
0.0
 33
0.0
 16
1.0
 26
0.0
 36
0.0
 17
0.0
 27
1.0
 37
0.0
 76
     0
330
23
  0
LAYOUT
  5
22
102
{ACAD_REACTORS
330
1A
102
}
330
1A
100
AcDbPlotSettings
  1

  2
none_device
  4
Letter_(8.50_x_11.00_Inches)
  6

 40
6.35
 41
6.35
 42
6.35000508
 43
6.35000508
 44
215.9
 45
279.4
 46
0.0
 47
0.0
 48
0.0
 49
0.0
140
0.0
141
0.0
142
1.0
143
1.0
 70
  1712
 72
     1
 73
     0
 74
     0
  7

 75
     0
147
1.0
148
0.0
149
0.0
100
AcDbLayout
  1
Model
 70
     1
 71
     0
 10
0.0
 20
0.0
 11
2100.0
 21
1485.0
 12
0.0
 22
0.0
 32
0.0
 14
0.0
 24
0.0
 34
0.0
 15
2100.0
 25
1485.0
 35
0.0
146
0.0
 13
0.0
 23
0.0
 33
0.0
 16
1.0
 26
0.0
 36
0.0
 17
0.0
 27
1.0
 37
0.0
 76
     0
330
1F
331
29
  0
MLINESTYLE
  5
18
102
{ACAD_REACTORS
330
17
102
}
330
17
100
AcDbMlineStyle
  2
Standard
 70
     0
  3

 62
   256
 51
90.0
 52
90.0
 71
     2
 49
0.5
 62
   256
  6
BYLAYER
 49
-0.5
 62
   256
  6
BYLAYER
  0
ACDBPLACEHOLDER
  5
F
102
{ACAD_REACTORS
330
E
102
}
330
E
  0
SCALE
  5
48
102
{ACAD_REACTORS
330
47
102
}
330
47
100
AcDbScale
 70
     0
300
1:1
140
1.0
141
1.0
290
     1
  0
SCALE
  5
49
102
{ACAD_REACTORS
330
47
102
}
330
47
100
AcDbScale
 70
     0
300
1:2
140
1.0
141
2.0
290
     0
  0
SCALE
  5
4A
102
{ACAD_REACTORS
330
47
102
}
330
47
100
AcDbScale
 70
     0
300
1:4
140
1.0
141
4.0
290
     0
  0
SCALE
  5
4B
102
{ACAD_REACTORS
330
47
102
}
330
47
100
AcDbScale
 70
     0
300
1:5
140
1.0
141
5.0
290
     0
  0
SCALE
  5
4C
102
{ACAD_REACTORS
330
47
102
}
330
47
100
AcDbScale
 70
     0
300
1:8
140
1.0
141
8.0
290
     0
  0
SCALE
  5
4D
102
{ACAD_REACTORS
330
47
102
}
330
47
100
AcDbScale
 70
     0
300
1:10
140
1.0
141
10.0
290
     0
  0
SCALE
  5
4E
102
{ACAD_REACTORS
330
47
102
}
330
47
100
AcDbScale
 70
     0
300
1:16
140
1.0
141
16.0
290
     0
  0
SCALE
  5
4F
102
{ACAD_REACTORS
330
47
102
}
330
47
100
AcDbScale
 70
     0
300
1:20
140
1.0
141
20.0
290
     0
  0
SCALE
  5
50
102
{ACAD_REACTORS
330
47
102
}
330
47
100
AcDbScale
 70
     0
300
1:30
140
1.0
141
30.0
290
     0
  0
SCALE
  5
51
102
{ACAD_REACTORS
330
47
102
}
330
47
100
AcDbScale
 70
     0
300
1:40
140
1.0
141
40.0
290
     0
  0
SCALE
  5
52
102
{ACAD_REACTORS
330
47
102
}
330
47
100
AcDbScale
 70
     0
300
1:50
140
1.0
141
50.0
290
     0
  0
SCALE
  5
53
102
{ACAD_REACTORS
330
47
102
}
330
47
100
AcDbScale
 70
     0
300
1:100
140
1.0
141
100.0
290
     0
  0
SCALE
  5
54
102
{ACAD_REACTORS
330
47
102
}
330
47
100
AcDbScale
 70
     0
300
2:1
140
2.0
141
1.0
290
     0
  0
SCALE
  5
55
102
{ACAD_REACTORS
330
47
102
}
330
47
100
AcDbScale
 70
     0
300
4:1
140
4.0
141
1.0
290
     0
  0
SCALE
  5
56
102
{ACAD_REACTORS
330
47
102
}
330
47
100
AcDbScale
 70
     0
300
8:1
140
8.0
141
1.0
290
     0
  0
SCALE
  5
57
102
{ACAD_REACTORS
330
47
102
}
330
47
100
AcDbScale
 70
     0
300
10:1
140
10.0
141
1.0
290
     0
  0
SCALE
  5
58
102
{ACAD_REACTORS
330
47
102
}
330
47
100
AcDbScale
 70
     0
300
100:1
140
100.0
141
1.0
290
     0
  0
SCALE
  5
59
102
{ACAD_REACTORS
330
47
102
}
330
47
100
AcDbScale
 70
     0
300
1/128" = 1'-0"
140
0.0078125
141
12.0
290
     0
  0
SCALE
  5
5A
102
{ACAD_REACTORS
330
47
102
}
330
47
100
AcDbScale
 70
     0
300
1/64" = 1'-0"
140
0.015625
141
12.0
290
     0
  0
SCALE
  5
5B
102
{ACAD_REACTORS
330
47
102
}
330
47
100
AcDbScale
 70
     0
300
1/32" = 1'-0"
140
0.03125
141
12.0
290
     0
  0
SCALE
  5
5C
102
{ACAD_REACTORS
330
47
102
}
330
47
100
AcDbScale
 70
     0
300
1/16" = 1'-0"
140
0.0625
141
12.0
290
     0
  0
SCALE
  5
5D
102
{ACAD_REACTORS
330
47
102
}
330
47
100
AcDbScale
 70
     0
300
3/32" = 1'-0"
140
0.09375
141
12.0
290
     0
  0
SCALE
  5
5E
102
{ACAD_REACTORS
330
47
102
}
330
47
100
AcDbScale
 70
     0
300
1/8" = 1'-0"
140
0.125
141
12.0
290
     0
  0
SCALE
  5
5F
102
{ACAD_REACTORS
330
47
102
}
330
47
100
AcDbScale
 70
     0
300
3/16" = 1'-0"
140
0.1875
141
12.0
290
     0
  0
SCALE
  5
60
102
{ACAD_REACTORS
330
47
102
}
330
47
100
AcDbScale
 70
     0
300
1/4" = 1'-0"
140
0.25
141
12.0
290
     0
  0
SCALE
  5
61
102
{ACAD_REACTORS
330
47
102
}
330
47
100
AcDbScale
 70
     0
300
3/8" = 1'-0"
140
0.375
141
12.0
290
     0
  0
SCALE
  5
62
102
{ACAD_REACTORS
330
47
102
}
330
47
100
AcDbScale
 70
     0
300
1/2" = 1'-0"
140
0.5
141
12.0
290
     0
  0
SCALE
  5
63
102
{ACAD_REACTORS
330
47
102
}
330
47
100
AcDbScale
 70
     0
300
3/4" = 1'-0"
140
0.75
141
12.0
290
     0
  0
SCALE
  5
64
102
{ACAD_REACTORS
330
47
102
}
330
47
100
AcDbScale
 70
     0
300
1" = 1'-0"
140
1.0
141
12.0
290
     0
  0
SCALE
  5
65
102
{ACAD_REACTORS
330
47
102
}
330
47
100
AcDbScale
 70
     0
300
1-1/2" = 1'-0"
140
1.5
141
12.0
290
     0
  0
SCALE
  5
66
102
{ACAD_REACTORS
330
47
102
}
330
47
100
AcDbScale
 70
     0
300
3" = 1'-0"
140
3.0
141
12.0
290
     0
  0
SCALE
  5
67
102
{ACAD_REACTORS
330
47
102
}
330
47
100
AcDbScale
 70
     0
300
6" = 1'-0"
140
6.0
141
12.0
290
     0
  0
SCALE
  5
68
102
{ACAD_REACTORS
330
47
102
}
330
47
100
AcDbScale
 70
     0
300
1'-0" = 1'-0"
140
12.0
141
12.0
290
     0
  0
ENDSEC
  0
EOF
