  0
SECTION
  2
HEADER
  9
$ACADVER
  1
AC1015
  9
$ACADMAINTVER
 70
     6
  9
$DWGCODEPAGE
  3
ANSI_1252
  9
$INSBASE
 10
0.0
 20
0.0
 30
0.0
  9
$EXTMIN
 10
0.0
 20
0.0
 30
0.0
  9
$EXTMAX
 10
2100.0
 20
1485.0
 30
0.0
  9
$LIMMIN
 10
0.0
 20
0.0
  9
$LIMMAX
 10
2100.0
 20
1485.0
  9
$ORTHOMODE
 70
     0
  9
$REGENMODE
 70
     1
  9
$FILLMODE
 70
     1
  9
$QTEXTMODE
 70
     0
  9
$MIRRTEXT
 70
     1
  9
$LTSCALE
 40
5.0
  9
$ATTMODE
 70
     1
  9
$TEXTSIZE
 40
14.1111111111
  9
$TRACEWID
 40
1.0
  9
$TEXTSTYLE
  7
Standard
  9
$CLAYER
  8
0
  9
$CELTYPE
  6
ByLayer
  9
$CECOLOR
 62
   256
  9
$CELTSCALE
 40
1.0
  9
$DISPSILH
 70
     0
  9
$DIMSCALE
 40
1.0
  9
$DIMASZ
 40
12.5
  9
$DIMEXO
 40
10.0
  9
$DIMDLI
 40
3.75
  9
$DIMRND
 40
0.0
  9
$DIMDLE
 40
0.0
  9
$DIMEXE
 40
5.0
  9
$DIMTP
 40
0.0
  9
$DIMTM
 40
0.0
  9
$DIMTXT
 40
14.1111111111
  9
$DIMCEN
 40
2.5
  9
$DIMTSZ
 40
0.0
  9
$DIMTOL
 70
     0
  9
$DIMLIM
 70
     0
  9
$DIMTIH
 70
     1
  9
$DIMTOH
 70
     1
  9
$DIMSE1
 70
     0
  9
$DIMSE2
 70
     0
  9
$DIMTAD
 70
     1
  9
$DIMZIN
 70
     0
  9
$DIMBLK
  1

  9
$DIMASO
 70
     1
  9
$DIMSHO
 70
     1
  9
$DIMPOST
  1

  9
$DIMAPOST
  1

  9
$DIMALT
 70
     0
  9
$DIMALTD
 70
     3
  9
$DIMALTF
 40
0.0393700787
  9
$DIMLFAC
 40
1.0
  9
$DIMTOFL
 70
     1
  9
$DIMTVP
 40
0.0
  9
$DIMTIX
 70
     0
  9
$DIMSOXD
 70
     0
  9
$DIMSAH
 70
     0
  9
$DIMBLK1
  1

  9
$DIMBLK2
  1

  9
$DIMSTYLE
  2
ISO-25
  9
$DIMCLRD
 70
     0
  9
$DIMCLRE
 70
     0
  9
$DIMCLRT
 70
     0
  9
$DIMTFAC
 40
1.0
  9
$DIMGAP
 40
7.62
  9
$DIMJUST
 70
     0
  9
$DIMSD1
 70
     0
  9
$DIMSD2
 70
     0
  9
$DIMTOLJ
 70
     0
  9
$DIMTZIN
 70
     0
  9
$DIMALTZ
 70
     0
  9
$DIMALTTZ
 70
     0
  9
$DIMUPT
 70
     0
  9
$DIMDEC
 70
     1
  9
$DIMTDEC
 70
     1
  9
$DIMALTU
 70
     2
  9
$DIMALTTD
 70
     3
  9
$DIMTXSTY
  7
Standard
  9
$DIMAUNIT
 70
     0
  9
$DIMADEC
 70
     2
  9
$DIMALTRND
 40
0.0
  9
$DIMAZIN
 70
     0
  9
$DIMDSEP
 70
    44
  9
$DIMATFIT
 70
     3
  9
$DIMFRAC
 70
     0
  9
$DIMLDRBLK
  1

  9
$DIMLUNIT
 70
     2
  9
$DIMLWD
 70
    -2
  9
$DIMLWE
 70
    -2
  9
$DIMTMOVE
 70
     0
  9
$LUNITS
 70
     2
  9
$LUPREC
 70
     2
  9
$SKETCHINC
 40
1.0
  9
$FILLETRAD
 40
10.0
  9
$AUNITS
 70
     0
  9
$AUPREC
 70
     2
  9
$MENU
  1
.
  9
$ELEVATION
 40
0.0
  9
$PELEVATION
 40
0.0
  9
$THICKNESS
 40
0.0
  9
$LIMCHECK
 70
     0
  9
$CHAMFERA
 40
10.0
  9
$CHAMFERB
 40
10.0
  9
$CHAMFERC
 40
20.0
  9
$CHAMFERD
 40
0.0
  9
$SKPOLY
 70
     0
  9
$TDCREATE
 40
2456813.464095799
  9
$TDUCREATE
 40
2456812.964095799
  9
$TDUPDATE
 40
2456813.46409581
  9
$TDUUPDATE
 40
2456812.96409581
  9
$TDINDWG
 40
0.0000000116
  9
$TDUSRTIMER
 40
0.0000000116
  9
$USRTIMER
 70
     1
  9
$ANGBASE
 50
0.0
  9
$ANGDIR
 70
     0
  9
$PDMODE
 70
     0
  9
$PDSIZE
 40
-1.0
  9
$PLINEWID
 40
0.0
  9
$SPLFRAME
 70
     0
  9
$SPLINETYPE
 70
     6
  9
$SPLINESEGS
 70
     8
  9
$HANDSEED
  5
2C0
  9
$SURFTAB1
 70
     6
  9
$SURFTAB2
 70
     6
  9
$SURFTYPE
 70
     6
  9
$SURFU
 70
     6
  9
$SURFV
 70
     6
  9
$UCSBASE
  2

  9
$UCSNAME
  2

  9
$UCSORG
 10
0.0
 20
0.0
 30
0.0
  9
$UCSXDIR
 10
1.0
 20
0.0
 30
0.0
  9
$UCSYDIR
 10
0.0
 20
1.0
 30
0.0
  9
$UCSORTHOREF
  2

  9
$UCSORTHOVIEW
 70
     0
  9
$UCSORGTOP
 10
0.0
 20
0.0
 30
0.0
  9
$UCSORGBOTTOM
 10
0.0
 20
0.0
 30
0.0
  9
$UCSORGLEFT
 10
0.0
 20
0.0
 30
0.0
  9
$UCSORGRIGHT
 10
0.0
 20
0.0
 30
0.0
  9
$UCSORGFRONT
 10
0.0
 20
0.0
 30
0.0
  9
$UCSORGBACK
 10
0.0
 20
0.0
 30
0.0
  9
$PUCSBASE
  2

  9
$PUCSNAME
  2

  9
$PUCSORG
 10
0.0
 20
0.0
 30
0.0
  9
$PUCSXDIR
 10
1.0
 20
0.0
 30
0.0
  9
$PUCSYDIR
 10
0.0
 20
1.0
 30
0.0
  9
$PUCSORTHOREF
  2

  9
$PUCSORTHOVIEW
 70
     0
  9
$PUCSORGTOP
 10
0.0
 20
0.0
 30
0.0
  9
$PUCSORGBOTTOM
 10
0.0
 20
0.0
 30
0.0
  9
$PUCSORGLEFT
 10
0.0
 20
0.0
 30
0.0
  9
$PUCSORGRIGHT
 10
0.0
 20
0.0
 30
0.0
  9
$PUCSORGFRONT
 10
0.0
 20
0.0
 30
0.0
  9
$PUCSORGBACK
 10
0.0
 20
0.0
 30
0.0
  9
$USERI1
 70
     0
  9
$USERI2
 70
     0
  9
$USERI3
 70
     0
  9
$USERI4
 70
     0
  9
$USERI5
 70
     0
  9
$USERR1
 40
0.0
  9
$USERR2
 40
0.0
  9
$USERR3
 40
0.0
  9
$USERR4
 40
0.0
  9
$USERR5
 40
0.0
  9
$WORLDVIEW
 70
     1
  9
$SHADEDGE
 70
     3
  9
$SHADEDIF
 70
    70
  9
$TILEMODE
 70
     1
  9
$MAXACTVP
 70
    64
  9
$PINSBASE
 10
0.0
 20
0.0
 30
0.0
  9
$PLIMCHECK
 70
     0
  9
$PEXTMIN
 10
1.0000000000E+20
 20
1.0000000000E+20
 30
1.0000000000E+20
  9
$PEXTMAX
 10
-1.0000000000E+20
 20
-1.0000000000E+20
 30
-1.0000000000E+20
  9
$PLIMMIN
 10
0.0
 20
0.0
  9
$PLIMMAX
 10
420.0
 20
297.0
  9
$UNITMODE
 70
     0
  9
$VISRETAIN
 70
     1
  9
$PLINEGEN
 70
     0
  9
$PSLTSCALE
 70
     1
  9
$TREEDEPTH
 70
  3020
  9
$CMLSTYLE
  2
Standard
  9
$CMLJUST
 70
     0
  9
$CMLSCALE
 40
20.0
  9
$PROXYGRAPHICS
 70
     1
  9
$MEASUREMENT
 70
     1
  9
$CELWEIGHT
370
    -1
  9
$ENDCAPS
280
     0
  9
$JOINSTYLE
280
     0
  9
$LWDISPLAY
290
     1
  9
$INSUNITS
 70
     4
  9
$HYPERLINKBASE
  1

  9
$STYLESHEET
  1

  9
$XEDIT
290
     1
  9
$CEPSNTYPE
380
     0
  9
$PSTYLEMODE
290
     1
  9
$FINGERPRINTGUID
  2
{C6D43888-9E49-44FD-BCAF-A299A33368A7}
  9
$VERSIONGUID
  2
{FAEB1C32-E019-11D5-929B-00C0DF256EC4}
  9
$EXTNAMES
290
     1
  9
$PSVPSCALE
 40
0.0
  9
$OLESTARTUP
290
     0
  0
ENDSEC
  0
SECTION
  2
CLASSES
  0
CLASS
  1
ACDBDICTIONARYWDFLT
  2
AcDbDictionaryWithDefault
  3
ObjectDBX Classes
 90
        0
280
     0
281
     0
  0
CLASS
  1
VISUALSTYLE
  2
AcDbVisualStyle
  3
ObjectDBX Classes
 90
     4095
280
     0
281
     0
  0
CLASS
  1
SCALE
  2
AcDbScale
  3
ObjectDBX Classes
 90
     1153
280
     0
281
     0
  0
CLASS
  1
DICTIONARYVAR
  2
AcDbDictionaryVar
  3
ObjectDBX Classes
 90
        0
280
     0
281
     0
  0
CLASS
  1
ACDBPLACEHOLDER
  2
AcDbPlaceHolder
  3
ObjectDBX Classes
 90
        0
280
     0
281
     0
  0
CLASS
  1
LAYOUT
  2
AcDbLayout
  3
ObjectDBX Classes
 90
        0
280
     0
281
     0
  0
ENDSEC
  0
SECTION
  2
TABLES
  0
TABLE
  2
VPORT
  5
8
330
0
100
AcDbSymbolTable
 70
     1
  0
VPORT
  5
29
330
8
100
AcDbSymbolTableRecord
100
AcDbViewportTableRecord
  2
*Active
 70
     0
 10
0.0
 20
0.0
 11
1.0
 21
1.0
 12
1050.0
 22
742.5
 13
0.0
 23
0.0
 14
10.0
 24
10.0
 15
10.0
 25
10.0
 16
0.0
 26
0.0
 36
1.0
 17
0.0
 27
0.0
 37
0.0
 40
1485.0
 41
1.4141414141
 42
50.0
 43
0.0
 44
0.0
 50
0.0
 51
0.0
 71
     0
 72
  2000
 73
     1
 74
     3
 75
     0
 76
     0
 77
     0
 78
     0
281
     0
 65
     1
110
0.0
120
0.0
130
0.0
111
1.0
121
0.0
131
0.0
112
0.0
122
1.0
132
0.0
 79
     0
146
0.0
  0
ENDTAB
  0
TABLE
  2
LTYPE
  5
5
330
0
100
AcDbSymbolTable
 70
     6
  0
LTYPE
  5
14
330
5
100
AcDbSymbolTableRecord
100
AcDbLinetypeTableRecord
  2
ByBlock
 70
     0
  3

 72
    65
 73
     0
 40
0.0
  0
LTYPE
  5
15
330
5
100
AcDbSymbolTableRecord
100
AcDbLinetypeTableRecord
  2
ByLayer
 70
     0
  3

 72
    65
 73
     0
 40
0.0
  0
LTYPE
  5
16
330
5
100
AcDbSymbolTableRecord
100
AcDbLinetypeTableRecord
  2
Continuous
 70
     0
  3
Solid line
 72
    65
 73
     0
 40
0.0
  0
LTYPE
  5
3B
330
5
100
AcDbSymbolTableRecord
100
AcDbLinetypeTableRecord
  2
HIDDEN
 70
     0
  3
Hidden __ __ __ __ __ __ __ __ __ __ __ __ __ __
 72
    65
 73
     2
 40
1.905
 49
1.27
 74
     0
 49
-0.635
 74
     0
  0
LTYPE
  5
3C
330
5
100
AcDbSymbolTableRecord
100
AcDbLinetypeTableRecord
  2
PHANTOM
 70
     0
  3
Phantom ______  __  __  ______  __  __  ______
 72
    65
 73
     6
 40
12.7
 49
6.35
 74
     0
 49
-1.27
 74
     0
 49
1.27
 74
     0
 49
-1.27
 74
     0
 49
1.27
 74
     0
 49
-1.27
 74
     0
  0
LTYPE
  5
3D
330
5
100
AcDbSymbolTableRecord
100
AcDbLinetypeTableRecord
  2
CENTER
 70
     0
  3
Center ____ _ ____ _ ____ _ ____ _ ____ _ ____
 72
    65
 73
     4
 40
10.16
 49
6.35
 74
     0
 49
-1.27
 74
     0
 49
1.27
 74
     0
 49
-1.27
 74
     0
  0
LTYPE
  5
3E
330
5
100
AcDbSymbolTableRecord
100
AcDbLinetypeTableRecord
  2
CENTERX2
 70
     0
  3
Center (2x) ________  __  ________  __  _____
 72
    65
 73
     4
 40
20.32
 49
12.7
 74
     0
 49
-2.54
 74
     0
 49
2.54
 74
     0
 49
-2.54
 74
     0
  0
LTYPE
  5
3F
330
5
100
AcDbSymbolTableRecord
100
AcDbLinetypeTableRecord
  2
DOT2
 70
     0
  3
Dot (.5x) ........................................
 72
    65
 73
     2
 40
0.635
 49
0.0
 74
     0
 49
-0.635
 74
     0
  0
ENDTAB
  0
TABLE
  2
LAYER
  5
2
330
0
100
AcDbSymbolTable
 70
     3
  0
LAYER
  5
10
330
2
100
AcDbSymbolTableRecord
100
AcDbLayerTableRecord
  2
0
 70
     0
 62
     7
  6
Continuous
370
    -3
390
F
  0
LAYER
  5
40
330
2
100
AcDbSymbolTableRecord
100
AcDbLayerTableRecord
  2
FORMAT
 70
     0
 62
     7
  6
Continuous
370
    -3
390
F
  0
LAYER
  5
41
330
2
100
AcDbSymbolTableRecord
100
AcDbLayerTableRecord
  2
SLD-0
 70
     0
 62
   179
  6
Continuous
370
    -3
390
F
  0
ENDTAB
  0
TABLE
  2
STYLE
  5
3
330
0
100
AcDbSymbolTable
 70
     3
  0
STYLE
  5
11
330
3
100
AcDbSymbolTableRecord
100
AcDbTextStyleTableRecord
  2
Standard
 70
     0
 40
0.0
 41
1.0
 50
0.0
 71
     0
 42
2.5
  3
txt
  4

  0
STYLE
  5
F6
330
3
100
AcDbSymbolTableRecord
100
AcDbTextStyleTableRecord
  2
SLDTEXTSTYLE0
 70
     0
 40
0.0
 41
0.7
 50
0.0
 71
     0
 42
0.2
  3
TXT
  4

  0
STYLE
  5
11B
330
3
100
AcDbSymbolTableRecord
100
AcDbTextStyleTableRecord
  2
SLDTEXTSTYLE1
 70
     0
 40
0.0
 41
0.605
 50
0.0
 71
     0
 42
0.2
  3
TXT
  4

  0
ENDTAB
  0
TABLE
  2
VIEW
  5
6
330
0
100
AcDbSymbolTable
 70
     0
  0
ENDTAB
  0
TABLE
  2
UCS
  5
7
330
0
100
AcDbSymbolTable
 70
     0
  0
ENDTAB
  0
TABLE
  2
APPID
  5
9
330
0
100
AcDbSymbolTable
 70
     1
  0
APPID
  5
12
330
9
100
AcDbSymbolTableRecord
100
AcDbRegAppTableRecord
  2
ACAD
 70
     0
  0
ENDTAB
  0
TABLE
  2
DIMSTYLE
  5
A
330
0
100
AcDbSymbolTable
 70
     6
100
AcDbDimStyleTable
  0
DIMSTYLE
105
27
330
A
100
AcDbSymbolTableRecord
100
AcDbDimStyleTableRecord
  2
ISO-25
 70
     0
 41
2.5
 42
0.625
 43
3.75
 44
1.25
 73
     0
 74
     0
 77
     1
 78
     8
140
2.5
141
2.5
143
0.0393700787
147
0.625
171
     3
172
     1
271
     2
272
     2
274
     3
278
    44
283
     0
284
     8
340
11
  0
DIMSTYLE
105
187
102
{ACAD_REACTORS
330
186
102
}
330
A
100
AcDbSymbolTableRecord
100
AcDbDimStyleTableRecord
  2
SLDDIMSTYLE0
 70
     0
 41
12.5
 44
0.0
 73
     0
 74
     0
 77
     2
 78
    12
140
10.2732747396
144
5.0
147
2.5683186849
173
     1
179
     2
272
     2
284
    12
340
11B
  0
DIMSTYLE
105
190
102
{ACAD_REACTORS
330
18F
330
1B1
330
1BB
330
1ED
330
1F7
330
201
330
20B
330
215
330
257
102
}
330
A
100
AcDbSymbolTableRecord
100
AcDbDimStyleTableRecord
  2
SLDDIMSTYLE1
 70
     0
 41
12.5
 44
0.0
 45
0.000000001
 73
     0
 74
     0
 77
     2
 78
    12
140
10.2732747396
147
2.5683186849
173
     1
271
     2
272
     2
284
    12
340
11B
  0
DIMSTYLE
105
19B
102
{ACAD_REACTORS
330
19A
330
24B
102
}
330
A
100
AcDbSymbolTableRecord
100
AcDbDimStyleTableRecord
  2
SLDDIMSTYLE2
 70
     0
 41
12.5
 44
0.0
 45
0.000000001
 73
     0
 74
     0
 77
     2
 78
    12
140
10.2732747396
147
2.5683186849
173
     1
271
     2
272
     2
284
    12
340
11B
  0
DIMSTYLE
105
1A8
102
{ACAD_REACTORS
330
1A7
102
}
330
A
100
AcDbSymbolTableRecord
100
AcDbDimStyleTableRecord
  2
SLDDIMSTYLE3
 70
     0
 41
12.5
 44
0.0
 45
0.000000001
 73
     0
 74
     0
 77
     2
 78
    12
140
10.2732747396
147
2.5683186849
173
     1
271
     2
272
     2
279
     1
284
    12
340
11B
341
1A9
343
1A9
344
1A9
  0
DIMSTYLE
105
262
102
{ACAD_REACTORS
330
261
330
268
102
}
330
A
100
AcDbSymbolTableRecord
100
AcDbDimStyleTableRecord
  2
SLDDIMSTYLE4
 70
     0
 41
12.5
 44
0.0
 45
0.000000001
 73
     0
 74
     0
 77
     2
 78
    12
140
10.2732747396
147
2.5683186849
173
     1
271
     2
272
     2
284
    12
340
11B
341
1A9
343
1A9
344
1A9
  0
ENDTAB
  0
TABLE
  2
BLOCK_RECORD
  5
1
330
0
100
AcDbSymbolTable
 70
    18
  0
BLOCK_RECORD
  5
1F
330
1
100
AcDbSymbolTableRecord
100
AcDbBlockTableRecord
  2
*Model_Space
340
22
  0
BLOCK_RECORD
  5
1B
330
1
100
AcDbSymbolTableRecord
100
AcDbBlockTableRecord
  2
*Paper_Space
340
1E
  0
BLOCK_RECORD
  5
23
330
1
100
AcDbSymbolTableRecord
100
AcDbBlockTableRecord
  2
*Paper_Space0
340
26
  0
BLOCK_RECORD
  5
159
330
1
100
AcDbSymbolTableRecord
100
AcDbBlockTableRecord
  2
SW_NOTE_0
340
0
102
{BLKREFS
331
15F
102
}
  0
BLOCK_RECORD
  5
188
330
1
100
AcDbSymbolTableRecord
100
AcDbBlockTableRecord
  2
*D2
340
0
  0
BLOCK_RECORD
  5
191
330
1
100
AcDbSymbolTableRecord
100
AcDbBlockTableRecord
  2
*D3
340
0
  0
BLOCK_RECORD
  5
19C
330
1
100
AcDbSymbolTableRecord
100
AcDbBlockTableRecord
  2
*D4
340
0
  0
BLOCK_RECORD
  5
1A9
330
1
100
AcDbSymbolTableRecord
100
AcDbBlockTableRecord
  2
_NONE
340
0
  0
BLOCK_RECORD
  5
1AC
330
1
100
AcDbSymbolTableRecord
100
AcDbBlockTableRecord
  2
*D6
340
0
  0
BLOCK_RECORD
  5
1B2
330
1
100
AcDbSymbolTableRecord
100
AcDbBlockTableRecord
  2
*D7
340
0
  0
BLOCK_RECORD
  5
1BC
330
1
100
AcDbSymbolTableRecord
100
AcDbBlockTableRecord
  2
*D8
340
0
  0
BLOCK_RECORD
  5
1EE
330
1
100
AcDbSymbolTableRecord
100
AcDbBlockTableRecord
  2
*D9
340
0
  0
BLOCK_RECORD
  5
1F8
330
1
100
AcDbSymbolTableRecord
100
AcDbBlockTableRecord
  2
*D10
340
0
  0
BLOCK_RECORD
  5
202
330
1
100
AcDbSymbolTableRecord
100
AcDbBlockTableRecord
  2
*D11
340
0
  0
BLOCK_RECORD
  5
20C
330
1
100
AcDbSymbolTableRecord
100
AcDbBlockTableRecord
  2
*D12
340
0
  0
BLOCK_RECORD
  5
216
330
1
100
AcDbSymbolTableRecord
100
AcDbBlockTableRecord
  2
*D13
340
0
  0
BLOCK_RECORD
  5
24C
330
1
100
AcDbSymbolTableRecord
100
AcDbBlockTableRecord
  2
*D14
340
0
  0
BLOCK_RECORD
  5
258
330
1
100
AcDbSymbolTableRecord
100
AcDbBlockTableRecord
  2
*D15
340
0
  0
BLOCK_RECORD
  5
263
330
1
100
AcDbSymbolTableRecord
100
AcDbBlockTableRecord
  2
*D16
340
0
  0
BLOCK_RECORD
  5
269
330
1
100
AcDbSymbolTableRecord
100
AcDbBlockTableRecord
  2
*D17
340
0
  0
ENDTAB
  0
ENDSEC
  0
SECTION
  2
BLOCKS
  0
BLOCK
  5
20
330
1F
100
AcDbEntity
  8
0
100
AcDbBlockBegin
  2
*Model_Space
 70
     0
 10
0.0
 20
0.0
 30
0.0
  3
*Model_Space
  1

  0
ENDBLK
  5
21
330
1F
100
AcDbEntity
  8
0
100
AcDbBlockEnd
  0
BLOCK
  5
1C
330
1B
100
AcDbEntity
 67
     1
  8
0
100
AcDbBlockBegin
  2
*Paper_Space
 70
     0
 10
0.0
 20
0.0
 30
0.0
  3
*Paper_Space
  1

  0
ENDBLK
  5
1D
330
1B
100
AcDbEntity
 67
     1
  8
0
100
AcDbBlockEnd
  0
BLOCK
  5
24
330
23
100
AcDbEntity
  8
0
100
AcDbBlockBegin
  2
*Paper_Space0
 70
     0
 10
0.0
 20
0.0
 30
0.0
  3
*Paper_Space0
  1

  0
ENDBLK
  5
25
330
23
100
AcDbEntity
  8
0
100
AcDbBlockEnd
  0
BLOCK
  5
15A
330
159
100
AcDbEntity
  8
0
100
AcDbBlockBegin
  2
SW_NOTE_0
 70
     0
 10
0.0
 20
0.0
 30
0.0
  3
SW_NOTE_0
  1

  0
MTEXT
  5
15C
330
159
100
AcDbEntity
  8
SLD-0
 62
     0
 48
5.0
100
AcDbMText
 10
0.0
 20
6.8213167896
 30
0.0
 40
5.2916666667
 41
0.0
 71
     1
 72
     1
  1
DISCLAIMER : THE DESIGN SUGGESTION IS PROVIDED FOR EVALUATION PURPOSES ONLY.
  7
SLDTEXTSTYLE1
 73
     1
 44
1.0
  0
MTEXT
  5
15D
330
159
100
AcDbEntity
  8
SLD-0
 62
     0
 48
5.0
100
AcDbMText
 10
0.0
 20
-7.2897941509
 30
0.0
 40
5.2916666667
 41
0.0
 71
     1
 72
     1
  3
IT IS NOT TO BE CONSIDERED A FULL DESIGN AS WE ARE NOT THE CONSULTING ENGINEERS; WE ARE MANUFACTURERS. WE ARE NOT PRIVY TO ALL THE INFORMATION PERTAINING TO THIS MATTER AND WE HAVE NO CONTROL OVER THE PROJECT INSTALLATION OF THE PRODUCT. THE DESIGN 
  1
SUGGESTION IS PROVIDED WITHOUT OBLIGATION. 
  7
SLDTEXTSTYLE1
 73
     1
 44
1.0
  0
MTEXT
  5
15E
330
159
100
AcDbEntity
  8
SLD-0
 62
     0
 48
5.0
100
AcDbMText
 10
0.0
 20
-14.3453496212
 30
0.0
 40
5.2916666667
 41
0.0
 71
     1
 72
     1
  3
DESIGN IS TO  BE CONFIRMED AND APPROVED BY THE ARCHITECT, HYDRAULICS ENGINEER, OR PROJECT MANAGER. ACCURATE MEASUREMENTS SHOULD BE CONFIRMED BY THE PERSON APPROVING THE DESIGN. ALLPROOF ACCEPTS NO LIABILITY FOR THE IMPROPER USE OF THE DESIGN SUGGEST
  1
ION.
  7
SLDTEXTSTYLE1
 73
     1
 44
1.0
  0
ENDBLK
  5
15B
330
159
100
AcDbEntity
  8
0
100
AcDbBlockEnd
  0
BLOCK
  5
189
330
188
100
AcDbEntity
  8
0
100
AcDbBlockBegin
  2
*D2
 70
     1
 10
0.0
 20
0.0
 30
0.0
  3
*D2
  1

  0
ARC
  5
18B
330
188
100
AcDbEntity
  8
SLD-0
 62
     1
 48
5.0
100
AcDbCircle
 10
705.5306841165
 20
366.7768570503
 30
0.0
 40
76.65487262400939
100
AcDbArc
 50
183.0
 51
0.0
  0
SOLID
  5
18C
330
188
100
AcDbEntity
  8
SLD-0
 62
     1
 48
5.0
100
AcDbTrace
 10
628.9808643314
 20
362.7650509909
 30
0.0
 11
626.180582555
 21
349.7781952523
 31
0.0
 12
635.1008810396
 22
350.9732998278
 32
0.0
 13
635.1008810396
 23
350.9732998278
 33
0.0
  0
SOLID
  5
18D
330
188
100
AcDbEntity
  8
SLD-0
 62
     1
 48
5.0
100
AcDbTrace
 10
782.1855567405
 20
366.7768570503
 30
0.0
 11
776.6910598754
 21
354.6809691458
 31
0.0
 12
785.6616803417
 22
353.9543547708
 32
0.0
 13
785.6616803417
 23
353.9543547708
 33
0.0
  0
MTEXT
  5
18E
330
188
100
AcDbEntity
  8
SLD-0
 62
     1
 48
5.0
100
AcDbMText
 10
693.107324508
 20
303.7572814432
 30
0.0
 40
10.5833333333
 41
0.0
 71
     1
 72
     1
  1
177°
  7
SLDTEXTSTYLE1
 11
0.9999998261620174
 21
0.000589640513256925
 31
0.0
 73
     1
 44
1.0
  0
ENDBLK
  5
18A
330
188
100
AcDbEntity
  8
0
100
AcDbBlockEnd
  0
BLOCK
  5
192
330
191
100
AcDbEntity
  8
0
100
AcDbBlockBegin
  2
*D3
 70
     1
 10
0.0
 20
0.0
 30
0.0
  3
*D3
  1

  0
SOLID
  5
194
330
191
100
AcDbEntity
  8
SLD-0
 62
     1
 48
5.0
100
AcDbTrace
 10
875.5306841165
 20
366.7768570503
 30
0.0
 11
880.0306841165
 21
379.2768570503
 31
0.0
 12
871.0306841165
 22
379.2768570503
 32
0.0
 13
871.0306841165
 23
379.2768570503
 33
0.0
  0
SOLID
  5
195
330
191
100
AcDbEntity
  8
SLD-0
 62
     1
 48
5.0
100
AcDbTrace
 10
875.5306841165
 20
541.7768570503
 30
0.0
 11
871.0306841165
 21
529.2768570503
 31
0.0
 12
880.0306841165
 22
529.2768570503
 32
0.0
 13
880.0306841165
 23
529.2768570503
 33
0.0
  0
LINE
  5
196
330
191
100
AcDbEntity
  8
SLD-0
 62
     1
 48
5.0
100
AcDbLine
 10
835.5306841165
 20
366.7768570503
 30
0.0
 11
880.5306841165
 21
366.7768570503
 31
0.0
  0
LINE
  5
197
330
191
100
AcDbEntity
  8
SLD-0
 62
     1
 48
5.0
100
AcDbLine
 10
718.1306841165
 20
541.7768570503
 30
0.0
 11
880.5306841165
 21
541.7768570503
 31
0.0
  0
LINE
  5
198
330
191
100
AcDbEntity
  8
SLD-0
 62
     1
 48
5.0
100
AcDbLine
 10
875.5306841165
 20
366.7768570503
 30
0.0
 11
875.5306841165
 21
541.7768570503
 31
0.0
  0
MTEXT
  5
199
330
191
100
AcDbEntity
  8
SLD-0
 62
     1
 48
5.0
100
AcDbMText
 10
861.8880508283
 20
444.6403576556
 30
0.0
 40
10.5833333333
 41
0.0
 71
     1
 72
     1
  1
175
  7
SLDTEXTSTYLE1
 11
6.123233995736766E-17
 21
1.0
 31
0.0
 73
     1
 44
1.0
  0
ENDBLK
  5
193
330
191
100
AcDbEntity
  8
0
100
AcDbBlockEnd
  0
BLOCK
  5
19D
330
19C
100
AcDbEntity
  8
0
100
AcDbBlockBegin
  2
*D4
 70
     1
 10
0.0
 20
0.0
 30
0.0
  3
*D4
  1

  0
SOLID
  5
19F
330
19C
100
AcDbEntity
  8
SLD-0
 62
     1
 48
5.0
100
AcDbTrace
 10
708.1306841165
 20
591.7768570503
 30
0.0
 11
720.6306841165
 21
587.2768570503
 31
0.0
 12
720.6306841165
 22
596.2768570503
 32
0.0
 13
720.6306841165
 23
596.2768570503
 33
0.0
  0
SOLID
  5
1A0
330
19C
100
AcDbEntity
  8
SLD-0
 62
     1
 48
5.0
100
AcDbTrace
 10
705.5306841165
 20
591.7768570503
 30
0.0
 11
693.0306841165
 21
596.2768570503
 31
0.0
 12
693.0306841165
 22
587.2768570503
 32
0.0
 13
693.0306841165
 23
587.2768570503
 33
0.0
  0
LINE
  5
1A1
330
19C
100
AcDbEntity
  8
SLD-0
 62
     1
 48
5.0
100
AcDbLine
 10
708.1306841165
 20
551.7768570503
 30
0.0
 11
708.1306841165
 21
596.7768570503
 31
0.0
  0
LINE
  5
1A2
330
19C
100
AcDbEntity
  8
SLD-0
 62
     1
 48
5.0
100
AcDbLine
 10
705.5306841165
 20
551.7768570503
 30
0.0
 11
705.5306841165
 21
596.7768570503
 31
0.0
  0
LINE
  5
1A3
330
19C
100
AcDbEntity
  8
SLD-0
 62
     1
 48
5.0
100
AcDbLine
 10
708.1306841165
 20
591.7768570503
 30
0.0
 11
766.9591751642
 21
591.7768570503
 31
0.0
  0
LINE
  5
1A4
330
19C
100
AcDbEntity
  8
SLD-0
 62
     1
 48
5.0
100
AcDbLine
 10
708.1306841165
 20
591.7768570503
 30
0.0
 11
705.5306841165
 21
591.7768570503
 31
0.0
  0
LINE
  5
1A5
330
19C
100
AcDbEntity
  8
SLD-0
 62
     1
 48
5.0
100
AcDbLine
 10
705.5306841165
 20
591.7768570503
 30
0.0
 11
680.5306841165
 21
591.7768570503
 31
0.0
  0
MTEXT
  5
1A6
330
19C
100
AcDbEntity
  8
SLD-0
 62
     1
 48
5.0
100
AcDbMText
 10
742.9577865443
 20
605.4194903385
 30
0.0
 40
10.5833333333
 41
0.0
 71
     1
 72
     1
  1
2.6
  7
SLDTEXTSTYLE1
 73
     1
 44
1.0
  0
ENDBLK
  5
19E
330
19C
100
AcDbEntity
  8
0
100
AcDbBlockEnd
  0
BLOCK
  5
1AA
330
1A9
100
AcDbEntity
  8
0
100
AcDbBlockBegin
  2
_NONE
 70
     0
 10
0.0
 20
0.0
 30
0.0
  3
_NONE
  1

  0
ENDBLK
  5
1AB
330
1A9
100
AcDbEntity
  8
0
100
AcDbBlockEnd
  0
BLOCK
  5
1AD
330
1AC
100
AcDbEntity
  8
0
100
AcDbBlockBegin
  2
*D6
 70
     1
 10
0.0
 20
0.0
 30
0.0
  3
*D6
  1

  0
MTEXT
  5
1AF
330
1AC
100
AcDbEntity
  8
SLD-0
 62
     1
 48
5.0
100
AcDbMText
 10
745.1492674052
 20
408.6105766784
 30
0.0
 40
10.5833333333
 41
0.0
 71
     1
 72
     1
  1
R
  7
SLDTEXTSTYLE1
 11
0.8750074007512818
 21
0.4841095419742166
 31
0.0
 73
     1
 44
1.0
  0
MTEXT
  5
1B0
330
1AC
100
AcDbEntity
  8
SLD-0
 62
     1
 48
5.0
100
AcDbMText
 10
752.4500547904
 20
412.6498348996
 30
0.0
 40
10.5833333333
 41
0.0
 71
     1
 72
     1
  1
7.4
  7
SLDTEXTSTYLE1
 11
0.8750074007512818
 21
0.4841095419742166
 31
0.0
 73
     1
 44
1.0
  0
ENDBLK
  5
1AE
330
1AC
100
AcDbEntity
  8
0
100
AcDbBlockEnd
  0
BLOCK
  5
1B3
330
1B2
100
AcDbEntity
  8
0
100
AcDbBlockBegin
  2
*D7
 70
     1
 10
0.0
 20
0.0
 30
0.0
  3
*D7
  1

  0
SOLID
  5
1B5
330
1B2
100
AcDbEntity
  8
SLD-0
 62
     1
 48
5.0
100
AcDbTrace
 10
840.37978889
 20
541.7768570503
 30
0.0
 11
835.87978889
 21
529.2768570503
 31
0.0
 12
844.87978889
 22
529.2768570503
 32
0.0
 13
844.87978889
 23
529.2768570503
 33
0.0
  0
SOLID
  5
1B6
330
1B2
100
AcDbEntity
  8
SLD-0
 62
     1
 48
5.0
100
AcDbTrace
 10
840.37978889
 20
431.1278621462
 30
0.0
 11
844.87978889
 21
443.6278621462
 31
0.0
 12
835.87978889
 22
443.6278621462
 32
0.0
 13
835.87978889
 23
443.6278621462
 33
0.0
  0
LINE
  5
1B7
330
1B2
100
AcDbEntity
  8
SLD-0
 62
     1
 48
5.0
100
AcDbLine
 10
715.5306841165
 20
541.7768570503
 30
0.0
 11
845.37978889
 21
541.7768570503
 31
0.0
  0
LINE
  5
1B8
330
1B2
100
AcDbEntity
  8
SLD-0
 62
     1
 48
5.0
100
AcDbLine
 10
712.6876919852
 20
431.1278621462
 30
0.0
 11
845.37978889
 21
431.1278621462
 31
0.0
  0
LINE
  5
1B9
330
1B2
100
AcDbEntity
  8
SLD-0
 62
     1
 48
5.0
100
AcDbLine
 10
840.37978889
 20
541.7768570503
 30
0.0
 11
840.37978889
 21
431.1278621462
 31
0.0
  0
MTEXT
  5
1BA
330
1B2
100
AcDbEntity
  8
SLD-0
 62
     1
 48
5.0
100
AcDbMText
 10
826.7371556018
 20
459.9974540133
 30
0.0
 40
10.5833333333
 41
0.0
 71
     1
 72
     1
  1
110.6
  7
SLDTEXTSTYLE1
 11
-7.044195017643634E-15
 21
1.0
 31
0.0
 73
     1
 44
1.0
  0
ENDBLK
  5
1B4
330
1B2
100
AcDbEntity
  8
0
100
AcDbBlockEnd
  0
BLOCK
  5
1BD
330
1BC
100
AcDbEntity
  8
0
100
AcDbBlockBegin
  2
*D8
 70
     1
 10
0.0
 20
0.0
 30
0.0
  3
*D8
  1

  0
SOLID
  5
1BF
330
1BC
100
AcDbEntity
  8
SLD-0
 62
     1
 48
5.0
100
AcDbTrace
 10
241.479540955
 20
342.4569671635
 30
0.0
 11
245.3191744083
 21
355.175348151
 31
0.0
 12
236.3315085955
 22
354.7043245448
 32
0.0
 13
236.3315085955
 23
354.7043245448
 33
0.0
  0
SOLID
  5
1C0
330
1BC
100
AcDbEntity
  8
SLD-0
 62
     1
 48
5.0
100
AcDbTrace
 10
238.1084980146
 20
406.7802982891
 30
0.0
 11
234.2688645612
 21
394.0619173016
 31
0.0
 12
243.256530374
 22
394.5329409078
 32
0.0
 13
243.256530374
 23
394.5329409078
 33
0.0
  0
LINE
  5
1C1
330
1BC
100
AcDbEntity
  8
SLD-0
 62
     1
 48
5.0
100
AcDbLine
 10
241.479540955
 20
342.4569671635
 30
0.0
 11
238.1084980146
 21
406.7802982891
 31
0.0
  0
LINE
  5
1C2
330
1BC
100
AcDbEntity
  8
SLD-0
 62
     1
 48
5.0
100
AcDbLine
 10
238.1084980146
 20
406.7802982891
 30
0.0
 11
234.5771360943
 21
474.162697784
 31
0.0
  0
MTEXT
  5
1C3
330
1BC
100
AcDbEntity
  8
SLD-0
 62
     1
 48
5.0
100
AcDbMText
 10
222.5452388842
 20
443.0707775832
 30
0.0
 40
10.5833333333
 41
0.0
 71
     1
 72
     1
  1
64.4
  7
SLDTEXTSTYLE1
 11
-0.0523359562429403
 21
0.9986295347545741
 31
0.0
 73
     1
 44
1.0
  0
ENDBLK
  5
1BE
330
1BC
100
AcDbEntity
  8
0
100
AcDbBlockEnd
  0
BLOCK
  5
1EF
330
1EE
100
AcDbEntity
  8
0
100
AcDbBlockBegin
  2
*D9
 70
     1
 10
0.0
 20
0.0
 30
0.0
  3
*D9
  1

  0
SOLID
  5
1F1
330
1EE
100
AcDbEntity
  8
SLD-0
 62
     1
 48
5.0
100
AcDbTrace
 10
205.5306841165
 20
1274.2532662632
 30
0.0
 11
218.0306841165
 21
1269.7532662632
 31
0.0
 12
218.0306841165
 22
1278.7532662632
 32
0.0
 13
218.0306841165
 23
1278.7532662632
 33
0.0
  0
SOLID
  5
1F2
330
1EE
100
AcDbEntity
  8
SLD-0
 62
     1
 48
5.0
100
AcDbTrace
 10
705.5306841165
 20
1274.2532662632
 30
0.0
 11
693.0306841165
 21
1278.7532662632
 31
0.0
 12
693.0306841165
 22
1269.7532662632
 32
0.0
 13
693.0306841165
 23
1269.7532662632
 33
0.0
  0
LINE
  5
1F3
330
1EE
100
AcDbEntity
  8
SLD-0
 62
     1
 48
5.0
100
AcDbLine
 10
205.5306841165
 20
1110.5532662632
 30
0.0
 11
205.5306841165
 21
1279.2532662632
 31
0.0
  0
LINE
  5
1F4
330
1EE
100
AcDbEntity
  8
SLD-0
 62
     1
 48
5.0
100
AcDbLine
 10
705.5306841165
 20
1234.2532662632
 30
0.0
 11
705.5306841165
 21
1279.2532662632
 31
0.0
  0
LINE
  5
1F5
330
1EE
100
AcDbEntity
  8
SLD-0
 62
     1
 48
5.0
100
AcDbLine
 10
205.5306841165
 20
1274.2532662632
 30
0.0
 11
705.5306841165
 21
1274.2532662632
 31
0.0
  0
MTEXT
  5
1F6
330
1EE
100
AcDbEntity
  8
SLD-0
 62
     1
 48
5.0
100
AcDbMText
 10
445.8941847218
 20
1287.8958995514
 30
0.0
 40
10.5833333333
 41
0.0
 71
     1
 72
     1
  1
500
  7
SLDTEXTSTYLE1
 73
     1
 44
1.0
  0
ENDBLK
  5
1F0
330
1EE
100
AcDbEntity
  8
0
100
AcDbBlockEnd
  0
BLOCK
  5
1F9
330
1F8
100
AcDbEntity
  8
0
100
AcDbBlockBegin
  2
*D10
 70
     1
 10
0.0
 20
0.0
 30
0.0
  3
*D10
  1

  0
SOLID
  5
1FB
330
1F8
100
AcDbEntity
  8
SLD-0
 62
     1
 48
5.0
100
AcDbTrace
 10
705.5306841165
 20
1274.2532662632
 30
0.0
 11
718.0306841165
 21
1269.7532662632
 31
0.0
 12
718.0306841165
 22
1278.7532662632
 32
0.0
 13
718.0306841165
 23
1278.7532662632
 33
0.0
  0
SOLID
  5
1FC
330
1F8
100
AcDbEntity
  8
SLD-0
 62
     1
 48
5.0
100
AcDbTrace
 10
825.5306841165
 20
1274.2532662632
 30
0.0
 11
813.0306841165
 21
1278.7532662632
 31
0.0
 12
813.0306841165
 22
1269.7532662632
 32
0.0
 13
813.0306841165
 23
1269.7532662632
 33
0.0
  0
LINE
  5
1FD
330
1F8
100
AcDbEntity
  8
SLD-0
 62
     1
 48
5.0
100
AcDbLine
 10
705.5306841165
 20
1234.2532662632
 30
0.0
 11
705.5306841165
 21
1279.2532662632
 31
0.0
  0
LINE
  5
1FE
330
1F8
100
AcDbEntity
  8
SLD-0
 62
     1
 48
5.0
100
AcDbLine
 10
825.5306841165
 20
1184.2532662632
 30
0.0
 11
825.5306841165
 21
1279.2532662632
 31
0.0
  0
LINE
  5
1FF
330
1F8
100
AcDbEntity
  8
SLD-0
 62
     1
 48
5.0
100
AcDbLine
 10
705.5306841165
 20
1274.2532662632
 30
0.0
 11
825.5306841165
 21
1274.2532662632
 31
0.0
  0
MTEXT
  5
200
330
1F8
100
AcDbEntity
  8
SLD-0
 62
     1
 48
5.0
100
AcDbMText
 10
755.8941847218
 20
1287.8958995514
 30
0.0
 40
10.5833333333
 41
0.0
 71
     1
 72
     1
  1
120
  7
SLDTEXTSTYLE1
 73
     1
 44
1.0
  0
ENDBLK
  5
1FA
330
1F8
100
AcDbEntity
  8
0
100
AcDbBlockEnd
  0
BLOCK
  5
203
330
202
100
AcDbEntity
  8
0
100
AcDbBlockBegin
  2
*D11
 70
     1
 10
0.0
 20
0.0
 30
0.0
  3
*D11
  1

  0
SOLID
  5
205
330
202
100
AcDbEntity
  8
SLD-0
 62
     1
 48
5.0
100
AcDbTrace
 10
875.5306841165
 20
1224.2532662632
 30
0.0
 11
871.0306841165
 21
1211.7532662632
 31
0.0
 12
880.0306841165
 22
1211.7532662632
 32
0.0
 13
880.0306841165
 23
1211.7532662632
 33
0.0
  0
SOLID
  5
206
330
202
100
AcDbEntity
  8
SLD-0
 62
     1
 48
5.0
100
AcDbTrace
 10
875.5306841165
 20
879.2532662632
 30
0.0
 11
880.0306841165
 21
891.7532662632
 31
0.0
 12
871.0306841165
 22
891.7532662632
 32
0.0
 13
871.0306841165
 23
891.7532662632
 33
0.0
  0
LINE
  5
207
330
202
100
AcDbEntity
  8
SLD-0
 62
     1
 48
5.0
100
AcDbLine
 10
785.5306841165
 20
1224.2532662632
 30
0.0
 11
880.5306841165
 21
1224.2532662632
 31
0.0
  0
LINE
  5
208
330
202
100
AcDbEntity
  8
SLD-0
 62
     1
 48
5.0
100
AcDbLine
 10
785.5306841165
 20
879.2532662632
 30
0.0
 11
880.5306841165
 21
879.2532662632
 31
0.0
  0
LINE
  5
209
330
202
100
AcDbEntity
  8
SLD-0
 62
     1
 48
5.0
100
AcDbLine
 10
875.5306841165
 20
1224.2532662632
 30
0.0
 11
875.5306841165
 21
879.2532662632
 31
0.0
  0
MTEXT
  5
20A
330
202
100
AcDbEntity
  8
SLD-0
 62
     1
 48
5.0
100
AcDbMText
 10
861.8880508283
 20
1042.1167668685
 30
0.0
 40
10.5833333333
 41
0.0
 71
     1
 72
     1
  1
345
  7
SLDTEXTSTYLE1
 11
-1.326144395554451E-14
 21
1.0
 31
0.0
 73
     1
 44
1.0
  0
ENDBLK
  5
204
330
202
100
AcDbEntity
  8
0
100
AcDbBlockEnd
  0
BLOCK
  5
20D
330
20C
100
AcDbEntity
  8
0
100
AcDbBlockBegin
  2
*D12
 70
     1
 10
0.0
 20
0.0
 30
0.0
  3
*D12
  1

  0
SOLID
  5
20F
330
20C
100
AcDbEntity
  8
SLD-0
 62
     1
 48
5.0
100
AcDbTrace
 10
825.5306841165
 20
1304.2532662632
 30
0.0
 11
813.0306841165
 21
1308.7532662632
 31
0.0
 12
813.0306841165
 22
1299.7532662632
 32
0.0
 13
813.0306841165
 23
1299.7532662632
 33
0.0
  0
SOLID
  5
210
330
20C
100
AcDbEntity
  8
SLD-0
 62
     1
 48
5.0
100
AcDbTrace
 10
205.5306841165
 20
1304.2532662632
 30
0.0
 11
218.0306841165
 21
1299.7532662632
 31
0.0
 12
218.0306841165
 22
1308.7532662632
 32
0.0
 13
218.0306841165
 23
1308.7532662632
 33
0.0
  0
LINE
  5
211
330
20C
100
AcDbEntity
  8
SLD-0
 62
     1
 48
5.0
100
AcDbLine
 10
825.5306841165
 20
1184.2532662632
 30
0.0
 11
825.5306841165
 21
1309.2532662632
 31
0.0
  0
LINE
  5
212
330
20C
100
AcDbEntity
  8
SLD-0
 62
     1
 48
5.0
100
AcDbLine
 10
205.5306841165
 20
1102.5532662632
 30
0.0
 11
205.5306841165
 21
1309.2532662632
 31
0.0
  0
LINE
  5
213
330
20C
100
AcDbEntity
  8
SLD-0
 62
     1
 48
5.0
100
AcDbLine
 10
825.5306841165
 20
1304.2532662632
 30
0.0
 11
205.5306841165
 21
1304.2532662632
 31
0.0
  0
MTEXT
  5
214
330
20C
100
AcDbEntity
  8
SLD-0
 62
     1
 48
5.0
100
AcDbMText
 10
505.8941847218
 20
1317.8958995514
 30
0.0
 40
10.5833333333
 41
0.0
 71
     1
 72
     1
  1
620
  7
SLDTEXTSTYLE1
 73
     1
 44
1.0
  0
ENDBLK
  5
20E
330
20C
100
AcDbEntity
  8
0
100
AcDbBlockEnd
  0
BLOCK
  5
217
330
216
100
AcDbEntity
  8
0
100
AcDbBlockBegin
  2
*D13
 70
     1
 10
0.0
 20
0.0
 30
0.0
  3
*D13
  1

  0
SOLID
  5
219
330
216
100
AcDbEntity
  8
SLD-0
 62
     1
 48
5.0
100
AcDbTrace
 10
155.5306591165
 20
1100.5532662632
 30
0.0
 11
151.0306591165
 21
1088.0532662632
 31
0.0
 12
160.0306591165
 22
1088.0532662632
 32
0.0
 13
160.0306591165
 23
1088.0532662632
 33
0.0
  0
SOLID
  5
21A
330
216
100
AcDbEntity
  8
SLD-0
 62
     1
 48
5.0
100
AcDbTrace
 10
155.5306591165
 20
1002.9532662632
 30
0.0
 11
160.0306591165
 21
1015.4532662632
 31
0.0
 12
151.0306591165
 22
1015.4532662632
 32
0.0
 13
151.0306591165
 23
1015.4532662632
 33
0.0
  0
LINE
  5
21B
330
216
100
AcDbEntity
  8
SLD-0
 62
     1
 48
5.0
100
AcDbLine
 10
195.5306841165
 20
1100.5532662632
 30
0.0
 11
150.5306591165
 21
1100.5532662632
 31
0.0
  0
LINE
  5
21C
330
216
100
AcDbEntity
  8
SLD-0
 62
     1
 48
5.0
100
AcDbLine
 10
195.5306841165
 20
1002.9532662632
 30
0.0
 11
150.5306591165
 21
1002.9532662632
 31
0.0
  0
LINE
  5
21D
330
216
100
AcDbEntity
  8
SLD-0
 62
     1
 48
5.0
100
AcDbLine
 10
155.5306591165
 20
1100.5532662632
 30
0.0
 11
155.5306591165
 21
1002.9532662632
 31
0.0
  0
MTEXT
  5
21E
330
216
100
AcDbEntity
  8
SLD-0
 62
     1
 48
5.0
100
AcDbMText
 10
141.8880258283
 20
1040.5122117838
 30
0.0
 40
10.5833333333
 41
0.0
 71
     1
 72
     1
  1
97.6
  7
SLDTEXTSTYLE1
 11
-7.044195017643634E-15
 21
1.0
 31
0.0
 73
     1
 44
1.0
  0
ENDBLK
  5
218
330
216
100
AcDbEntity
  8
0
100
AcDbBlockEnd
  0
BLOCK
  5
24D
330
24C
100
AcDbEntity
  8
0
100
AcDbBlockBegin
  2
*D14
 70
     1
 10
0.0
 20
0.0
 30
0.0
  3
*D14
  1

  0
SOLID
  5
24F
330
24C
100
AcDbEntity
  8
SLD-0
 62
     1
 48
5.0
100
AcDbTrace
 10
1807.269775882
 20
369.3768570503
 30
0.0
 11
1802.769775882
 21
356.8768570503
 31
0.0
 12
1811.769775882
 22
356.8768570503
 32
0.0
 13
1811.769775882
 23
356.8768570503
 33
0.0
  0
SOLID
  5
250
330
24C
100
AcDbEntity
  8
SLD-0
 62
     1
 48
5.0
100
AcDbTrace
 10
1807.269775882
 20
427.8768570503
 30
0.0
 11
1811.769775882
 21
440.3768570503
 31
0.0
 12
1802.769775882
 22
440.3768570503
 32
0.0
 13
1802.769775882
 23
440.3768570503
 33
0.0
  0
LINE
  5
251
330
24C
100
AcDbEntity
  8
SLD-0
 62
     1
 48
5.0
100
AcDbLine
 10
1717.269775882
 20
369.3768570503
 30
0.0
 11
1812.269775882
 21
369.3768570503
 31
0.0
  0
LINE
  5
252
330
24C
100
AcDbEntity
  8
SLD-0
 62
     1
 48
5.0
100
AcDbLine
 10
1635.569775882
 20
427.8768570503
 30
0.0
 11
1812.269775882
 21
427.8768570503
 31
0.0
  0
LINE
  5
253
330
24C
100
AcDbEntity
  8
SLD-0
 62
     1
 48
5.0
100
AcDbLine
 10
1807.269775882
 20
369.3768570503
 30
0.0
 11
1807.269775882
 21
344.3768570503
 31
0.0
  0
LINE
  5
254
330
24C
100
AcDbEntity
  8
SLD-0
 62
     1
 48
5.0
100
AcDbLine
 10
1807.269775882
 20
369.3768570503
 30
0.0
 11
1807.269775882
 21
427.8768570503
 31
0.0
  0
LINE
  5
255
330
24C
100
AcDbEntity
  8
SLD-0
 62
     1
 48
5.0
100
AcDbLine
 10
1807.269775882
 20
427.8768570503
 30
0.0
 11
1807.269775882
 21
452.8768570503
 31
0.0
  0
MTEXT
  5
256
330
24C
100
AcDbEntity
  8
SLD-0
 62
     1
 48
5.0
100
AcDbMText
 10
1793.6271425938
 20
387.3858025709
 30
0.0
 40
10.5833333333
 41
0.0
 71
     1
 72
     1
  1
58.5
  7
SLDTEXTSTYLE1
 11
6.123233995736766E-17
 21
1.0
 31
0.0
 73
     1
 44
1.0
  0
ENDBLK
  5
24E
330
24C
100
AcDbEntity
  8
0
100
AcDbBlockEnd
  0
BLOCK
  5
259
330
258
100
AcDbEntity
  8
0
100
AcDbBlockBegin
  2
*D15
 70
     1
 10
0.0
 20
0.0
 30
0.0
  3
*D15
  1

  0
SOLID
  5
25B
330
258
100
AcDbEntity
  8
SLD-0
 62
     1
 48
5.0
100
AcDbTrace
 10
1538.969775882
 20
591.7768570503
 30
0.0
 11
1551.469775882
 21
587.2768570503
 31
0.0
 12
1551.469775882
 22
596.2768570503
 32
0.0
 13
1551.469775882
 23
596.2768570503
 33
0.0
  0
SOLID
  5
25C
330
258
100
AcDbEntity
  8
SLD-0
 62
     1
 48
5.0
100
AcDbTrace
 10
1630.569775882
 20
591.7768570503
 30
0.0
 11
1618.069775882
 21
596.2768570503
 31
0.0
 12
1618.069775882
 22
587.2768570503
 32
0.0
 13
1618.069775882
 23
587.2768570503
 33
0.0
  0
LINE
  5
25D
330
258
100
AcDbEntity
  8
SLD-0
 62
     1
 48
5.0
100
AcDbLine
 10
1538.969775882
 20
432.8768570503
 30
0.0
 11
1538.969775882
 21
596.7768570503
 31
0.0
  0
LINE
  5
25E
330
258
100
AcDbEntity
  8
SLD-0
 62
     1
 48
5.0
100
AcDbLine
 10
1630.569775882
 20
432.8768570503
 30
0.0
 11
1630.569775882
 21
596.7768570503
 31
0.0
  0
LINE
  5
25F
330
258
100
AcDbEntity
  8
SLD-0
 62
     1
 48
5.0
100
AcDbLine
 10
1538.969775882
 20
591.7768570503
 30
0.0
 11
1630.569775882
 21
591.7768570503
 31
0.0
  0
MTEXT
  5
260
330
258
100
AcDbEntity
  8
SLD-0
 62
     1
 48
5.0
100
AcDbMText
 10
1573.5287214026
 20
605.4194903385
 30
0.0
 40
10.5833333333
 41
0.0
 71
     1
 72
     1
  1
91.6
  7
SLDTEXTSTYLE1
 73
     1
 44
1.0
  0
ENDBLK
  5
25A
330
258
100
AcDbEntity
  8
0
100
AcDbBlockEnd
  0
BLOCK
  5
264
330
263
100
AcDbEntity
  8
0
100
AcDbBlockBegin
  2
*D16
 70
     1
 10
0.0
 20
0.0
 30
0.0
  3
*D16
  1

  0
MTEXT
  5
266
330
263
100
AcDbEntity
  8
SLD-0
 62
     1
 48
5.0
100
AcDbMText
 10
1364.6460934741
 20
608.65114265
 30
0.0
 40
10.5833333333
 41
0.0
 71
     1
 72
     1
  1
R
  7
SLDTEXTSTYLE1
 11
0.7071067802870755
 21
-0.7071067820860195
 31
0.0
 73
     1
 44
1.0
  0
MTEXT
  5
267
330
263
100
AcDbEntity
  8
SLD-0
 62
     1
 48
5.0
100
AcDbMText
 10
1370.5459707289
 20
602.7512653802
 30
0.0
 40
10.5833333333
 41
0.0
 71
     1
 72
     1
  1
50
  7
SLDTEXTSTYLE1
 11
0.7071067802870755
 21
-0.7071067820860195
 31
0.0
 73
     1
 44
1.0
  0
ENDBLK
  5
265
330
263
100
AcDbEntity
  8
0
100
AcDbBlockEnd
  0
BLOCK
  5
26A
330
269
100
AcDbEntity
  8
0
100
AcDbBlockBegin
  2
*D17
 70
     1
 10
0.0
 20
0.0
 30
0.0
  3
*D17
  1

  0
MTEXT
  5
26C
330
269
100
AcDbEntity
  8
SLD-0
 62
     1
 48
5.0
100
AcDbMText
 10
1688.1161555626
 20
305.2559059909
 30
0.0
 40
10.5833333333
 41
0.0
 71
     1
 72
     1
  1
R
  7
SLDTEXTSTYLE1
 11
0.7071067811865781
 21
-0.7071067811865169
 31
0.0
 73
     1
 44
1.0
  0
MTEXT
  5
26D
330
269
100
AcDbEntity
  8
SLD-0
 62
     1
 48
5.0
100
AcDbMText
 10
1694.0160328249
 20
299.3560287286
 30
0.0
 40
10.5833333333
 41
0.0
 71
     1
 72
     1
  1
8
  7
SLDTEXTSTYLE1
 11
0.7071067811865781
 21
-0.7071067811865169
 31
0.0
 73
     1
 44
1.0
  0
ENDBLK
  5
26B
330
269
100
AcDbEntity
  8
0
100
AcDbBlockEnd
  0
ENDSEC
  0
SECTION
  2
ENTITIES
  0
LINE
  5
42
330
1F
100
AcDbEntity
  8
0
  6
Continuous
 62
     7
 48
5.0
370
     0
100
AcDbLine
 10
1538.3070694703
 20
165.3756194162
 30
0.0
 11
1277.5668430223
 21
165.3756194162
 31
0.0
  0
LINE
  5
43
330
1F
100
AcDbEntity
  8
0
  6
Continuous
 62
     7
 48
5.0
370
     0
100
AcDbLine
 10
1302.5210566946
 20
25.1971758652
 30
0.0
 11
1302.5210566946
 21
37.6366686946
 31
0.0
  0
LINE
  5
44
330
1F
100
AcDbEntity
  8
SLD-0
 62
     7
 48
5.0
100
AcDbLine
 10
1945.8462103997
 20
88.9118638471
 30
0.0
 11
2051.5719860831
 21
88.9118638471
 31
0.0
  0
LINE
  5
45
330
1F
100
AcDbEntity
  8
0
  6
Continuous
 62
     7
 48
5.0
370
     0
100
AcDbLine
 10
1552.5210566946
 20
25.1971758652
 30
0.0
 11
1552.5210566946
 21
37.6366686946
 31
0.0
  0
LINE
  5
46
330
1F
100
AcDbEntity
  8
0
  6
Continuous
 62
     7
 48
5.0
370
     0
100
AcDbLine
 10
1538.3070694703
 20
179.5845021055
 30
0.0
 11
1752.4938579386
 21
179.5845021055
 31
0.0
  0
LINE
  5
47
330
1F
100
AcDbEntity
  8
0
  6
Continuous
 62
     7
 48
5.0
370
     0
100
AcDbLine
 10
1538.3070694703
 20
151.1680021055
 30
0.0
 11
2072.5210566946
 21
151.1680021055
 31
0.0
  0
LINE
  5
48
330
1F
100
AcDbEntity
  8
0
  6
Continuous
 62
     7
 48
5.0
370
     0
100
AcDbLine
 10
1802.5210566946
 20
25.1971758652
 30
0.0
 11
1802.5210566946
 21
37.6366686946
 31
0.0
  0
LINE
  5
49
330
1F
100
AcDbEntity
  8
SLD-0
 62
     7
 48
5.0
100
AcDbLine
 10
1977.9712103997
 20
112.9380994987
 30
0.0
 11
1977.9712103997
 21
66.0913236653
 31
0.0
  0
LINE
  5
4A
330
1F
100
AcDbEntity
  8
SLD-0
 62
     7
 48
5.0
100
AcDbLine
 10
1447.9271796355
 20
101.5044700497
 30
0.0
 11
1447.9271796355
 21
229.2692413204
 31
0.0
  0
LINE
  5
4B
330
1F
100
AcDbEntity
  8
SLD-0
 62
     7
 48
5.0
100
AcDbLine
 10
2007.9712103997
 20
98.9118638471
 30
0.0
 11
2007.9712103997
 21
78.9118638471
 31
0.0
  0
LINE
  5
4C
330
1F
100
AcDbEntity
  8
SLD-0
 62
     7
 48
5.0
100
AcDbLine
 10
2037.9712103997
 20
108.9118638471
 30
0.0
 11
2037.9712103997
 21
68.9118638471
 31
0.0
  0
LINE
  5
4D
330
1F
100
AcDbEntity
  8
SLD-0
 62
     7
 48
5.0
100
AcDbLine
 10
2037.9712103997
 20
68.9118638471
 30
0.0
 11
2007.9712103997
 21
78.9118638471
 31
0.0
  0
LINE
  5
4E
330
1F
100
AcDbEntity
  8
SLD-0
 62
     7
 48
5.0
100
AcDbLine
 10
2037.9712103997
 20
108.9118638471
 30
0.0
 11
2007.9712103997
 21
98.9118638471
 31
0.0
  0
LINE
  5
4F
330
1F
100
AcDbEntity
  8
SLD-0
 62
     7
 48
5.0
370
     0
100
AcDbLine
 10
1538.0787246358
 20
1275.0000849161
 30
0.0
 11
2060.0682223389
 21
1275.0000849161
 31
0.0
  0
LINE
  5
50
330
1F
100
AcDbEntity
  8
SLD-0
 62
     7
 48
5.0
370
     0
100
AcDbLine
 10
1538.0787246358
 20
1253.7500849161
 30
0.0
 11
2060.0682223389
 21
1253.7500849161
 31
0.0
  0
LINE
  5
51
330
1F
100
AcDbEntity
  8
SLD-0
 62
     7
 48
5.0
370
     0
100
AcDbLine
 10
1538.0787246358
 20
1381.2500849161
 30
0.0
 11
2060.0535505923
 21
1381.2500849161
 31
0.0
  0
LINE
  5
52
330
1F
100
AcDbEntity
  8
SLD-0
 62
     7
 48
5.0
370
     0
100
AcDbLine
 10
1752.4938579386
 20
37.6371624535
 30
0.0
 11
1752.4938579386
 21
229.2692413213
 31
0.0
  0
LINE
  5
53
330
1F
100
AcDbEntity
  8
0
  6
Continuous
 62
     7
 48
5.0
370
     0
100
AcDbLine
 10
1277.5668430223
 20
58.9480488266
 30
0.0
 11
2072.5210566946
 21
58.9480488266
 31
0.0
  0
LINE
  5
54
330
1F
100
AcDbEntity
  8
0
  6
Continuous
 62
     7
 48
5.0
370
     0
100
AcDbLine
 10
1277.5668430223
 20
229.2692413213
 30
0.0
 11
2072.5210566946
 21
229.2692413213
 31
0.0
  0
LINE
  5
55
330
1F
100
AcDbEntity
  8
0
  6
Continuous
 62
     7
 48
5.0
370
     0
100
AcDbLine
 10
1602.342556846
 20
58.9480488266
 30
0.0
 11
1602.342556846
 21
37.6368274412
 31
0.0
  0
LINE
  5
56
330
1F
100
AcDbEntity
  8
SLD-0
 62
     7
 48
5.0
370
     0
100
AcDbLine
 10
2060.2965671734
 20
229.2692413213
 30
0.0
 11
2060.2965671734
 21
1447.6359544798
 31
0.0
  0
LINE
  5
57
330
1F
100
AcDbEntity
  8
0
  6
Continuous
 62
     7
 48
5.0
370
     0
100
AcDbLine
 10
1538.3070694703
 20
144.1256194162
 30
0.0
 11
1277.5668430223
 21
144.1256194162
 31
0.0
  0
LINE
  5
58
330
1F
100
AcDbEntity
  8
SLD-0
 62
     7
 48
5.0
370
     0
100
AcDbLine
 10
40.0210566946
 20
1447.6359544798
 30
0.0
 11
2060.2965671734
 21
1447.6359544798
 31
0.0
  0
LINE
  5
59
330
1F
100
AcDbEntity
  8
0
  6
Continuous
 62
     7
 48
5.0
370
     0
100
AcDbLine
 10
1538.3070694703
 20
186.6868408016
 30
0.0
 11
1277.5668430223
 21
186.6868408016
 31
0.0
  0
LINE
  5
5A
330
1F
100
AcDbEntity
  8
0
  6
Continuous
 62
     7
 48
5.0
370
     0
100
AcDbLine
 10
1752.4938579386
 20
208.0010021055
 30
0.0
 11
1277.5668430223
 21
208.0010021055
 31
0.0
  0
LINE
  5
5B
330
1F
100
AcDbEntity
  8
0
  6
Continuous
 62
     7
 48
5.0
370
     0
100
AcDbLine
 10
1277.5668430223
 20
122.8265961042
 30
0.0
 11
1544.3693117553
 21
122.8265961042
 31
0.0
  0
LINE
  5
5C
330
1F
100
AcDbEntity
  8
0
  6
Continuous
 62
     7
 48
5.0
370
     0
100
AcDbLine
 10
1538.3070694703
 20
37.6368274412
 30
0.0
 11
1538.3070694703
 21
229.2692413213
 31
0.0
  0
LINE
  5
5D
330
1F
100
AcDbEntity
  8
0
  6
Continuous
 62
     7
 48
5.0
370
     0
100
AcDbLine
 10
1490.9101015699
 20
229.2692413213
 30
0.0
 11
1490.9101015699
 21
101.5044700497
 31
0.0
  0
LINE
  5
5E
330
1F
100
AcDbEntity
  8
SLD-0
 62
     7
 48
5.0
370
     0
100
AcDbLine
 10
1538.0787246358
 20
1296.2500849161
 30
0.0
 11
2060.0682223389
 21
1296.2500849161
 31
0.0
  0
LINE
  5
5F
330
1F
100
AcDbEntity
  8
SLD-0
 62
     7
 48
5.0
370
     0
100
AcDbLine
 10
1538.0787246358
 20
1317.5000849161
 30
0.0
 11
2060.0633317567
 21
1317.5000849161
 31
0.0
  0
LINE
  5
60
330
1F
100
AcDbEntity
  8
SLD-0
 62
     7
 48
5.0
370
     0
100
AcDbLine
 10
1538.0787246358
 20
1338.7500849161
 30
0.0
 11
2060.0584411745
 21
1338.7500849161
 31
0.0
  0
LINE
  5
61
330
1F
100
AcDbEntity
  8
SLD-0
 62
     7
 48
5.0
370
     0
100
AcDbLine
 10
1538.0787246358
 20
1360.0000849161
 30
0.0
 11
2060.0535505923
 21
1360.0000849161
 31
0.0
  0
LINE
  5
62
330
1F
100
AcDbEntity
  8
SLD-0
 62
     7
 48
5.0
370
     0
100
AcDbLine
 10
1538.3266317991
 20
1447.6359544798
 30
0.0
 11
2060.2965671734
 21
1447.6359544798
 31
0.0
  0
LINE
  5
63
330
1F
100
AcDbEntity
  8
SLD-0
 62
     7
 48
5.0
370
     0
100
AcDbLine
 10
1799.0661376141
 20
1360.0000849161
 30
0.0
 11
1799.0661376141
 21
1253.7500849161
 31
0.0
  0
LINE
  5
64
330
1F
100
AcDbEntity
  8
SLD-0
 62
     7
 48
5.0
100
AcDbLine
 10
1538.0787246358
 20
1253.7500849161
 30
0.0
 11
1538.0787246358
 21
1447.6359544798
 31
0.0
  0
LINE
  5
65
330
1F
100
AcDbEntity
  8
0
  6
Continuous
 62
     7
 48
5.0
370
     0
100
AcDbLine
 10
1339.2263178258
 20
101.5044700497
 30
0.0
 11
1339.2263178258
 21
229.2692413213
 31
0.0
  0
LINE
  5
66
330
1F
100
AcDbEntity
  8
0
  6
Continuous
 62
     7
 48
5.0
370
     0
100
AcDbLine
 10
1538.3070694703
 20
80.1980488266
 30
0.0
 11
40.0210566946
 21
80.1980488266
 31
0.0
  0
LINE
  5
67
330
1F
100
AcDbEntity
  8
0
  6
Continuous
 62
     7
 48
5.0
370
     0
100
AcDbLine
 10
1664.4517402443
 20
208.0010021055
 30
0.0
 11
1664.4517402443
 21
122.7366791953
 31
0.0
  0
LINE
  5
68
330
1F
100
AcDbEntity
  8
0
  6
Continuous
 62
     7
 48
5.0
370
     0
100
AcDbLine
 10
1538.3070694703
 20
101.5044700497
 30
0.0
 11
1277.5668430223
 21
101.5044700497
 31
0.0
  0
LINE
  5
69
330
1F
100
AcDbEntity
  8
0
  6
Continuous
 62
     7
 48
5.0
370
     0
100
AcDbLine
 10
1544.3843174638
 20
122.7366791953
 30
0.0
 11
2072.5210566946
 21
122.7366791953
 31
0.0
  0
LINE
  5
6A
330
1F
100
AcDbEntity
  8
0
  6
Continuous
 62
     7
 48
5.0
370
     0
100
AcDbLine
 10
1915.1167346508
 20
37.6980488266
 30
0.0
 11
1915.1167346508
 21
122.7366791953
 31
0.0
  0
LINE
  5
6B
330
1F
100
AcDbEntity
  8
0
  6
Continuous
 62
     7
 48
5.0
370
     0
100
AcDbLine
 10
2072.5210566946
 20
1460.1359544798
 30
0.0
 11
27.5210566946
 21
1460.1359544798
 31
0.0
  0
LINE
  5
6C
330
1F
100
AcDbEntity
  8
0
  6
Continuous
 62
     7
 48
5.0
370
     0
100
AcDbLine
 10
27.5210566946
 20
1460.1359544798
 30
0.0
 11
27.5210566946
 21
25.1359544798
 31
0.0
  0
LINE
  5
6D
330
1F
100
AcDbEntity
  8
0
  6
Continuous
 62
     7
 48
5.0
370
     0
100
AcDbLine
 10
40.0210566946
 20
1447.6359544798
 30
0.0
 11
40.0210566946
 21
37.6359544798
 31
0.0
  0
LINE
  5
6E
330
1F
100
AcDbEntity
  8
0
  6
Continuous
 62
     7
 48
5.0
370
     0
100
AcDbLine
 10
40.0210566946
 20
242.6971758652
 30
0.0
 11
27.5210566946
 21
242.6971758652
 31
0.0
  0
LINE
  5
6F
330
1F
100
AcDbEntity
  8
0
  6
Continuous
 62
     7
 48
5.0
370
     0
100
AcDbLine
 10
27.5210566946
 20
492.6971758652
 30
0.0
 11
40.0210566946
 21
492.6971758652
 31
0.0
  0
LINE
  5
70
330
1F
100
AcDbEntity
  8
0
  6
Continuous
 62
     7
 48
5.0
370
     0
100
AcDbLine
 10
27.5210566946
 20
992.6971758652
 30
0.0
 11
40.0210566946
 21
992.6971758652
 31
0.0
  0
LINE
  5
71
330
1F
100
AcDbEntity
  8
0
  6
Continuous
 62
     7
 48
5.0
370
     0
100
AcDbLine
 10
27.5210566946
 20
742.6971758652
 30
0.0
 11
40.0210566946
 21
742.6359544798
 31
0.0
  0
LINE
  5
72
330
1F
100
AcDbEntity
  8
0
  6
Continuous
 62
     7
 48
5.0
370
     0
100
AcDbLine
 10
27.5210566946
 20
25.1359544798
 30
0.0
 11
2072.5210566946
 21
25.1359544798
 31
0.0
  0
LINE
  5
73
330
1F
100
AcDbEntity
  8
0
  6
Continuous
 62
     7
 48
5.0
370
     0
100
AcDbLine
 10
40.0210566946
 20
37.6359544798
 30
0.0
 11
2072.5210566946
 21
37.6373881998
 31
0.0
  0
LINE
  5
74
330
1F
100
AcDbEntity
  8
0
  6
Continuous
 62
     7
 48
5.0
370
     0
100
AcDbLine
 10
302.5210566946
 20
25.1971758652
 30
0.0
 11
302.5210566946
 21
37.6361396466
 31
0.0
  0
LINE
  5
75
330
1F
100
AcDbEntity
  8
0
  6
Continuous
 62
     7
 48
5.0
370
     0
100
AcDbLine
 10
552.5210566946
 20
37.6363159959
 30
0.0
 11
552.5210566946
 21
25.1971758652
 31
0.0
  0
LINE
  5
76
330
1F
100
AcDbEntity
  8
0
  6
Continuous
 62
     7
 48
5.0
370
     0
100
AcDbLine
 10
802.5210566946
 20
25.1971758652
 30
0.0
 11
802.5210566946
 21
37.6364923452
 31
0.0
  0
LINE
  5
77
330
1F
100
AcDbEntity
  8
0
  6
Continuous
 62
     7
 48
5.0
370
     0
100
AcDbLine
 10
40.0210566946
 20
1242.6971758652
 30
0.0
 11
27.5210566946
 21
1242.6971758652
 31
0.0
  0
LINE
  5
78
330
1F
100
AcDbEntity
  8
0
  6
Continuous
 62
     7
 48
5.0
370
     0
100
AcDbLine
 10
302.5210566946
 20
1447.6359544798
 30
0.0
 11
302.5210566946
 21
1460.1971758652
 31
0.0
  0
LINE
  5
79
330
1F
100
AcDbEntity
  8
0
  6
Continuous
 62
     7
 48
5.0
370
     0
100
AcDbLine
 10
552.5210566946
 20
1460.1971758652
 30
0.0
 11
552.5210566946
 21
1447.6359544798
 31
0.0
  0
LINE
  5
7A
330
1F
100
AcDbEntity
  8
0
  6
Continuous
 62
     7
 48
5.0
370
     0
100
AcDbLine
 10
802.5210566946
 20
1447.6359544798
 30
0.0
 11
802.5210566946
 21
1460.1971758652
 31
0.0
  0
LINE
  5
7B
330
1F
100
AcDbEntity
  8
0
  6
Continuous
 62
     7
 48
5.0
370
     0
100
AcDbLine
 10
1302.5210566946
 20
1447.6359544798
 30
0.0
 11
1302.5210566946
 21
1460.1971758652
 31
0.0
  0
LINE
  5
7C
330
1F
100
AcDbEntity
  8
0
  6
Continuous
 62
     7
 48
5.0
370
     0
100
AcDbLine
 10
2072.5210566946
 20
25.1359544798
 30
0.0
 11
2072.5210566946
 21
1460.1359544798
 31
0.0
  0
LINE
  5
7D
330
1F
100
AcDbEntity
  8
0
  6
Continuous
 62
     7
 48
5.0
370
     0
100
AcDbLine
 10
1052.5210566946
 20
25.1971758652
 30
0.0
 11
1052.5210566946
 21
37.6366686946
 31
0.0
  0
LINE
  5
7E
330
1F
100
AcDbEntity
  8
0
  6
Continuous
 62
     7
 48
5.0
370
     0
100
AcDbLine
 10
2060.1257585999
 20
992.6971758652
 30
0.0
 11
2072.5210566946
 21
992.6971758652
 31
0.0
  0
LINE
  5
7F
330
1F
100
AcDbEntity
  8
0
  6
Continuous
 62
     7
 48
5.0
370
     0
100
AcDbLine
 10
2060.2408311219
 20
492.6971758652
 30
0.0
 11
2072.5210566946
 21
492.6971758652
 31
0.0
  0
LINE
  5
80
330
1F
100
AcDbEntity
  8
0
  6
Continuous
 62
     7
 48
5.0
370
     0
100
AcDbLine
 10
2072.5210566946
 20
742.6971758652
 30
0.0
 11
2060.1832948609
 21
742.6971758652
 31
0.0
  0
LINE
  5
81
330
1F
100
AcDbEntity
  8
0
  6
Continuous
 62
     7
 48
5.0
370
     0
100
AcDbLine
 10
1552.5210566946
 20
1460.1971758652
 30
0.0
 11
1552.5210566946
 21
1447.6359544798
 31
0.0
  0
LINE
  5
82
330
1F
100
AcDbEntity
  8
0
  6
Continuous
 62
     7
 48
5.0
370
     0
100
AcDbLine
 10
1802.5210566946
 20
1447.6359544798
 30
0.0
 11
1802.5210566946
 21
1460.1971758652
 31
0.0
  0
LINE
  5
83
330
1F
100
AcDbEntity
  8
0
  6
Continuous
 62
     7
 48
5.0
370
     0
100
AcDbLine
 10
1052.5210566946
 20
1460.1971758652
 30
0.0
 11
1052.5210566946
 21
1447.6359544798
 31
0.0
  0
LINE
  5
84
330
1F
100
AcDbEntity
  8
0
  6
Continuous
 62
     7
 48
5.0
370
     0
100
AcDbLine
 10
2072.5210566946
 20
1242.6971758652
 30
0.0
 11
2060.0682223389
 21
1242.6971758652
 31
0.0
  0
LINE
  5
85
330
1F
100
AcDbEntity
  8
0
  6
Continuous
 62
     7
 48
5.0
370
     0
100
AcDbLine
 10
1277.5668430223
 20
37.6368274412
 30
0.0
 11
1277.5668430223
 21
229.2692413213
 31
0.0
  0
CIRCLE
  5
86
330
1F
100
AcDbEntity
  8
SLD-0
 62
     7
 48
5.0
100
AcDbCircle
 10
1977.9712103997
 20
88.9118638471
 30
0.0
 40
20.00000000000027
  0
CIRCLE
  5
87
330
1F
100
AcDbEntity
  8
SLD-0
 62
     7
 48
5.0
100
AcDbCircle
 10
1977.9712103997
 20
88.9118638471
 30
0.0
 40
10.00000000000003
  0
SPLINE
  5
88
330
1F
100
AcDbEntity
  8
0
  6
Continuous
 62
     7
 48
5.0
370
     0
100
AcDbSpline
210
0.0
220
0.0
230
1.0
 70
     8
 71
     3
 72
    12
 73
     8
 74
     0
 42
0.00000001
 43
0.00000001
 40
0.0
 40
0.0
 40
0.0
 40
0.0
 40
1.0
 40
1.0
 40
1.241335226759749
 40
1.241335226759749
 40
2.113474220859311
 40
2.113474220859311
 40
2.113474220859311
 40
2.113474220859311
 10
1721.569929790733
 20
1436.161292345821
 30
0.0
 10
1721.569929790733
 20
1431.44254234582
 30
0.0
 10
1721.569929790733
 20
1422.005042345821
 30
0.0
 10
1721.569929790733
 20
1416.147491744543
 30
0.0
 10
1722.312121727756
 20
1416.411292345821
 30
0.0
 10
1727.538679790733
 20
1416.411292345821
 30
0.0
 10
1735.726179790733
 20
1416.411292345821
 30
0.0
 10
1739.819929790734
 20
1416.411292345821
 30
0.0
  0
SPLINE
  5
89
330
1F
100
AcDbEntity
  8
0
  6
Continuous
 62
     7
 48
5.0
370
     0
100
AcDbSpline
210
0.0
220
0.0
230
1.0
 70
     8
 71
     3
 72
    28
 73
    24
 74
     0
 42
0.00000001
 43
0.00000001
 40
0.0
 40
0.0
 40
0.0
 40
0.0
 40
1.0
 40
1.0
 40
1.168746068778429
 40
1.168746068778429
 40
1.412515695425715
 40
1.412515695425715
 40
1.582064190737284
 40
1.582064190737284
 40
1.77439354586487
 40
1.77439354586487
 40
1.889422462757462
 40
1.889422462757462
 40
2.197132065263336
 40
2.197132065263336
 40
2.244524612534029
 40
2.244524612534029
 40
2.910628262040504
 40
2.910628262040504
 40
3.091776736444573
 40
3.091776736444573
 40
3.286668272263152
 40
3.286668272263152
 40
3.286668272263152
 40
3.286668272263152
 10
1770.569929790733
 20
1436.161292345821
 30
0.0
 10
1776.663679790733
 20
1436.161292345821
 30
0.0
 10
1788.851179790734
 20
1436.161292345821
 30
0.0
 10
1795.973226147352
 20
1436.161292345821
 30
0.0
 10
1798.042636212814
 20
1435.462693976771
 30
0.0
 10
1800.24837804414
 20
1434.114740635406
 30
0.0
 10
1800.523378080318
 20
1433.839740599228
 30
0.0
 10
1801.873953463802
 20
1431.629708153527
 30
0.0
 10
1802.319929790733
 20
1429.333136380869
 30
0.0
 10
1802.319929790733
 20
1427.098792345821
 30
0.0
 10
1802.319929790733
 20
1424.723792345821
 30
0.0
 10
1802.319929790733
 20
1422.826068788318
 30
0.0
 10
1801.8808881727
 20
1421.158209109753
 30
0.0
 10
1800.738096520475
 20
1418.872625805303
 30
0.0
 10
1800.305441814609
 20
1418.145494138189
 30
0.0
 10
1798.446883364496
 20
1417.009708418675
 30
0.0
 10
1796.492865842873
 20
1416.411292345821
 30
0.0
 10
1792.007429790733
 20
1416.411292345821
 30
0.0
 10
1783.632429790734
 20
1416.411292345821
 30
0.0
 10
1778.306129189456
 20
1416.411292345821
 30
0.0
 10
1778.569929790733
 20
1415.669100408797
 30
0.0
 10
1778.569929790733
 20
1413.317542345821
 30
0.0
 10
1778.569929790733
 20
1410.880042345821
 30
0.0
 10
1778.569929790733
 20
1409.661292345821
 30
0.0
  0
SPLINE
  5
8A
330
1F
100
AcDbEntity
  8
0
  6
Continuous
 62
     7
 48
5.0
370
     0
100
AcDbSpline
210
0.0
220
0.0
230
1.0
 70
    24
 71
     3
 72
     8
 73
     4
 74
     0
 42
0.00000001
 43
0.00000001
 40
0.0
 40
0.0
 40
0.0
 40
0.0
 40
1.0
 40
1.0
 40
1.0
 40
1.0
 10
1804.569929790734
 20
1409.661292345821
 30
0.0
 10
1804.569929790734
 20
1416.286292345821
 30
0.0
 10
1804.569929790734
 20
1429.536292345821
 30
0.0
 10
1804.569929790733
 20
1436.161292345821
 30
0.0
  0
SPLINE
  5
8B
330
1F
100
AcDbEntity
  8
0
  6
Continuous
 62
     7
 48
5.0
370
     0
100
AcDbSpline
210
0.0
220
0.0
230
1.0
 70
     8
 71
     3
 72
    13
 73
     9
 74
     0
 42
0.00000001
 43
0.00000001
 40
6.994583310586967
 40
6.994583310586967
 40
6.994583310586967
 40
6.994583310586967
 40
8.263032086747977
 40
8.263032086747977
 40
9.337265738279882
 40
9.337265738279882
 40
13.36192003420669
 40
13.90557664944336
 40
13.90557664944336
 40
13.90557664944336
 40
13.90557664944336
 10
1879.444929790733
 20
1414.348792345821
 30
0.0
 10
1878.498966965647
 20
1413.875810933277
 30
0.0
 10
1877.719960356829
 20
1414.906796908524
 30
0.0
 10
1878.712606037042
 20
1416.531126203416
 30
0.0
 10
1880.077692846511
 20
1417.669055401599
 30
0.0
 10
1883.007429790733
 20
1420.598792345821
 30
0.0
 10
1888.303793595034
 20
1425.915919455445
 30
0.0
 10
1890.514893065612
 20
1428.100646140996
 30
0.0
 10
1890.944929790733
 20
1428.16129234582
 30
0.0
  0
SPLINE
  5
8C
330
1F
100
AcDbEntity
  8
0
  6
Continuous
 62
     7
 48
5.0
370
     0
100
AcDbSpline
210
0.0
220
0.0
230
1.0
 70
     8
 71
     3
 72
    14
 73
    10
 74
     0
 42
0.00000001
 43
0.00000001
 40
0.0
 40
0.0
 40
0.0
 40
0.0
 40
1.0
 40
1.0
 40
1.33500510001238
 40
1.33500510001238
 40
1.403026758136445
 40
1.403026758136445
 40
1.760664727461603
 40
1.760664727461603
 40
1.760664727461603
 40
1.760664727461603
 10
1813.194929790733
 20
1429.661292345821
 30
0.0
 10
1816.444929790733
 20
1429.661292345821
 30
0.0
 10
1822.944929790734
 20
1429.661292345821
 30
0.0
 10
1827.283696365775
 20
1429.661292345821
 30
0.0
 10
1828.930615700421
 20
1428.935633590898
 30
0.0
 10
1829.09821704792
 20
1427.552922474031
 30
0.0
 10
1829.062224453014
 20
1425.005470994943
 30
0.0
 10
1828.719335494092
 20
1423.633915159254
 30
0.0
 10
1827.281169491637
 20
1423.16129234582
 30
0.0
 10
1826.194929790734
 20
1423.16129234582
 30
0.0
  0
SPLINE
  5
8D
330
1F
100
AcDbEntity
  8
0
  6
Continuous
 62
     7
 48
5.0
370
     0
100
AcDbSpline
210
0.0
220
0.0
230
1.0
 70
     8
 71
     3
 72
    28
 73
    24
 74
     0
 42
0.00000001
 43
0.00000001
 40
7.177624544153768
 40
7.177624544153768
 40
7.177624544153768
 40
7.177624544153768
 40
7.784414558614852
 40
7.784414558614852
 40
7.9339382267423
 40
7.9339382267423
 40
8.43747591621979
 40
8.43747591621979
 40
8.590087632700616
 40
8.590087632700616
 40
10.69389630233172
 40
10.69389630233172
 40
11.36533964243115
 40
11.36533964243115
 40
11.62365047664612
 40
11.62365047664612
 40
12.11020206830591
 40
12.11020206830591
 40
12.28574307502375
 40
12.28574307502375
 40
13.39612169509837
 40
13.39612169509837
 40
14.70516763730073
 40
14.70516763730073
 40
14.70516763730073
 40
14.70516763730073
 10
1888.944929790734
 20
1410.098792345822
 30
0.0
 10
1887.727422994871
 20
1409.654566893277
 30
0.0
 10
1886.978820259598
 20
1409.316915432956
 30
0.0
 10
1885.378556732834
 20
1409.122944096378
 30
0.0
 10
1884.763618510333
 20
1408.911292345821
 30
0.0
 10
1883.371709854777
 20
1408.911292345821
 30
0.0
 10
1882.206419145276
 20
1408.845920007185
 30
0.0
 10
1880.888368574316
 20
1409.175432649925
 30
0.0
 10
1880.251491007152
 20
1409.209652041716
 30
0.0
 10
1875.718870614191
 20
1410.342807139956
 30
0.0
 10
1872.505229530772
 20
1413.165692865743
 30
0.0
 10
1869.952267101011
 20
1418.271617725265
 30
0.0
 10
1869.697687198481
 20
1419.775262714829
 30
0.0
 10
1869.261147175918
 20
1421.521422805079
 30
0.0
 10
1869.257240083582
 20
1424.51910226182
 30
0.0
 10
1869.438011468914
 20
1426.01046619081
 30
0.0
 10
1870.241961588263
 20
1428.692798923596
 30
0.0
 10
1870.943403506048
 20
1429.840612970881
 30
0.0
 10
1871.230941436786
 20
1430.500974540558
 30
0.0
 10
1872.798505787666
 20
1432.59106034173
 30
0.0
 10
1873.706192736748
 20
1433.883453035052
 30
0.0
 10
1878.039488775897
 20
1436.531578392309
 30
0.0
 10
1878.539729288624
 20
1436.497492220293
 30
0.0
 10
1881.194929790733
 20
1437.161292345821
 30
0.0
  0
SPLINE
  5
8E
330
1F
100
AcDbEntity
  8
0
  6
Continuous
 62
     7
 48
5.0
370
     0
100
AcDbSpline
210
0.0
220
0.0
230
1.0
 70
     8
 71
     3
 72
    14
 73
    10
 74
     0
 42
0.00000001
 43
0.00000001
 40
0.0
 40
0.0
 40
0.0
 40
0.0
 40
1.0
 40
1.0
 40
2.048347280982775
 40
2.048347280982775
 40
5.339097901013091
 40
5.339097901013091
 40
6.994583310586967
 40
6.994583310586967
 40
6.994583310586967
 40
6.994583310586967
 10
1890.944929790733
 20
1428.16129234582
 30
0.0
 10
1891.776194964058
 20
1428.262051760769
 30
0.0
 10
1892.316614392122
 20
1427.496776239001
 30
0.0
 10
1891.427253544425
 20
1426.041458488225
 30
0.0
 10
1890.062166734956
 20
1424.903529290043
 30
0.0
 10
1887.507429790734
 20
1422.348792345821
 30
0.0
 10
1883.632429790734
 20
1418.473792345821
 30
0.0
 10
1880.720227252798
 20
1415.561589807885
 30
0.0
 10
1880.679530418178
 20
1414.966092659543
 30
0.0
 10
1879.444929790733
 20
1414.348792345821
 30
0.0
  0
SPLINE
  5
8F
330
1F
100
AcDbEntity
  8
0
  6
Continuous
 62
     7
 48
5.0
370
     0
100
AcDbSpline
210
0.0
220
0.0
230
1.0
 70
    24
 71
     3
 72
     8
 73
     4
 74
     0
 42
0.00000001
 43
0.00000001
 40
0.0
 40
0.0
 40
0.0
 40
0.0
 40
1.0
 40
1.0
 40
1.0
 40
1.0
 10
1899.319929790733
 20
1409.161292345821
 30
0.0
 10
1899.319929790733
 20
1415.848792345821
 30
0.0
 10
1899.319929790733
 20
1429.223792345821
 30
0.0
 10
1899.319929790733
 20
1435.911292345821
 30
0.0
  0
SPLINE
  5
90
330
1F
100
AcDbEntity
  8
0
  6
Continuous
 62
     7
 48
5.0
370
     0
100
AcDbSpline
210
0.0
220
0.0
230
1.0
 70
    24
 71
     3
 72
     8
 73
     4
 74
     0
 42
0.00000001
 43
0.00000001
 40
0.0
 40
0.0
 40
0.0
 40
0.0
 40
1.0
 40
1.0
 40
1.0
 40
1.0
 10
1899.319929790733
 20
1435.911292345821
 30
0.0
 10
1906.257429790733
 20
1435.911292345821
 30
0.0
 10
1920.132429790734
 20
1435.911292345821
 30
0.0
 10
1927.069929790733
 20
1435.911292345821
 30
0.0
  0
SPLINE
  5
91
330
1F
100
AcDbEntity
  8
0
  6
Continuous
 62
     7
 48
5.0
370
     0
100
AcDbSpline
210
0.0
220
0.0
230
1.0
 70
     8
 71
     3
 72
    16
 73
    12
 74
     0
 42
0.00000001
 43
0.00000001
 40
0.0
 40
0.0
 40
0.0
 40
0.0
 40
1.0
 40
1.0
 40
1.443816106154787
 40
1.443816106154787
 40
2.608785683516992
 40
2.608785683516992
 40
2.921624970703356
 40
2.921624970703356
 40
3.106177123422559
 40
3.106177123422559
 40
3.106177123422559
 40
3.106177123422559
 10
1862.944929790733
 20
1423.473792345821
 30
0.0
 10
1864.107631085115
 20
1422.453462638505
 30
0.0
 10
1863.401570509877
 20
1420.949573784109
 30
0.0
 10
1862.381311258315
 20
1418.909055280984
 30
0.0
 10
1859.964897370546
 20
1415.98876803068
 30
0.0
 10
1858.080070779738
 20
1414.575148087574
 30
0.0
 10
1857.763292220691
 20
1414.2579735608
 30
0.0
 10
1855.773763955874
 20
1413.263209428391
 30
0.0
 10
1854.375429590766
 20
1412.66129234582
 30
0.0
 10
1853.690966595904
 20
1412.66129234582
 30
0.0
 10
1852.73191578769
 20
1413.203024635448
 30
0.0
 10
1852.569929790733
 20
1413.411292345821
 30
0.0
  0
SPLINE
  5
92
330
1F
100
AcDbEntity
  8
0
  6
Continuous
 62
     7
 48
5.0
370
     0
100
AcDbSpline
210
0.0
220
0.0
230
1.0
 70
     8
 71
     3
 72
    15
 73
    11
 74
     0
 42
0.00000001
 43
0.00000001
 40
4.053596120036477
 40
4.053596120036477
 40
4.053596120036477
 40
4.053596120036477
 40
5.032777806267956
 40
5.032777806267956
 40
5.797979497134678
 40
5.797979497134678
 40
6.863671503482389
 40
6.863671503482389
 40
7.022260398743382
 40
7.066587342528279
 40
7.066587342528279
 40
7.066587342528279
 40
7.066587342528279
 10
1687.19492979073
 20
1420.161292345821
 30
0.0
 10
1686.009695361668
 20
1420.161292345821
 30
0.0
 10
1686.456805391082
 20
1420.810043546519
 30
0.0
 10
1687.326384653725
 20
1422.549202071804
 30
0.0
 10
1688.125154310035
 20
1424.05847792286
 30
0.0
 10
1689.189366051862
 20
1425.799915318577
 30
0.0
 10
1690.163679790733
 20
1427.973792345821
 30
0.0
 10
1690.773986732238
 20
1429.194406228829
 30
0.0
 10
1690.989058853067
 20
1429.642842773491
 30
0.0
 10
1691.342901319981
 20
1429.503438698885
 30
0.0
 10
1691.382429790733
 20
1429.473792345821
 30
0.0
  0
SPLINE
  5
93
330
1F
100
AcDbEntity
  8
0
  6
Continuous
 62
     7
 48
5.0
370
     0
100
AcDbSpline
210
0.0
220
0.0
230
1.0
 70
     8
 71
     3
 72
    12
 73
     8
 74
     0
 42
0.00000001
 43
0.00000001
 40
7.292439914004937
 40
7.292439914004937
 40
7.292439914004937
 40
7.292439914004937
 40
8.498376209858383
 40
8.498376209858383
 40
13.15361874734218
 40
13.15361874734218
 40
13.86069346603828
 40
13.86069346603828
 40
13.86069346603828
 40
13.86069346603828
 10
1848.007429790733
 20
1414.78629234582
 30
0.0
 10
1847.564813013401
 20
1415.510574345092
 30
0.0
 10
1848.813497658578
 20
1416.654860213665
 30
0.0
 10
1851.882429790733
 20
1419.723792345821
 30
0.0
 10
1856.757429790734
 20
1424.598792345821
 30
0.0
 10
1859.56515639288
 20
1427.406518947967
 30
0.0
 10
1860.427218171203
 20
1428.08828173281
 30
0.0
 10
1860.944929790733
 20
1428.16129234582
 30
0.0
  0
SPLINE
  5
94
330
1F
100
AcDbEntity
  8
0
  6
Continuous
 62
     7
 48
5.0
370
     0
100
AcDbSpline
210
0.0
220
0.0
230
1.0
 70
    24
 71
     3
 72
     8
 73
     4
 74
     0
 42
0.00000001
 43
0.00000001
 40
0.0
 40
0.0
 40
0.0
 40
0.0
 40
1.0
 40
1.0
 40
1.0
 40
1.0
 10
1768.319929790734
 20
1416.411292345821
 30
0.0
 10
1768.319929790733
 20
1414.723792345821
 30
0.0
 10
1768.319929790733
 20
1411.348792345821
 30
0.0
 10
1768.319929790733
 20
1409.66129234582
 30
0.0
  0
SPLINE
  5
95
330
1F
100
AcDbEntity
  8
0
  6
Continuous
 62
     7
 48
5.0
370
     0
100
AcDbSpline
210
0.0
220
0.0
230
1.0
 70
     8
 71
     3
 72
    13
 73
     9
 74
     0
 42
0.00000001
 43
0.00000001
 40
0.0
 40
0.0
 40
0.0
 40
0.0
 40
1.0
 40
1.65720266204859
 40
1.65720266204859
 40
4.900532831976991
 40
4.900532831976991
 40
5.737334603125956
 40
5.737334603125956
 40
5.737334603125956
 40
5.737334603125956
 10
1852.444929790733
 20
1433.16129234582
 30
0.0
 10
1853.20184124788
 20
1433.253039189111
 30
0.0
 10
1854.92030296722
 20
1432.498248609441
 30
0.0
 10
1852.812200393031
 20
1430.903562948119
 30
0.0
 10
1850.632429790733
 20
1428.723792345821
 30
0.0
 10
1847.007429790733
 20
1425.09879234582
 30
0.0
 10
1844.72729216806
 20
1422.818654723148
 30
0.0
 10
1844.244032215253
 20
1422.449445127988
 30
0.0
 10
1843.694929790734
 20
1422.84879234582
 30
0.0
  0
SPLINE
  5
96
330
1F
100
AcDbEntity
  8
0
  6
Continuous
 62
     7
 48
5.0
370
     0
100
AcDbSpline
210
0.0
220
0.0
230
1.0
 70
     8
 71
     3
 72
    16
 73
    12
 74
     0
 42
0.00000001
 43
0.00000001
 40
2.151810981758136
 40
2.151810981758136
 40
2.151810981758136
 40
2.151810981758136
 40
2.498736107481844
 40
2.498736107481844
 40
3.096218268448167
 40
3.096218268448167
 40
3.447399194464757
 40
3.447399194464757
 40
3.621796190045318
 40
3.621796190045318
 40
3.697742383752845
 40
3.697742383752845
 40
3.697742383752845
 40
3.697742383752845
 10
1791.694929790736
 20
1422.911292345821
 30
0.0
 10
1790.578104285945
 20
1422.775919557362
 30
0.0
 10
1788.319929790733
 20
1422.911292345821
 30
0.0
 10
1785.257429790733
 20
1422.911292345821
 30
0.0
 10
1781.382429790733
 20
1422.911292345821
 30
0.0
 10
1778.306129189456
 20
1422.911292345821
 30
0.0
 10
1778.569929790733
 20
1423.653484282843
 30
0.0
 10
1778.569929790733
 20
1425.348846596677
 30
0.0
 10
1778.394885445818
 20
1428.765716441005
 30
0.0
 10
1778.735875316122
 20
1429.512992114225
 30
0.0
 10
1778.939378037027
 20
1429.64546170621
 30
0.0
 10
1779.194929790733
 20
1429.661292345821
 30
0.0
  0
SPLINE
  5
97
330
1F
100
AcDbEntity
  8
0
  6
Continuous
 62
     7
 48
5.0
370
     0
100
AcDbSpline
210
0.0
220
0.0
230
1.0
 70
    24
 71
     3
 72
     8
 73
     4
 74
     0
 42
0.00000001
 43
0.00000001
 40
0.0
 40
0.0
 40
0.0
 40
0.0
 40
1.0
 40
1.0
 40
1.0
 40
1.0
 10
1812.569929790733
 20
1409.661292345821
 30
0.0
 10
1810.569929790734
 20
1409.661292345821
 30
0.0
 10
1806.569929790733
 20
1409.661292345821
 30
0.0
 10
1804.569929790734
 20
1409.661292345821
 30
0.0
  0
SPLINE
  5
98
330
1F
100
AcDbEntity
  8
0
  6
Continuous
 62
     7
 48
5.0
370
     0
100
AcDbSpline
210
0.0
220
0.0
230
1.0
 70
     8
 71
     3
 72
    26
 73
    22
 74
     0
 42
0.00000001
 43
0.00000001
 40
0.0
 40
0.0
 40
0.0
 40
0.0
 40
1.0
 40
1.0
 40
2.726036522393764
 40
2.726036522393764
 40
6.023683855367185
 40
6.023683855367185
 40
6.493653439327393
 40
6.493653439327393
 40
6.948044673042854
 40
6.948044673042854
 40
7.49958836269063
 40
7.49958836269063
 40
8.857967125460934
 40
8.857967125460934
 40
11.28517062707452
 40
11.28517062707452
 40
12.71223171247935
 40
12.71223171247935
 40
12.97891841240773
 40
12.97891841240773
 40
12.97891841240773
 40
12.97891841240773
 10
1850.944929790733
 20
1437.161292345821
 30
0.0
 10
1852.13284090378
 20
1437.161292345821
 30
0.0
 10
1854.542486733572
 20
1437.324403110111
 30
0.0
 10
1857.684088597381
 20
1436.539002644159
 30
0.0
 10
1857.856712155099
 20
1436.580401163637
 30
0.0
 10
1863.206902686395
 20
1433.90530589799
 30
0.0
 10
1865.314667069755
 20
1430.897938321834
 30
0.0
 10
1866.820232892522
 20
1426.771572733512
 30
0.0
 10
1866.881759699574
 20
1426.038972710457
 30
0.0
 10
1867.128934223599
 20
1425.05027461436
 30
0.0
 10
1867.010925357868
 20
1424.022310077282
 30
0.0
 10
1867.279912836705
 20
1422.946360161933
 30
0.0
 10
1867.069929790733
 20
1422.164039632941
 30
0.0
 10
1867.069929790733
 20
1419.990234256107
 30
0.0
 10
1865.994109883597
 20
1416.768532469639
 30
0.0
 10
1863.418569198969
 20
1413.334478223469
 30
0.0
 10
1863.139143757616
 20
1412.592478658916
 30
0.0
 10
1859.257867494878
 20
1410.220587609464
 30
0.0
 10
1857.387866407074
 20
1409.366496784166
 30
0.0
 10
1855.378556732834
 20
1409.122944096378
 30
0.0
 10
1854.763618510333
 20
1408.911292345821
 30
0.0
 10
1854.444929790732
 20
1408.911292345821
 30
0.0
  0
SPLINE
  5
99
330
1F
100
AcDbEntity
  8
0
  6
Continuous
 62
     7
 48
5.0
370
     0
100
AcDbSpline
210
0.0
220
0.0
230
1.0
 70
     8
 71
     3
 72
    10
 73
     6
 74
     0
 42
0.00000001
 43
0.00000001
 40
0.0
 40
0.0
 40
0.0
 40
0.0
 40
1.0
 40
1.0
 40
1.712980572775823
 40
1.712980572775823
 40
1.712980572775823
 40
1.712980572775823
 10
1673.316429582902
 20
1397.91129234582
 30
0.0
 10
1673.316429582902
 20
1396.380042345821
 30
0.0
 10
1673.316429582902
 20
1393.317542345821
 30
0.0
 10
1673.316429582902
 20
1390.694540843753
 30
0.0
 10
1672.654287354957
 20
1390.911292345821
 30
0.0
 10
1671.566429582902
 20
1390.911292345821
 30
0.0
  0
SPLINE
  5
9A
330
1F
100
AcDbEntity
  8
0
  6
Continuous
 62
     7
 48
5.0
370
     0
100
AcDbSpline
210
0.0
220
0.0
230
1.0
 70
     8
 71
     3
 72
    28
 73
    24
 74
     0
 42
0.00000001
 43
0.00000001
 40
0.0
 40
0.0
 40
0.0
 40
0.0
 40
1.0
 40
1.0
 40
1.223183430082013
 40
1.223183430082013
 40
1.468703424703174
 40
1.468703424703174
 40
1.767037285506711
 40
1.767037285506711
 40
1.954745878792804
 40
1.954745878792804
 40
1.992051694823966
 40
1.992051694823966
 40
2.048647063240962
 40
2.048647063240962
 40
2.238896646781714
 40
2.238896646781714
 40
2.266595226821894
 40
2.266595226821894
 40
2.330993117341893
 40
2.330993117341893
 40
2.49947700213617
 40
2.49947700213617
 40
2.49947700213617
 40
2.49947700213617
 10
1804.569929790733
 20
1436.161292345821
 30
0.0
 10
1811.163679790733
 20
1436.161292345821
 30
0.0
 10
1824.351179790733
 20
1436.161292345821
 30
0.0
 10
1832.416545532838
 20
1436.161292345821
 30
0.0
 10
1834.96933626527
 20
1435.075899932943
 30
0.0
 10
1836.624397011654
 20
1432.367618711588
 30
0.0
 10
1837.069929790733
 20
1430.957480375761
 30
0.0
 10
1837.069929790733
 20
1427.255614649411
 30
0.0
 10
1837.370194761037
 20
1424.636822286429
 30
0.0
 10
1835.862762598832
 20
1421.621957962019
 30
0.0
 10
1835.365271047103
 20
1421.246462974006
 30
0.0
 10
1833.962332364909
 20
1420.544993632908
 30
0.0
 10
1833.266356388597
 20
1420.353266005967
 30
0.0
 10
1833.401204153653
 20
1419.712739121954
 30
0.0
 10
1834.358328035227
 20
1419.616993418631
 30
0.0
 10
1835.82644188436
 20
1418.719812733049
 30
0.0
 10
1836.247412351355
 20
1418.012821624116
 30
0.0
 10
1836.760084191512
 20
1416.607721025169
 30
0.0
 10
1836.819929790734
 20
1416.226378674892
 30
0.0
 10
1836.819929790734
 20
1415.594350607579
 30
0.0
 10
1837.069929790733
 20
1414.728234084062
 30
0.0
 10
1837.069929790733
 20
1413.13004234582
 30
0.0
 10
1837.069929790733
 20
1410.81754234582
 30
0.0
 10
1837.069929790733
 20
1409.661292345821
 30
0.0
  0
SPLINE
  5
9B
330
1F
100
AcDbEntity
  8
0
  6
Continuous
 62
     7
 48
5.0
370
     0
100
AcDbSpline
210
0.0
220
0.0
230
1.0
 70
     8
 71
     3
 72
    28
 73
    24
 74
     0
 42
0.00000001
 43
0.00000001
 40
12.97891841240773
 40
12.97891841240773
 40
12.97891841240773
 40
12.97891841240773
 40
13.90145333008586
 40
13.90145333008586
 40
15.6276214648452
 40
15.6276214648452
 40
17.42005195493727
 40
17.42005195493727
 40
17.76684035476283
 40
17.76684035476283
 40
18.58269201632518
 40
18.58269201632518
 40
19.84133141420772
 40
19.84133141420772
 40
20.24337455884533
 40
20.24337455884533
 40
20.70177427218941
 40
20.70177427218941
 40
22.11108648825345
 40
22.11108648825345
 40
26.08001795494557
 40
26.08001795494557
 40
26.50363493003236
 40
26.50363493003236
 40
26.50363493003236
 40
26.50363493003236
 10
1854.444929790732
 20
1408.911292345821
 30
0.0
 10
1853.342507091058
 20
1408.911292345821
 30
0.0
 10
1851.995487010587
 20
1408.836153040857
 30
0.0
 10
1848.97921731535
 20
1409.590220464667
 30
0.0
 10
1848.692739541462
 20
1409.537387470456
 30
0.0
 10
1845.130026928724
 20
1411.318743776825
 30
0.0
 10
1843.593833910155
 20
1412.421086853259
 30
0.0
 10
1842.148054790733
 20
1414.348792345821
 30
0.0
 10
1841.619622601476
 20
1414.936906724336
 30
0.0
 10
1841.033948858327
 20
1416.108254210633
 30
0.0
 10
1840.740373309078
 20
1416.226558258506
 30
0.0
 10
1839.989140007423
 20
1418.285493974151
 30
0.0
 10
1839.319929790733
 20
1419.902746100251
 30
0.0
 10
1839.319929790733
 20
1421.728234084062
 30
0.0
 10
1839.069929790733
 20
1422.594350607579
 30
0.0
 10
1839.069929790733
 20
1423.54018345509
 30
0.0
 10
1839.319929790733
 20
1424.532401236552
 30
0.0
 10
1839.319929790733
 20
1426.585464117069
 30
0.0
 10
1840.0283719054
 20
1428.203176575154
 30
0.0
 10
1842.572102595537
 20
1433.290637955428
 30
0.0
 10
1845.225724161499
 20
1435.275568670289
 30
0.0
 10
1849.61857602808
 20
1436.878365972961
 30
0.0
 10
1850.507429790733
 20
1437.051917345821
 30
0.0
 10
1850.944929790733
 20
1437.161292345821
 30
0.0
  0
SPLINE
  5
9C
330
1F
100
AcDbEntity
  8
0
  6
Continuous
 62
     7
 48
5.0
370
     0
100
AcDbSpline
210
0.0
220
0.0
230
1.0
 70
     8
 71
     3
 72
    16
 73
    12
 74
     0
 42
0.00000001
 43
0.00000001
 40
0.0
 40
0.0
 40
0.0
 40
0.0
 40
1.0
 40
1.0
 40
1.244574625776633
 40
1.244574625776633
 40
1.379512878872602
 40
1.379512878872602
 40
1.537560800579475
 40
1.537560800579475
 40
2.544863169572313
 40
2.544863169572313
 40
2.544863169572313
 40
2.544863169572313
 10
1927.069929790733
 20
1429.411292345821
 30
0.0
 10
1922.413679790733
 20
1429.41129234582
 30
0.0
 10
1913.101179790733
 20
1429.41129234582
 30
0.0
 10
1907.306129189456
 20
1429.41129234582
 30
0.0
 10
1907.569929790733
 20
1428.669100408797
 30
0.0
 10
1907.569929790733
 20
1426.911292345821
 30
0.0
 10
1907.494722686034
 20
1425.656750959592
 30
0.0
 10
1907.6580169441
 20
1424.309573330542
 30
0.0
 10
1908.263386014952
 20
1424.41129234582
 30
0.0
 10
1913.288679790733
 20
1424.41129234582
 30
0.0
 10
1921.976179790733
 20
1424.41129234582
 30
0.0
 10
1926.319929790734
 20
1424.411292345821
 30
0.0
  0
SPLINE
  5
9D
330
1F
100
AcDbEntity
  8
0
  6
Continuous
 62
     7
 48
5.0
370
     0
100
AcDbSpline
210
0.0
220
0.0
230
1.0
 70
     8
 71
     3
 72
    24
 73
    20
 74
     0
 42
0.00000001
 43
0.00000001
 40
0.0
 40
0.0
 40
0.0
 40
0.0
 40
1.0
 40
1.0
 40
2.598036804251551
 40
2.598036804251551
 40
5.319648285075329
 40
5.319648285075329
 40
9.107140613455956
 40
9.107140613455956
 40
11.48091023401871
 40
11.48091023401871
 40
13.83694212251836
 40
13.83694212251836
 40
15.87934677281956
 40
15.87934677281956
 40
18.54661387466309
 40
18.54661387466309
 40
19.04597731769322
 40
19.04597731769322
 40
19.04597731769322
 40
19.04597731769322
 10
1671.569929790733
 20
1409.661292345821
 30
0.0
 10
1671.510011935024
 20
1410.080717335786
 30
0.0
 10
1672.339590815289
 20
1411.159374022367
 30
0.0
 10
1672.938019950947
 20
1412.138621698898
 30
0.0
 10
1673.514339630519
 20
1413.433962992743
 30
0.0
 10
1674.509322990784
 20
1415.062117582267
 30
0.0
 10
1675.505536590683
 20
1417.260467109374
 30
0.0
 10
1677.004836893156
 20
1419.713867604331
 30
0.0
 10
1677.856286478545
 20
1421.359005721445
 30
0.0
 10
1679.017197974405
 20
1423.680828713164
 30
0.0
 10
1679.985916131598
 20
1425.432906358145
 30
0.0
 10
1681.025046496485
 20
1427.133301500687
 30
0.0
 10
1681.864813084982
 20
1428.939283190954
 30
0.0
 10
1682.831143058181
 20
1430.520550419825
 30
0.0
 10
1683.621216523286
 20
1432.052034271816
 30
0.0
 10
1684.655924410481
 20
1433.745192632681
 30
0.0
 10
1684.949368109551
 20
1434.847082534195
 30
0.0
 10
1685.760312008709
 20
1435.962130395537
 30
0.0
 10
1685.986870413338
 20
1436.119680470342
 30
0.0
 10
1686.194929790733
 20
1436.161292345821
 30
0.0
  0
SPLINE
  5
9E
330
1F
100
AcDbEntity
  8
0
  6
Continuous
 62
     7
 48
5.0
370
     0
100
AcDbSpline
210
0.0
220
0.0
230
1.0
 70
     8
 71
     3
 72
    24
 73
    20
 74
     0
 42
0.00000001
 43
0.00000001
 40
0.0
 40
0.0
 40
0.0
 40
0.0
 40
1.0
 40
1.0
 40
1.39991898449332
 40
1.39991898449332
 40
1.813948147164033
 40
1.813948147164033
 40
2.22488352251266
 40
2.22488352251266
 40
3.153141757786221
 40
3.153141757786221
 40
3.543554736148584
 40
3.543554736148584
 40
4.253573756344509
 40
4.253573756344509
 40
4.603118083692698
 40
4.603118083692698
 40
4.673393040808484
 40
4.673393040808484
 40
4.673393040808484
 40
4.673393040808484
 10
1686.194929790733
 20
1436.161292345821
 30
0.0
 10
1688.632429790734
 20
1436.161292345821
 30
0.0
 10
1693.507429790733
 20
1436.161292345821
 30
0.0
 10
1696.919732315439
 20
1436.161292345821
 30
0.0
 10
1697.387904576238
 20
1434.900342774812
 30
0.0
 10
1698.267197974405
 20
1433.141755978477
 30
0.0
 10
1699.235916131599
 20
1431.389678333496
 30
0.0
 10
1700.275046496485
 20
1429.689283190955
 30
0.0
 10
1701.114813084982
 20
1427.883301500686
 30
0.0
 10
1702.801669526847
 20
1425.122990959454
 30
0.0
 10
1702.94752378361
 20
1424.781104360066
 30
0.0
 10
1704.364425395597
 20
1421.947301136093
 30
0.0
 10
1705.40043418587
 20
1420.375283555548
 30
0.0
 10
1706.582839516717
 20
1418.010472893854
 30
0.0
 10
1708.30702006475
 20
1415.062111797787
 30
0.0
 10
1709.445512358821
 20
1412.785127209646
 30
0.0
 10
1710.689027223312
 20
1410.832298764375
 30
0.0
 10
1711.071443779864
 20
1409.876257372995
 30
0.0
 10
1711.069929790733
 20
1409.830631757381
 30
0.0
 10
1711.069929790733
 20
1409.661292345821
 30
0.0
  0
SPLINE
  5
9F
330
1F
100
AcDbEntity
  8
0
  6
Continuous
 62
     7
 48
5.0
370
     0
100
AcDbSpline
210
0.0
220
0.0
230
1.0
 70
     8
 71
     3
 72
    16
 73
    12
 74
     0
 42
0.00000001
 43
0.00000001
 40
0.0
 40
0.0
 40
0.0
 40
0.0
 40
1.0
 40
1.0
 40
2.292456750877711
 40
2.292456750877711
 40
5.172737785628291
 40
5.172737785628291
 40
6.201778028518361
 40
6.201778028518361
 40
7.30888772963563
 40
7.30888772963563
 40
7.30888772963563
 40
7.30888772963563
 10
1828.819929790733
 20
1409.661292345821
 30
0.0
 10
1828.819929790733
 20
1410.75504234582
 30
0.0
 10
1828.951542223957
 20
1412.950489771721
 30
0.0
 10
1828.649826412913
 20
1415.439645212839
 30
0.0
 10
1827.625243653765
 20
1416.411292345821
 30
0.0
 10
1823.007429790733
 20
1416.411292345821
 30
0.0
 10
1816.632429790733
 20
1416.411292345821
 30
0.0
 10
1812.306129189456
 20
1416.411292345821
 30
0.0
 10
1812.569929790733
 20
1415.669100408797
 30
0.0
 10
1812.569929790733
 20
1413.317542345821
 30
0.0
 10
1812.569929790733
 20
1410.880042345821
 30
0.0
 10
1812.569929790733
 20
1409.661292345821
 30
0.0
  0
SPLINE
  5
A0
330
1F
100
AcDbEntity
  8
0
  6
Continuous
 62
     7
 48
5.0
370
     0
100
AcDbSpline
210
0.0
220
0.0
230
1.0
 70
     8
 71
     3
 72
    24
 73
    20
 74
     0
 42
0.00000001
 43
0.00000001
 40
0.0
 40
0.0
 40
0.0
 40
0.0
 40
1.0
 40
1.0
 40
1.804374503640168
 40
1.804374503640168
 40
2.410165852946105
 40
2.410165852946105
 40
4.293615850078156
 40
4.293615850078156
 40
4.490695076188547
 40
4.490695076188547
 40
4.94010137336433
 40
4.94010137336433
 40
5.132767019344753
 40
5.132767019344753
 40
6.749973859908527
 40
6.749973859908527
 40
7.177624544153768
 40
7.177624544153768
 40
7.177624544153768
 40
7.177624544153768
 10
1881.194929790733
 20
1437.161292345821
 30
0.0
 10
1883.016571120048
 20
1437.161292345821
 30
0.0
 10
1885.469783436267
 20
1437.353237637315
 30
0.0
 10
1888.582593533316
 20
1436.217482601905
 30
0.0
 10
1889.49873002977
 20
1436.058442166543
 30
0.0
 10
1891.595812978791
 20
1434.485629954777
 30
0.0
 10
1892.877933584871
 20
1433.708953953637
 30
0.0
 10
1895.721397046651
 20
1429.91766933793
 30
0.0
 10
1896.126239577149
 20
1429.561053200158
 30
0.0
 10
1897.099635203998
 20
1425.667470692762
 30
0.0
 10
1897.165224377469
 20
1424.905113998879
 30
0.0
 10
1897.46768885341
 20
1423.695256095112
 30
0.0
 10
1897.347505463118
 20
1421.89659503536
 30
0.0
 10
1897.040224377469
 20
1420.667470692762
 30
0.0
 10
1896.974635203998
 20
1419.905113998879
 30
0.0
 10
1896.108471235169
 20
1416.440458123562
 30
0.0
 10
1893.59097897528
 20
1412.484316938094
 30
0.0
 10
1889.929104798953
 20
1410.653379849931
 30
0.0
 10
1889.802998648026
 20
1410.411871523482
 30
0.0
 10
1888.944929790734
 20
1410.098792345822
 30
0.0
  0
SPLINE
  5
A1
330
1F
100
AcDbEntity
  8
0
  6
Continuous
 62
     7
 48
5.0
370
     0
100
AcDbSpline
210
0.0
220
0.0
230
1.0
 70
    24
 71
     3
 72
     8
 73
     4
 74
     0
 42
0.00000001
 43
0.00000001
 40
0.0
 40
0.0
 40
0.0
 40
0.0
 40
1.0
 40
1.0
 40
1.0
 40
1.0
 10
1926.319929790734
 20
1424.411292345821
 30
0.0
 10
1926.319929790733
 20
1422.848792345821
 30
0.0
 10
1926.319929790734
 20
1419.723792345821
 30
0.0
 10
1926.319929790734
 20
1418.161292345821
 30
0.0
  0
SPLINE
  5
A2
330
1F
100
AcDbEntity
  8
0
  6
Continuous
 62
     7
 48
5.0
370
     0
100
AcDbSpline
210
0.0
220
0.0
230
1.0
 70
     8
 71
     3
 72
    14
 73
    10
 74
     0
 42
0.00000001
 43
0.00000001
 40
3.70973012935633
 40
3.70973012935633
 40
3.70973012935633
 40
3.70973012935633
 40
4.18320144515238
 40
4.18320144515238
 40
4.76824091606684
 40
4.76824091606684
 40
7.163050210672219
 40
7.163050210672219
 40
7.398553488633712
 40
7.398553488633712
 40
7.398553488633712
 40
7.398553488633712
 10
1884.444929790733
 20
1412.72379234582
 30
0.0
 10
1883.86488749843
 20
1412.578781772745
 30
0.0
 10
1883.329546750984
 20
1412.759191865411
 30
0.0
 10
1882.609409615676
 20
1413.937598086823
 30
0.0
 10
1883.191071754321
 20
1414.282434309407
 30
0.0
 10
1885.757429790733
 20
1416.848792345821
 30
0.0
 10
1889.882429790734
 20
1420.973792345821
 30
0.0
 10
1892.147754087385
 20
1423.239116642473
 30
0.0
 10
1892.664923348777
 20
1423.661015999588
 30
0.0
 10
1892.944929790734
 20
1423.59879234582
 30
0.0
  0
SPLINE
  5
A3
330
1F
100
AcDbEntity
  8
0
  6
Continuous
 62
     7
 48
5.0
370
     0
100
AcDbSpline
210
0.0
220
0.0
230
1.0
 70
    24
 71
     3
 72
     8
 73
     4
 74
     0
 42
0.00000001
 43
0.00000001
 40
0.0
 40
0.0
 40
0.0
 40
0.0
 40
1.0
 40
1.0
 40
1.0
 40
1.0
 10
1713.319929790733
 20
1409.661292345821
 30
0.0
 10
1713.319929790733
 20
1416.286292345821
 30
0.0
 10
1713.319929790733
 20
1429.536292345821
 30
0.0
 10
1713.319929790733
 20
1436.161292345821
 30
0.0
  0
SPLINE
  5
A4
330
1F
100
AcDbEntity
  8
0
  6
Continuous
 62
     7
 48
5.0
370
     0
100
AcDbSpline
210
0.0
220
0.0
230
1.0
 70
    24
 71
     3
 72
     8
 73
     4
 74
     0
 42
0.00000001
 43
0.00000001
 40
0.0
 40
0.0
 40
0.0
 40
0.0
 40
1.0
 40
1.0
 40
1.0
 40
1.0
 10
1741.819929790733
 20
1436.161292345821
 30
0.0
 10
1743.882429790733
 20
1436.161292345821
 30
0.0
 10
1748.007429790733
 20
1436.161292345821
 30
0.0
 10
1750.069929790733
 20
1436.161292345821
 30
0.0
  0
SPLINE
  5
A5
330
1F
100
AcDbEntity
  8
0
  6
Continuous
 62
     7
 48
5.0
370
     0
100
AcDbSpline
210
0.0
220
0.0
230
1.0
 70
     8
 71
     3
 72
    14
 73
    10
 74
     0
 42
0.00000001
 43
0.00000001
 40
0.0
 40
0.0
 40
0.0
 40
0.0
 40
1.0
 40
1.0
 40
2.977717046662369
 40
2.977717046662369
 40
3.696357845312293
 40
3.696357845312293
 40
7.664387850037381
 40
7.664387850037381
 40
7.664387850037381
 40
7.664387850037381
 10
1882.444929790733
 20
1433.16129234582
 30
0.0
 10
1882.935608359581
 20
1433.16129234582
 30
0.0
 10
1883.336408082614
 20
1433.144814053939
 30
0.0
 10
1884.40398428448
 20
1432.077237852074
 30
0.0
 10
1883.412882914447
 20
1431.621462306059
 30
0.0
 10
1882.434047979006
 20
1430.48281758524
 30
0.0
 10
1881.9779105763
 20
1429.819273131387
 30
0.0
 10
1880.132429790734
 20
1427.973792345821
 30
0.0
 10
1877.007429790734
 20
1424.848792345821
 30
0.0
 10
1875.444929790733
 20
1423.28629234582
 30
0.0
  0
SPLINE
  5
A6
330
1F
100
AcDbEntity
  8
0
  6
Continuous
 62
     7
 48
5.0
370
     0
100
AcDbSpline
210
0.0
220
0.0
230
1.0
 70
     8
 71
     3
 72
    20
 73
    16
 74
     0
 42
0.00000001
 43
0.00000001
 40
0.0
 40
0.0
 40
0.0
 40
0.0
 40
1.0
 40
1.0
 40
3.455380115080005
 40
3.455380115080005
 40
5.265785991592736
 40
5.265785991592736
 40
6.33795633872003
 40
6.33795633872003
 40
7.66983155809435
 40
7.66983155809435
 40
9.075669745701852
 40
9.075669745701852
 40
9.265030511551334
 40
9.265030511551334
 40
9.265030511551334
 40
9.265030511551334
 10
1852.569929790733
 20
1413.411292345821
 30
0.0
 10
1852.823894743267
 20
1413.608820642236
 30
0.0
 10
1852.985192907264
 20
1414.292312705866
 30
0.0
 10
1853.7099135638
 20
1415.135355102245
 30
0.0
 10
1857.010051636284
 20
1418.460133729984
 30
0.0
 10
1858.199905549029
 20
1419.352524164542
 30
0.0
 10
1858.512872575074
 20
1419.543549391607
 30
0.0
 10
1859.101291369419
 20
1420.328107784069
 30
0.0
 10
1859.668319133272
 20
1420.798504236774
 30
0.0
 10
1860.28854205447
 20
1421.331678326927
 30
0.0
 10
1860.832429790733
 20
1422.07691734582
 30
0.0
 10
1861.577560487359
 20
1422.63576536829
 30
0.0
 10
1862.216641419951
 20
1423.536292345821
 30
0.0
 10
1862.759353316133
 20
1423.536292345821
 30
0.0
 10
1862.888085503615
 20
1423.50410929895
 30
0.0
 10
1862.944929790733
 20
1423.473792345821
 30
0.0
  0
SPLINE
  5
A7
330
1F
100
AcDbEntity
  8
0
  6
Continuous
 62
     7
 48
5.0
370
     0
100
AcDbSpline
210
0.0
220
0.0
230
1.0
 70
    24
 71
     3
 72
     8
 73
     4
 74
     0
 42
0.00000001
 43
0.00000001
 40
0.0
 40
0.0
 40
0.0
 40
0.0
 40
1.0
 40
1.0
 40
1.0
 40
1.0
 10
1741.819929790733
 20
1409.661292345821
 30
0.0
 10
1741.819929790733
 20
1416.286292345821
 30
0.0
 10
1741.819929790733
 20
1429.536292345821
 30
0.0
 10
1741.819929790733
 20
1436.161292345821
 30
0.0
  0
SPLINE
  5
A8
330
1F
100
AcDbEntity
  8
0
  6
Continuous
 62
     7
 48
5.0
370
     0
100
AcDbSpline
210
0.0
220
0.0
230
1.0
 70
    24
 71
     3
 72
     8
 73
     4
 74
     0
 42
0.00000001
 43
0.00000001
 40
0.0
 40
0.0
 40
0.0
 40
0.0
 40
1.0
 40
1.0
 40
1.0
 40
1.0
 10
1837.069929790733
 20
1409.661292345821
 30
0.0
 10
1835.007429790733
 20
1409.661292345821
 30
0.0
 10
1830.882429790733
 20
1409.661292345821
 30
0.0
 10
1828.819929790733
 20
1409.661292345821
 30
0.0
  0
SPLINE
  5
A9
330
1F
100
AcDbEntity
  8
0
  6
Continuous
 62
     7
 48
5.0
370
     0
100
AcDbSpline
210
0.0
220
0.0
230
1.0
 70
     8
 71
     3
 72
    14
 73
    10
 74
     0
 42
0.00000001
 43
0.00000001
 40
0.0
 40
0.0
 40
0.0
 40
0.0
 40
1.0
 40
1.0
 40
2.193307362064213
 40
2.193307362064213
 40
9.566501503243401
 40
9.566501503243401
 40
10.9120558367791
 40
10.9120558367791
 40
10.9120558367791
 40
10.9120558367791
 10
1857.694929790734
 20
1431.411292345821
 30
0.0
 10
1858.208666256885
 20
1431.379467962962
 30
0.0
 10
1858.61405103229
 20
1430.766087932825
 30
0.0
 10
1858.380197878232
 20
1429.713748739563
 30
0.0
 10
1857.359655085733
 20
1428.95101764082
 30
0.0
 10
1854.382429790734
 20
1425.97379234582
 30
0.0
 10
1849.257429790734
 20
1420.848792345821
 30
0.0
 10
1846.227292168061
 20
1417.818654723148
 30
0.0
 10
1845.744032215254
 20
1417.449445127988
 30
0.0
 10
1845.194929790733
 20
1417.848792345821
 30
0.0
  0
SPLINE
  5
AA
330
1F
100
AcDbEntity
  8
0
  6
Continuous
 62
     7
 48
5.0
370
     0
100
AcDbSpline
210
0.0
220
0.0
230
1.0
 70
    24
 71
     3
 72
     8
 73
     4
 74
     0
 42
0.00000001
 43
0.00000001
 40
0.0
 40
0.0
 40
0.0
 40
0.0
 40
1.0
 40
1.0
 40
1.0
 40
1.0
 10
1739.819929790734
 20
1416.411292345821
 30
0.0
 10
1739.819929790734
 20
1414.723792345821
 30
0.0
 10
1739.819929790734
 20
1411.348792345821
 30
0.0
 10
1739.819929790734
 20
1409.661292345821
 30
0.0
  0
SPLINE
  5
AB
330
1F
100
AcDbEntity
  8
0
  6
Continuous
 62
     7
 48
5.0
370
     0
100
AcDbSpline
210
0.0
220
0.0
230
1.0
 70
     8
 71
     3
 72
    12
 73
     8
 74
     0
 42
0.00000001
 43
0.00000001
 40
0.0
 40
0.0
 40
0.0
 40
0.0
 40
1.0
 40
1.0
 40
1.241335226759749
 40
1.241335226759749
 40
2.113474220859326
 40
2.113474220859326
 40
2.113474220859326
 40
2.113474220859326
 10
1750.069929790733
 20
1436.161292345821
 30
0.0
 10
1750.069929790733
 20
1431.44254234582
 30
0.0
 10
1750.069929790733
 20
1422.005042345821
 30
0.0
 10
1750.069929790733
 20
1416.147491744543
 30
0.0
 10
1750.812121727756
 20
1416.411292345821
 30
0.0
 10
1756.038679790734
 20
1416.411292345821
 30
0.0
 10
1764.226179790733
 20
1416.411292345821
 30
0.0
 10
1768.319929790734
 20
1416.411292345821
 30
0.0
  0
SPLINE
  5
AC
330
1F
100
AcDbEntity
  8
0
  6
Continuous
 62
     7
 48
5.0
370
     0
100
AcDbSpline
210
0.0
220
0.0
230
1.0
 70
     8
 71
     3
 72
    12
 73
     8
 74
     0
 42
0.00000001
 43
0.00000001
 40
5.737334603125956
 40
5.737334603125956
 40
5.737334603125956
 40
5.737334603125956
 40
6.358474490244133
 40
6.358474490244133
 40
10.71817397152081
 40
10.71817397152081
 40
11.28339280277399
 40
11.28339280277399
 40
11.28339280277399
 40
11.28339280277399
 10
1843.694929790734
 20
1422.84879234582
 30
0.0
 10
1843.287342916827
 20
1423.145219163207
 30
0.0
 10
1843.257711512946
 20
1424.037419234673
 30
0.0
 10
1844.257811040997
 20
1428.037817346878
 30
0.0
 10
1847.555846227674
 20
1431.091750564291
 30
0.0
 10
1851.101900305636
 20
1432.864777603271
 30
0.0
 10
1852.003508290151
 20
1433.050936970675
 30
0.0
 10
1852.444929790733
 20
1433.16129234582
 30
0.0
  0
SPLINE
  5
AD
330
1F
100
AcDbEntity
  8
0
  6
Continuous
 62
     7
 48
5.0
370
     0
100
AcDbSpline
210
0.0
220
0.0
230
1.0
 70
     8
 71
     3
 72
    16
 73
    12
 74
     0
 42
0.00000001
 43
0.00000001
 40
0.0
 40
0.0
 40
0.0
 40
0.0
 40
1.0
 40
1.0
 40
2.063217140341072
 40
2.063217140341072
 40
2.205797256782702
 40
2.205797256782702
 40
2.607833232214339
 40
2.607833232214339
 40
4.053596120036477
 40
4.053596120036477
 40
4.053596120036477
 40
4.053596120036477
 10
1691.382429790733
 20
1429.473792345821
 30
0.0
 10
1692.276854183699
 20
1428.688889307095
 30
0.0
 10
1692.938749170301
 20
1426.569133361073
 30
0.0
 10
1694.241011845028
 20
1424.438158075157
 30
0.0
 10
1695.39884773644
 20
1422.134426616484
 30
0.0
 10
1696.15992359709
 20
1420.8890297536
 30
0.0
 10
1696.234079184396
 20
1420.488264769683
 30
0.0
 10
1695.845806984178
 20
1419.95551919264
 30
0.0
 10
1694.681567650183
 20
1420.161292345821
 30
0.0
 10
1692.444929790734
 20
1420.161292345821
 30
0.0
 10
1688.944929790733
 20
1420.161292345821
 30
0.0
 10
1687.19492979073
 20
1420.161292345821
 30
0.0
  0
SPLINE
  5
AE
330
1F
100
AcDbEntity
  8
0
  6
Continuous
 62
     7
 48
5.0
370
     0
100
AcDbSpline
210
0.0
220
0.0
230
1.0
 70
    24
 71
     3
 72
     8
 73
     4
 74
     0
 42
0.00000001
 43
0.00000001
 40
0.0
 40
0.0
 40
0.0
 40
0.0
 40
1.0
 40
1.0
 40
1.0
 40
1.0
 10
1770.569929790733
 20
1409.661292345821
 30
0.0
 10
1770.569929790733
 20
1416.286292345821
 30
0.0
 10
1770.569929790733
 20
1429.536292345821
 30
0.0
 10
1770.569929790733
 20
1436.161292345821
 30
0.0
  0
SPLINE
  5
AF
330
1F
100
AcDbEntity
  8
0
  6
Continuous
 62
     7
 48
5.0
370
     0
100
AcDbSpline
210
0.0
220
0.0
230
1.0
 70
     8
 71
     3
 72
    12
 73
     8
 74
     0
 42
0.00000001
 43
0.00000001
 40
0.0
 40
0.0
 40
0.0
 40
0.0
 40
1.0
 40
1.0
 40
1.25483649818684
 40
1.25483649818684
 40
1.655546492432961
 40
1.655546492432961
 40
1.655546492432961
 40
1.655546492432961
 10
1926.319929790734
 20
1418.161292345821
 30
0.0
 10
1921.851179790733
 20
1418.161292345821
 30
0.0
 10
1912.913679790733
 20
1418.161292345821
 30
0.0
 10
1907.306129189456
 20
1418.161292345821
 30
0.0
 10
1907.569929790733
 20
1417.419100408798
 30
0.0
 10
1907.569929790733
 20
1414.505042345821
 30
0.0
 10
1907.569929790733
 20
1410.942542345821
 30
0.0
 10
1907.569929790733
 20
1409.161292345821
 30
0.0
  0
SPLINE
  5
B0
330
1F
100
AcDbEntity
  8
0
  6
Continuous
 62
     7
 48
5.0
370
     0
100
AcDbSpline
210
0.0
220
0.0
230
1.0
 70
     8
 71
     3
 72
    11
 73
     7
 74
     0
 42
0.00000001
 43
0.00000001
 40
5.756295536229831
 40
5.756295536229831
 40
5.756295536229831
 40
5.756295536229831
 40
8.163341382800121
 40
8.163341382800121
 40
11.02887215253
 40
11.60175113143816
 40
11.60175113143816
 40
11.60175113143816
 40
11.60175113143816
 10
1875.194929790733
 20
1419.286292345819
 30
0.0
 10
1876.404932007692
 20
1420.69384594514
 30
0.0
 10
1879.132429790733
 20
1423.223792345821
 30
0.0
 10
1882.007429790733
 20
1426.098792345821
 30
0.0
 10
1885.738020747467
 20
1429.843412562908
 30
0.0
 10
1887.264893065612
 20
1431.350646140996
 30
0.0
 10
1887.694929790734
 20
1431.411292345821
 30
0.0
  0
SPLINE
  5
B1
330
1F
100
AcDbEntity
  8
0
  6
Continuous
 62
     7
 48
5.0
370
     0
100
AcDbSpline
210
0.0
220
0.0
230
1.0
 70
     8
 71
     3
 72
    22
 73
    18
 74
     0
 42
0.00000001
 43
0.00000001
 40
0.0
 40
0.0
 40
0.0
 40
0.0
 40
1.0
 40
1.0
 40
5.467082076875723
 40
5.467082076875723
 40
7.899207077844935
 40
7.899207077844935
 40
19.98998545087733
 40
19.98998545087733
 40
21.98249619956332
 40
21.98249619956332
 40
26.54828523817712
 40
26.54828523817712
 40
30.4707514628367
 40
30.4707514628367
 40
38.17994665075769
 40
38.17994665075769
 40
38.17994665075769
 40
38.17994665075769
 10
1702.069929790734
 20
1409.661292345821
 30
0.0
 10
1702.111140701322
 20
1409.94976871994
 30
0.0
 10
1701.722187877446
 20
1410.287142749382
 30
0.0
 10
1700.88978042052
 20
1411.649264042534
 30
0.0
 10
1700.517518527794
 20
1413.027702854752
 30
0.0
 10
1699.150538836317
 20
1414.585423898527
 30
0.0
 10
1698.136401376177
 20
1414.411292345821
 30
0.0
 10
1694.007429790733
 20
1414.411292345821
 30
0.0
 10
1687.132429790733
 20
1414.411292345821
 30
0.0
 10
1683.128443871688
 20
1414.411292345821
 30
0.0
 10
1682.936384382929
 20
1414.276760487395
 30
0.0
 10
1682.347359774299
 20
1412.662396745222
 30
0.0
 10
1682.172566488416
 20
1412.616565741185
 30
0.0
 10
1681.168398725031
 20
1410.608230214417
 30
0.0
 10
1681.010237317357
 20
1409.661292345821
 30
0.0
 10
1677.851179790734
 20
1409.661292345821
 30
0.0
 10
1673.663679790733
 20
1409.661292345821
 30
0.0
 10
1671.569929790733
 20
1409.661292345821
 30
0.0
  0
SPLINE
  5
B2
330
1F
100
AcDbEntity
  8
0
  6
Continuous
 62
     7
 48
5.0
370
     0
100
AcDbSpline
210
0.0
220
0.0
230
1.0
 70
     8
 71
     3
 72
    14
 73
    10
 74
     0
 42
0.00000001
 43
0.00000001
 40
1.760664727461603
 40
1.760664727461603
 40
1.760664727461603
 40
1.760664727461603
 40
2.810130168906992
 40
2.810130168906992
 40
3.185073502470245
 40
3.185073502470245
 40
3.516059258856369
 40
3.516059258856369
 40
3.635479974656625
 40
3.635479974656625
 40
3.635479974656625
 40
3.635479974656625
 10
1826.194929790734
 20
1423.16129234582
 30
0.0
 10
1823.007429790733
 20
1423.16129234582
 30
0.0
 10
1816.632429790733
 20
1423.16129234582
 30
0.0
 10
1812.306129189456
 20
1423.16129234582
 30
0.0
 10
1812.569929790733
 20
1423.903484282843
 30
0.0
 10
1812.569929790733
 20
1426.036292345821
 30
0.0
 10
1812.449598423214
 20
1428.043558563787
 30
0.0
 10
1812.613345731647
 20
1429.394473858357
 30
0.0
 10
1812.835656091704
 20
1429.639036452961
 30
0.0
 10
1813.194929790733
 20
1429.661292345821
 30
0.0
  0
SPLINE
  5
B3
330
1F
100
AcDbEntity
  8
0
  6
Continuous
 62
     7
 48
5.0
370
     0
100
AcDbSpline
210
0.0
220
0.0
230
1.0
 70
     8
 71
     3
 72
    16
 73
    12
 74
     0
 42
0.00000001
 43
0.00000001
 40
0.0
 40
0.0
 40
0.0
 40
0.0
 40
1.0
 40
1.0
 40
2.110655549719839
 40
2.110655549719839
 40
3.97936792914761
 40
3.97936792914761
 40
4.906510357634136
 40
4.906510357634136
 40
5.756295536229831
 40
5.756295536229831
 40
5.756295536229831
 40
5.756295536229831
 10
1887.694929790734
 20
1431.411292345821
 30
0.0
 10
1888.56858247481
 20
1431.288084916015
 30
0.0
 10
1888.781516735604
 20
1430.468648587813
 30
0.0
 10
1887.54343374502
 20
1429.028429598766
 30
0.0
 10
1886.883359655481
 20
1428.537532165484
 30
0.0
 10
1885.371941583726
 20
1426.522308069811
 30
0.0
 10
1878.503123386281
 20
1419.844485941368
 30
0.0
 10
1876.919917921176
 20
1418.261280476263
 30
0.0
 10
1876.126031479177
 20
1417.412998371482
 30
0.0
 10
1874.820656645452
 20
1418.008654849008
 30
0.0
 10
1874.767749746985
 20
1418.78936862146
 30
0.0
 10
1875.194929790733
 20
1419.286292345819
 30
0.0
  0
SPLINE
  5
B4
330
1F
100
AcDbEntity
  8
0
  6
Continuous
 62
     7
 48
5.0
370
     0
100
AcDbSpline
210
0.0
220
0.0
230
1.0
 70
    24
 71
     3
 72
     8
 73
     4
 74
     0
 42
0.00000001
 43
0.00000001
 40
0.0
 40
0.0
 40
0.0
 40
0.0
 40
1.0
 40
1.0
 40
1.0
 40
1.0
 10
1739.819929790734
 20
1409.661292345821
 30
0.0
 10
1733.194929790733
 20
1409.661292345821
 30
0.0
 10
1719.944929790734
 20
1409.661292345821
 30
0.0
 10
1713.319929790733
 20
1409.661292345821
 30
0.0
  0
SPLINE
  5
B5
330
1F
100
AcDbEntity
  8
0
  6
Continuous
 62
     7
 48
5.0
370
     0
100
AcDbSpline
210
0.0
220
0.0
230
1.0
 70
    24
 71
     3
 72
     8
 73
     4
 74
     0
 42
0.00000001
 43
0.00000001
 40
0.0
 40
0.0
 40
0.0
 40
0.0
 40
1.0
 40
1.0
 40
1.0
 40
1.0
 10
1907.569929790733
 20
1409.161292345821
 30
0.0
 10
1905.507429790733
 20
1409.161292345821
 30
0.0
 10
1901.382429790733
 20
1409.161292345821
 30
0.0
 10
1899.319929790733
 20
1409.161292345821
 30
0.0
  0
SPLINE
  5
B6
330
1F
100
AcDbEntity
  8
0
  6
Continuous
 62
     7
 48
5.0
370
     0
100
AcDbSpline
210
0.0
220
0.0
230
1.0
 70
    24
 71
     3
 72
     8
 73
     4
 74
     0
 42
0.00000001
 43
0.00000001
 40
0.0
 40
0.0
 40
0.0
 40
0.0
 40
1.0
 40
1.0
 40
1.0
 40
1.0
 10
1927.069929790733
 20
1435.911292345821
 30
0.0
 10
1927.069929790733
 20
1434.286292345821
 30
0.0
 10
1927.069929790733
 20
1431.03629234582
 30
0.0
 10
1927.069929790733
 20
1429.411292345821
 30
0.0
  0
SPLINE
  5
B7
330
1F
100
AcDbEntity
  8
0
  6
Continuous
 62
     7
 48
5.0
370
     0
100
AcDbSpline
210
0.0
220
0.0
230
1.0
 70
     8
 71
     3
 72
    10
 73
     6
 74
     0
 42
0.00000001
 43
0.00000001
 40
0.0
 40
0.0
 40
0.0
 40
0.0
 40
1.0
 40
1.0
 40
3.70973012935633
 40
3.70973012935633
 40
3.70973012935633
 40
3.70973012935633
 10
1892.944929790734
 20
1423.59879234582
 30
0.0
 10
1894.16333621336
 20
1423.223898061936
 30
0.0
 10
1893.476804393285
 20
1420.611178059087
 30
0.0
 10
1891.039976888987
 20
1416.623642142963
 30
0.0
 10
1887.764577725716
 20
1413.553704329566
 30
0.0
 10
1884.444929790733
 20
1412.72379234582
 30
0.0
  0
SPLINE
  5
B8
330
1F
100
AcDbEntity
  8
0
  6
Continuous
 62
     7
 48
5.0
370
     0
100
AcDbSpline
210
0.0
220
0.0
230
1.0
 70
    24
 71
     3
 72
     8
 73
     4
 74
     0
 42
0.00000001
 43
0.00000001
 40
0.0
 40
0.0
 40
0.0
 40
0.0
 40
1.0
 40
1.0
 40
1.0
 40
1.0
 10
1711.069929790733
 20
1409.661292345821
 30
0.0
 10
1708.819929790734
 20
1409.661292345821
 30
0.0
 10
1704.319929790733
 20
1409.661292345821
 30
0.0
 10
1702.069929790734
 20
1409.661292345821
 30
0.0
  0
SPLINE
  5
B9
330
1F
100
AcDbEntity
  8
0
  6
Continuous
 62
     7
 48
5.0
370
     0
100
AcDbSpline
210
0.0
220
0.0
230
1.0
 70
     8
 71
     3
 72
    16
 73
    12
 74
     0
 42
0.00000001
 43
0.00000001
 40
7.664387850037381
 40
7.664387850037381
 40
7.664387850037381
 40
7.664387850037381
 40
9.774868176876959
 40
9.774868176876959
 40
11.08551215012811
 40
11.08551215012811
 40
14.60733742867669
 40
14.60733742867669
 40
15.17929153805824
 40
15.17929153805824
 40
15.69440389642565
 40
15.69440389642565
 40
15.69440389642565
 40
15.69440389642565
 10
1875.444929790733
 20
1423.28629234582
 30
0.0
 10
1874.613881258649
 20
1422.455243813737
 30
0.0
 10
1873.674861795831
 20
1422.366564325428
 30
0.0
 10
1873.200824570257
 20
1424.262713227726
 30
0.0
 10
1873.842426856272
 20
1425.857196634884
 30
0.0
 10
1875.372582231128
 20
1428.361087248285
 30
0.0
 10
1876.956295898227
 20
1430.169816926441
 30
0.0
 10
1878.977288715685
 20
1431.685561539535
 30
0.0
 10
1880.843484266735
 20
1432.698430964821
 30
0.0
 10
1881.511448073822
 20
1432.865421916593
 30
0.0
 10
1882.128411507645
 20
1433.082162775048
 30
0.0
 10
1882.444929790733
 20
1433.16129234582
 30
0.0
  0
SPLINE
  5
BA
330
1F
100
AcDbEntity
  8
0
  6
Continuous
 62
     7
 48
5.0
370
     0
100
AcDbSpline
210
0.0
220
0.0
230
1.0
 70
     8
 71
     3
 72
    14
 73
    10
 74
     0
 42
0.00000001
 43
0.00000001
 40
0.0
 40
0.0
 40
0.0
 40
0.0
 40
1.0
 40
1.0
 40
1.652899414934201
 40
1.652899414934201
 40
5.771504330795985
 40
5.771504330795985
 40
7.292439914004937
 40
7.292439914004937
 40
7.292439914004937
 40
7.292439914004937
 10
1860.944929790733
 20
1428.16129234582
 30
0.0
 10
1861.705969364401
 20
1428.253539566871
 30
0.0
 10
1862.224512094712
 20
1427.448336115968
 30
0.0
 10
1861.555778241176
 20
1426.354044355637
 30
0.0
 10
1858.771886386664
 20
1423.613248941751
 30
0.0
 10
1856.382429790733
 20
1421.22379234582
 30
0.0
 10
1852.257429790733
 20
1417.098792345821
 30
0.0
 10
1849.433281197471
 20
1414.274643752558
 30
0.0
 10
1848.565661273345
 20
1413.872822647001
 30
0.0
 10
1848.007429790733
 20
1414.78629234582
 30
0.0
  0
SPLINE
  5
BB
330
1F
100
AcDbEntity
  8
0
  6
Continuous
 62
     7
 48
5.0
370
     0
100
AcDbSpline
210
0.0
220
0.0
230
1.0
 70
    24
 71
     3
 72
     8
 73
     4
 74
     0
 42
0.00000001
 43
0.00000001
 40
0.0
 40
0.0
 40
0.0
 40
0.0
 40
1.0
 40
1.0
 40
1.0
 40
1.0
 10
1778.569929790733
 20
1409.661292345821
 30
0.0
 10
1776.569929790733
 20
1409.661292345821
 30
0.0
 10
1772.569929790733
 20
1409.661292345821
 30
0.0
 10
1770.569929790733
 20
1409.661292345821
 30
0.0
  0
SPLINE
  5
BC
330
1F
100
AcDbEntity
  8
0
  6
Continuous
 62
     7
 48
5.0
370
     0
100
AcDbSpline
210
0.0
220
0.0
230
1.0
 70
     8
 71
     3
 72
    22
 73
    18
 74
     0
 42
0.00000001
 43
0.00000001
 40
10.9120558367791
 40
10.9120558367791
 40
10.9120558367791
 40
10.9120558367791
 40
12.08238798929943
 40
12.08238798929943
 40
14.85927622796596
 40
14.85927622796596
 40
16.01909401202864
 40
16.01909401202864
 40
17.60935727980451
 40
17.60935727980451
 40
18.47406293166026
 40
18.47406293166026
 40
19.26919456554886
 40
19.26919456554886
 40
21.37802734409087
 40
21.37802734409087
 40
22.40662710578945
 40
22.40662710578945
 40
22.40662710578945
 40
22.40662710578945
 10
1845.194929790733
 20
1417.848792345821
 30
0.0
 10
1844.717333155335
 20
1418.196135353383
 30
0.0
 10
1844.803003240052
 20
1418.830377786864
 30
0.0
 10
1846.124867694828
 20
1420.368056846503
 30
0.0
 10
1847.50933905949
 20
1421.37217137083
 30
0.0
 10
1848.747091984586
 20
1423.02250860429
 30
0.0
 10
1849.705267596881
 20
1423.800076087351
 30
0.0
 10
1850.569929790734
 20
1424.952959012487
 30
0.0
 10
1850.778263124067
 20
1425.161292345821
 30
0.0
 10
1851.807429790733
 20
1425.933167345821
 30
0.0
 10
1852.332429790733
 20
1426.701917345821
 30
0.0
 10
1853.028263124067
 20
1427.22379234582
 30
0.0
 10
1853.382429790733
 20
1427.452959012487
 30
0.0
 10
1854.295474967362
 20
1428.670352581325
 30
0.0
 10
1855.810869555229
 20
1430.310747169192
 30
0.0
 10
1857.126137118703
 20
1431.297197841798
 30
0.0
 10
1857.191554335017
 20
1431.285448481892
 30
0.0
 10
1857.694929790734
 20
1431.411292345821
 30
0.0
  0
SPLINE
  5
BD
330
1F
100
AcDbEntity
  8
0
  6
Continuous
 62
     7
 48
5.0
370
     0
100
AcDbSpline
210
0.0
220
0.0
230
1.0
 70
    24
 71
     3
 72
     8
 73
     4
 74
     0
 42
0.00000001
 43
0.00000001
 40
0.0
 40
0.0
 40
0.0
 40
0.0
 40
1.0
 40
1.0
 40
1.0
 40
1.0
 10
1713.319929790733
 20
1436.161292345821
 30
0.0
 10
1715.382429790733
 20
1436.161292345821
 30
0.0
 10
1719.507429790733
 20
1436.161292345821
 30
0.0
 10
1721.569929790733
 20
1436.161292345821
 30
0.0
  0
SPLINE
  5
BE
330
1F
100
AcDbEntity
  8
0
  6
Continuous
 62
     7
 48
5.0
370
     0
100
AcDbSpline
210
0.0
220
0.0
230
1.0
 70
    24
 71
     3
 72
     8
 73
     4
 74
     0
 42
0.00000001
 43
0.00000001
 40
0.0
 40
0.0
 40
0.0
 40
0.0
 40
1.0
 40
1.0
 40
1.0
 40
1.0
 10
1768.319929790733
 20
1409.66129234582
 30
0.0
 10
1761.694929790734
 20
1409.66129234582
 30
0.0
 10
1748.444929790733
 20
1409.661292345821
 30
0.0
 10
1741.819929790733
 20
1409.661292345821
 30
0.0
  0
SPLINE
  5
BF
330
1F
100
AcDbEntity
  8
0
  6
Continuous
 62
     7
 48
5.0
370
     0
100
AcDbSpline
210
0.0
220
0.0
230
1.0
 70
     8
 71
     3
 72
    12
 73
     8
 74
     0
 42
0.00000001
 43
0.00000001
 40
0.0
 40
0.0
 40
0.0
 40
0.0
 40
1.0
 40
1.0
 40
1.479953274963747
 40
1.479953274963747
 40
2.151810981758136
 40
2.151810981758136
 40
2.151810981758136
 40
2.151810981758136
 10
1779.194929790733
 20
1429.661292345821
 30
0.0
 10
1782.132429790734
 20
1429.661292345821
 30
0.0
 10
1788.007429790733
 20
1429.661292345821
 30
0.0
 10
1792.354792535943
 20
1429.661292345821
 30
0.0
 10
1793.534766987757
 20
1428.926943557725
 30
0.0
 10
1794.369102026823
 20
1425.589603401465
 30
0.0
 10
1793.857782138121
 20
1423.173456266716
 30
0.0
 10
1791.694929790736
 20
1422.911292345821
 30
0.0
  0
SPLINE
  5
C0
330
1F
100
AcDbEntity
  8
0
  6
Continuous
 62
     7
 48
5.0
370
     0
100
AcDbSpline
210
0.0
220
0.0
230
1.0
 70
    24
 71
     3
 72
     8
 73
     4
 74
     0
 42
0.00000001
 43
0.00000001
 40
0.0
 40
0.0
 40
0.0
 40
0.0
 40
1.0
 40
1.0
 40
1.0
 40
1.0
 10
1671.577113819359
 20
1390.911292345821
 30
0.0
 10
1671.577113819359
 20
1392.66129234582
 30
0.0
 10
1671.577113819359
 20
1396.161292345821
 30
0.0
 10
1671.577113819359
 20
1397.91129234582
 30
0.0
  0
SPLINE
  5
C1
330
1F
100
AcDbEntity
  8
0
  6
Continuous
 62
     7
 48
5.0
370
     0
100
AcDbSpline
210
0.0
220
0.0
230
1.0
 70
     8
 71
     3
 72
    12
 73
     8
 74
     0
 42
0.00000001
 43
0.00000001
 40
3.750764701960262
 40
3.750764701960262
 40
3.750764701960262
 40
3.750764701960262
 40
4.851761727725281
 40
4.851761727725281
 40
5.452311854171565
 40
5.452311854171565
 40
5.885672653484461
 40
5.885672653484461
 40
5.885672653484461
 40
5.885672653484461
 10
1728.20211381936
 20
1392.66129234582
 30
0.0
 10
1727.298739830922
 20
1392.66129234582
 30
0.0
 10
1725.687416416853
 20
1392.376295916491
 30
0.0
 10
1725.516948135599
 20
1393.782659236837
 30
0.0
 10
1725.516948135599
 20
1394.789925454804
 30
0.0
 10
1725.620529760272
 20
1395.644473858357
 30
0.0
 10
1725.842840120329
 20
1395.88903645296
 30
0.0
 10
1726.202113819359
 20
1395.911292345821
 30
0.0
  0
SPLINE
  5
C2
330
1F
100
AcDbEntity
  8
0
  6
Continuous
 62
     7
 48
5.0
370
     0
100
AcDbSpline
210
0.0
220
0.0
230
1.0
 70
    24
 71
     3
 72
     8
 73
     4
 74
     0
 42
0.00000001
 43
0.00000001
 40
0.0
 40
0.0
 40
0.0
 40
0.0
 40
1.0
 40
1.0
 40
1.0
 40
1.0
 10
1865.827113819359
 20
1397.66129234582
 30
0.0
 10
1866.389613819359
 20
1397.66129234582
 30
0.0
 10
1867.514613819359
 20
1397.66129234582
 30
0.0
 10
1868.077113819359
 20
1397.661292345821
 30
0.0
  0
SPLINE
  5
C3
330
1F
100
AcDbEntity
  8
0
  6
Continuous
 62
     7
 48
5.0
370
     0
100
AcDbSpline
210
0.0
220
0.0
230
1.0
 70
    24
 71
     3
 72
     8
 73
     4
 74
     0
 42
0.00000001
 43
0.00000001
 40
0.0
 40
0.0
 40
0.0
 40
0.0
 40
1.0
 40
1.0
 40
1.0
 40
1.0
 10
1891.077113819359
 20
1397.66129234582
 30
0.0
 10
1892.952113819358
 20
1397.66129234582
 30
0.0
 10
1896.702113819359
 20
1397.66129234582
 30
0.0
 10
1898.577113819359
 20
1397.66129234582
 30
0.0
  0
SPLINE
  5
C4
330
1F
100
AcDbEntity
  8
0
  6
Continuous
 62
     7
 48
5.0
370
     0
100
AcDbSpline
210
0.0
220
0.0
230
1.0
 70
     8
 71
     3
 72
    16
 73
    12
 74
     0
 42
0.00000001
 43
0.00000001
 40
0.0
 40
0.0
 40
0.0
 40
0.0
 40
1.0
 40
1.0
 40
1.74289884046095
 40
1.74289884046095
 40
1.934329872822982
 40
1.934329872822982
 40
2.495653061832944
 40
2.495653061832944
 40
3.50425146140138
 40
3.50425146140138
 40
3.50425146140138
 40
3.50425146140138
 10
1723.577113819359
 20
1397.66129234582
 30
0.0
 10
1725.358363819358
 20
1397.66129234582
 30
0.0
 10
1728.920863819359
 20
1397.66129234582
 30
0.0
 10
1732.025402378934
 20
1397.66129234582
 30
0.0
 10
1732.827113819359
 20
1396.63105074906
 30
0.0
 10
1732.827113819359
 20
1394.939773445284
 30
0.0
 10
1732.847840835513
 20
1392.619200410439
 30
0.0
 10
1732.520571599317
 20
1391.310123465656
 30
0.0
 10
1731.408663256206
 20
1390.911292345821
 30
0.0
 10
1728.733363819358
 20
1390.911292345821
 30
0.0
 10
1725.295863819359
 20
1390.911292345821
 30
0.0
 10
1723.577113819359
 20
1390.911292345821
 30
0.0
  0
SPLINE
  5
C5
330
1F
100
AcDbEntity
  8
0
  6
Continuous
 62
     7
 48
5.0
370
     0
100
AcDbSpline
210
0.0
220
0.0
230
1.0
 70
     8
 71
     3
 72
    12
 73
     8
 74
     0
 42
0.00000001
 43
0.00000001
 40
0.0
 40
0.0
 40
0.0
 40
0.0
 40
1.0
 40
1.0
 40
2.23290638170202
 40
2.23290638170202
 40
3.872304243034645
 40
3.872304243034645
 40
3.872304243034645
 40
3.872304243034645
 10
1815.327113819358
 20
1395.911292345821
 30
0.0
 10
1814.733363819359
 20
1395.911292345821
 30
0.0
 10
1813.541549502441
 20
1395.982739095285
 30
0.0
 10
1812.225394804081
 20
1395.823205192454
 30
0.0
 10
1812.327113819359
 20
1395.217836121601
 30
0.0
 10
1812.327113819359
 20
1393.63004234582
 30
0.0
 10
1812.327113819359
 20
1391.817542345821
 30
0.0
 10
1812.327113819359
 20
1390.911292345821
 30
0.0
  0
SPLINE
  5
C6
330
1F
100
AcDbEntity
  8
0
  6
Continuous
 62
     7
 48
5.0
370
     0
100
AcDbSpline
210
0.0
220
0.0
230
1.0
 70
    24
 71
     3
 72
    10
 73
     6
 74
     0
 42
0.00000001
 43
0.00000001
 40
0.0
 40
0.0
 40
0.0
 40
0.0
 40
1.0
 40
1.0
 40
1.148936170212766
 40
1.148936170212766
 40
1.148936170212766
 40
1.148936170212766
 10
1868.077113819359
 20
1397.661292345821
 30
0.0
 10
1868.077113819359
 20
1396.19254234582
 30
0.0
 10
1868.077113819359
 20
1393.255042345821
 30
0.0
 10
1868.077113819359
 20
1391.56754234582
 30
0.0
 10
1868.077113819359
 20
1391.130042345821
 30
0.0
 10
1868.077113819359
 20
1390.911292345821
 30
0.0
  0
SPLINE
  5
C7
330
1F
100
AcDbEntity
  8
0
  6
Continuous
 62
     7
 48
5.0
370
     0
100
AcDbSpline
210
0.0
220
0.0
230
1.0
 70
    24
 71
     3
 72
     8
 73
     4
 74
     0
 42
0.00000001
 43
0.00000001
 40
0.0
 40
0.0
 40
0.0
 40
0.0
 40
1.0
 40
1.0
 40
1.0
 40
1.0
 10
1868.077113819359
 20
1390.911292345821
 30
0.0
 10
1867.514613819359
 20
1390.911292345821
 30
0.0
 10
1866.389613819359
 20
1390.911292345821
 30
0.0
 10
1865.827113819359
 20
1390.911292345821
 30
0.0
  0
SPLINE
  5
C8
330
1F
100
AcDbEntity
  8
0
  6
Continuous
 62
     7
 48
5.0
370
     0
100
AcDbSpline
210
0.0
220
0.0
230
1.0
 70
    24
 71
     3
 72
     8
 73
     4
 74
     0
 42
0.00000001
 43
0.00000001
 40
0.0
 40
0.0
 40
0.0
 40
0.0
 40
1.0
 40
1.0
 40
1.0
 40
1.0
 10
1751.327113819359
 20
1397.66129234582
 30
0.0
 10
1751.827113819359
 20
1397.66129234582
 30
0.0
 10
1752.827113819359
 20
1397.66129234582
 30
0.0
 10
1753.327113819359
 20
1397.66129234582
 30
0.0
  0
SPLINE
  5
C9
330
1F
100
AcDbEntity
  8
0
  6
Continuous
 62
     7
 48
5.0
370
     0
100
AcDbSpline
210
0.0
220
0.0
230
1.0
 70
    24
 71
     3
 72
     8
 73
     4
 74
     0
 42
0.00000001
 43
0.00000001
 40
0.0
 40
0.0
 40
0.0
 40
0.0
 40
1.0
 40
1.0
 40
1.0
 40
1.0
 10
1835.077113819359
 20
1390.911292345821
 30
0.0
 10
1835.077113819359
 20
1392.598792345821
 30
0.0
 10
1835.077113819359
 20
1395.97379234582
 30
0.0
 10
1835.077113819359
 20
1397.66129234582
 30
0.0
  0
SPLINE
  5
CA
330
1F
100
AcDbEntity
  8
0
  6
Continuous
 62
     7
 48
5.0
370
     0
100
AcDbSpline
210
0.0
220
0.0
230
1.0
 70
    24
 71
     3
 72
     8
 73
     4
 74
     0
 42
0.00000001
 43
0.00000001
 40
0.0
 40
0.0
 40
0.0
 40
0.0
 40
1.0
 40
1.0
 40
1.0
 40
1.0
 10
1815.327113819358
 20
1397.66129234582
 30
0.0
 10
1815.327113819358
 20
1397.223792345821
 30
0.0
 10
1815.327113819358
 20
1396.348792345821
 30
0.0
 10
1815.327113819358
 20
1395.911292345821
 30
0.0
  0
SPLINE
  5
CB
330
1F
100
AcDbEntity
  8
0
  6
Continuous
 62
     7
 48
5.0
370
     0
100
AcDbSpline
210
0.0
220
0.0
230
1.0
 70
     8
 71
     3
 72
    12
 73
     8
 74
     0
 42
0.00000001
 43
0.00000001
 40
0.0
 40
0.0
 40
0.0
 40
0.0
 40
1.0
 40
1.0
 40
1.725995965647149
 40
1.725995965647149
 40
2.671941911593709
 40
2.671941911593709
 40
2.671941911593709
 40
2.671941911593709
 10
1898.577113819359
 20
1396.161292345821
 30
0.0
 10
1897.420863819359
 20
1396.161292345821
 30
0.0
 10
1895.099962254836
 20
1396.300425489515
 30
0.0
 10
1893.118780486026
 20
1396.060282244811
 30
0.0
 10
1893.118780486025
 20
1395.012302446831
 30
0.0
 10
1895.037916393458
 20
1394.779679912597
 30
0.0
 10
1897.233363819358
 20
1394.911292345821
 30
0.0
 10
1898.327113819359
 20
1394.911292345821
 30
0.0
  0
SPLINE
  5
CC
330
1F
100
AcDbEntity
  8
0
  6
Continuous
 62
     7
 48
5.0
370
     0
100
AcDbSpline
210
0.0
220
0.0
230
1.0
 70
     8
 71
     3
 72
    24
 73
    20
 74
     0
 42
0.00000001
 43
0.00000001
 40
0.0
 40
0.0
 40
0.0
 40
0.0
 40
1.0
 40
1.0
 40
2.846821464086397
 40
2.846821464086397
 40
4.438859699228889
 40
4.438859699228889
 40
5.988064523527982
 40
5.988064523527982
 40
8.826466755819752
 40
8.826466755819752
 40
11.03735166409459
 40
11.03735166409459
 40
11.9601964894919
 40
11.9601964894919
 40
14.43814285926044
 40
14.43814285926044
 40
14.61319364393787
 40
14.61319364393787
 40
14.61319364393787
 40
14.61319364393787
 10
1920.57711381936
 20
1393.16129234582
 30
0.0
 10
1920.522132855267
 20
1392.77642559717
 30
0.0
 10
1921.082557536622
 20
1392.456087046758
 30
0.0
 10
1922.134618294508
 20
1392.328564530651
 30
0.0
 10
1923.514613819359
 20
1392.411292345821
 30
0.0
 10
1924.794767905283
 20
1392.411292345821
 30
0.0
 10
1925.288461674626
 20
1392.824944490555
 30
0.0
 10
1924.501496870973
 20
1393.611909294208
 30
0.0
 10
1923.250994071555
 20
1393.411292345821
 30
0.0
 10
1921.696473436202
 20
1393.411292345821
 30
0.0
 10
1921.671358693116
 20
1393.356481127381
 30
0.0
 10
1919.947150749139
 20
1393.787533113375
 30
0.0
 10
1919.263884390985
 20
1393.599795309834
 30
0.0
 10
1918.556213435525
 20
1394.57284287359
 30
0.0
 10
1918.516545657796
 20
1396.448994421538
 30
0.0
 10
1918.970066237564
 20
1397.691976751272
 30
0.0
 10
1920.317389718315
 20
1397.62761132056
 30
0.0
 10
1921.264613819358
 20
1397.86441734582
 30
0.0
 10
1921.389613819359
 20
1397.895667345821
 30
0.0
 10
1921.452113819359
 20
1397.91129234582
 30
0.0
  0
SPLINE
  5
CD
330
1F
100
AcDbEntity
  8
0
  6
Continuous
 62
     7
 48
5.0
370
     0
100
AcDbSpline
210
0.0
220
0.0
230
1.0
 70
    24
 71
     3
 72
     8
 73
     4
 74
     0
 42
0.00000001
 43
0.00000001
 40
0.0
 40
0.0
 40
0.0
 40
0.0
 40
1.0
 40
1.0
 40
1.0
 40
1.0
 10
1865.827113819359
 20
1390.911292345821
 30
0.0
 10
1865.827113819359
 20
1392.598792345821
 30
0.0
 10
1865.827113819359
 20
1395.97379234582
 30
0.0
 10
1865.827113819359
 20
1397.66129234582
 30
0.0
  0
SPLINE
  5
CE
330
1F
100
AcDbEntity
  8
0
  6
Continuous
 62
     7
 48
5.0
370
     0
100
AcDbSpline
210
0.0
220
0.0
230
1.0
 70
    24
 71
     3
 72
     8
 73
     4
 74
     0
 42
0.00000001
 43
0.00000001
 40
0.0
 40
0.0
 40
0.0
 40
0.0
 40
1.0
 40
1.0
 40
1.0
 40
1.0
 10
1671.577113819359
 20
1397.91129234582
 30
0.0
 10
1672.014613819359
 20
1397.91129234582
 30
0.0
 10
1672.889613819358
 20
1397.91129234582
 30
0.0
 10
1673.327113819359
 20
1397.91129234582
 30
0.0
  0
SPLINE
  5
CF
330
1F
100
AcDbEntity
  8
0
  6
Continuous
 62
     7
 48
5.0
370
     0
100
AcDbSpline
210
0.0
220
0.0
230
1.0
 70
     8
 71
     3
 72
    16
 73
    12
 74
     0
 42
0.00000001
 43
0.00000001
 40
0.0
 40
0.0
 40
0.0
 40
0.0
 40
1.0
 40
1.0
 40
1.887873613778072
 40
1.887873613778072
 40
2.774623687925122
 40
2.774623687925122
 40
5.880562257673233
 40
5.880562257673233
 40
6.83819612358108
 40
6.83819612358108
 40
6.83819612358108
 40
6.83819612358108
 10
1695.32711381936
 20
1397.661292345814
 30
0.0
 10
1696.108363819359
 20
1397.661292345814
 30
0.0
 10
1697.676540552145
 20
1397.755301226691
 30
0.0
 10
1699.140724858871
 20
1397.577824341028
 30
0.0
 10
1699.553251698212
 20
1396.836703089514
 30
0.0
 10
1700.225550298651
 20
1395.736578106979
 30
0.0
 10
1701.12807266696
 20
1394.801680549021
 30
0.0
 10
1702.868516242433
 20
1392.481089115061
 30
0.0
 10
1702.827113819363
 20
1392.907846121261
 30
0.0
 10
1702.827113819361
 20
1395.692542345821
 30
0.0
 10
1702.82711381936
 20
1397.005042345821
 30
0.0
 10
1702.827113819359
 20
1397.66129234582
 30
0.0
  0
SPLINE
  5
D0
330
1F
100
AcDbEntity
  8
0
  6
Continuous
 62
     7
 48
5.0
370
     0
100
AcDbSpline
210
0.0
220
0.0
230
1.0
 70
    24
 71
     3
 72
     8
 73
     4
 74
     0
 42
0.00000001
 43
0.00000001
 40
0.0
 40
0.0
 40
0.0
 40
0.0
 40
1.0
 40
1.0
 40
1.0
 40
1.0
 10
1898.577113819359
 20
1397.66129234582
 30
0.0
 10
1898.577113819359
 20
1397.286292345821
 30
0.0
 10
1898.577113819359
 20
1396.53629234582
 30
0.0
 10
1898.577113819359
 20
1396.161292345821
 30
0.0
  0
SPLINE
  5
D1
330
1F
100
AcDbEntity
  8
0
  6
Continuous
 62
     7
 48
5.0
370
     0
100
AcDbSpline
210
0.0
220
0.0
230
1.0
 70
    24
 71
     3
 72
     8
 73
     4
 74
     0
 42
0.00000001
 43
0.00000001
 40
0.0
 40
0.0
 40
0.0
 40
0.0
 40
1.0
 40
1.0
 40
1.0
 40
1.0
 10
1898.327113819359
 20
1394.911292345821
 30
0.0
 10
1898.327113819359
 20
1394.59879234582
 30
0.0
 10
1898.327113819359
 20
1393.973792345821
 30
0.0
 10
1898.327113819359
 20
1393.661292345821
 30
0.0
  0
SPLINE
  5
D2
330
1F
100
AcDbEntity
  8
0
  6
Continuous
 62
     7
 48
5.0
370
     0
100
AcDbSpline
210
0.0
220
0.0
230
1.0
 70
    24
 71
     3
 72
     8
 73
     4
 74
     0
 42
0.00000001
 43
0.00000001
 40
0.0
 40
0.0
 40
0.0
 40
0.0
 40
1.0
 40
1.0
 40
1.0
 40
1.0
 10
1697.577113819357
 20
1390.911292345826
 30
0.0
 10
1697.014613819358
 20
1390.911292345826
 30
0.0
 10
1695.88961381936
 20
1390.911292345826
 30
0.0
 10
1695.32711381936
 20
1390.911292345826
 30
0.0
  0
SPLINE
  5
D3
330
1F
100
AcDbEntity
  8
0
  6
Continuous
 62
     7
 48
5.0
370
     0
100
AcDbSpline
210
0.0
220
0.0
230
1.0
 70
     8
 71
     3
 72
     8
 73
     4
 74
     0
 42
0.00000001
 43
0.00000001
 40
0.0
 40
0.0
 40
0.0
 40
0.0
 40
1.0
 40
1.0
 40
1.0
 40
1.0
 10
1781.327113819359
 20
1395.661292345821
 30
0.0
 10
1781.583756773347
 20
1395.917935299809
 30
0.0
 10
1781.841983898116
 20
1396.110504792825
 30
0.0
 10
1782.202113819359
 20
1396.161292345821
 30
0.0
  0
SPLINE
  5
D4
330
1F
100
AcDbEntity
  8
0
  6
Continuous
 62
     7
 48
5.0
370
     0
100
AcDbSpline
210
0.0
220
0.0
230
1.0
 70
    24
 71
     3
 72
     8
 73
     4
 74
     0
 42
0.00000001
 43
0.00000001
 40
0.0
 40
0.0
 40
0.0
 40
0.0
 40
1.0
 40
1.0
 40
1.0
 40
1.0
 10
1779.327113819359
 20
1393.16129234582
 30
0.0
 10
1779.827113819359
 20
1393.16129234582
 30
0.0
 10
1780.827113819359
 20
1393.16129234582
 30
0.0
 10
1781.327113819359
 20
1393.16129234582
 30
0.0
  0
SPLINE
  5
D5
330
1F
100
AcDbEntity
  8
0
  6
Continuous
 62
     7
 48
5.0
370
     0
100
AcDbSpline
210
0.0
220
0.0
230
1.0
 70
    24
 71
     3
 72
     8
 73
     4
 74
     0
 42
0.00000001
 43
0.00000001
 40
0.0
 40
0.0
 40
0.0
 40
0.0
 40
1.0
 40
1.0
 40
1.0
 40
1.0
 10
1695.32711381936
 20
1390.911292345826
 30
0.0
 10
1695.32711381936
 20
1392.598792345823
 30
0.0
 10
1695.32711381936
 20
1395.973792345817
 30
0.0
 10
1695.32711381936
 20
1397.661292345814
 30
0.0
  0
SPLINE
  5
D6
330
1F
100
AcDbEntity
  8
0
  6
Continuous
 62
     7
 48
5.0
370
     0
100
AcDbSpline
210
0.0
220
0.0
230
1.0
 70
     8
 71
     3
 72
    14
 73
    10
 74
     0
 42
0.00000001
 43
0.00000001
 40
0.0
 40
0.0
 40
0.0
 40
0.0
 40
1.0
 40
1.0
 40
2.197169395894056
 40
2.197169395894056
 40
3.331479724098275
 40
3.331479724098275
 40
3.883621381526531
 40
3.883621381526531
 40
3.883621381526531
 40
3.883621381526531
 10
1753.327113819359
 20
1397.66129234582
 30
0.0
 10
1753.327113819359
 20
1396.630042345821
 30
0.0
 10
1753.203022096604
 20
1394.560049058543
 30
0.0
 10
1753.475672632124
 20
1392.310682140505
 30
0.0
 10
1755.83669503984
 20
1392.191815223563
 30
0.0
 10
1758.008965962609
 20
1392.98440056025
 30
0.0
 10
1757.827113819359
 20
1394.444901479451
 30
0.0
 10
1757.827113819359
 20
1396.067542345821
 30
0.0
 10
1757.827113819358
 20
1397.130042345821
 30
0.0
 10
1757.827113819359
 20
1397.66129234582
 30
0.0
  0
SPLINE
  5
D7
330
1F
100
AcDbEntity
  8
0
  6
Continuous
 62
     7
 48
5.0
370
     0
100
AcDbSpline
210
0.0
220
0.0
230
1.0
 70
     8
 71
     3
 72
    16
 73
    12
 74
     0
 42
0.00000001
 43
0.00000001
 40
0.0
 40
0.0
 40
0.0
 40
0.0
 40
1.0
 40
1.0
 40
2.134066032473478
 40
2.134066032473478
 40
2.540019335138771
 40
2.540019335138771
 40
3.289870970401751
 40
3.289870970401751
 40
4.348037208180719
 40
4.348037208180719
 40
4.348037208180719
 40
4.348037208180719
 10
1759.827113819359
 20
1397.66129234582
 30
0.0
 10
1759.827113819359
 20
1396.44254234582
 30
0.0
 10
1759.827113819359
 20
1394.005042345821
 30
0.0
 10
1759.827113819359
 20
1391.404149368739
 30
0.0
 10
1758.803901789943
 20
1390.911292345821
 30
0.0
 10
1756.968224190854
 20
1390.911292345821
 30
0.0
 10
1752.90820532508
 20
1390.869880580219
 30
0.0
 10
1751.609650020786
 20
1391.34367778584
 30
0.0
 10
1751.327113819359
 20
1392.216935308788
 30
0.0
 10
1751.327113819359
 20
1394.192542345821
 30
0.0
 10
1751.327113819359
 20
1396.50504234582
 30
0.0
 10
1751.327113819359
 20
1397.66129234582
 30
0.0
  0
SPLINE
  5
D8
330
1F
100
AcDbEntity
  8
0
  6
Continuous
 62
     7
 48
5.0
370
     0
100
AcDbSpline
210
0.0
220
0.0
230
1.0
 70
    24
 71
     3
 72
     8
 73
     4
 74
     0
 42
0.00000001
 43
0.00000001
 40
0.0
 40
0.0
 40
0.0
 40
0.0
 40
1.0
 40
1.0
 40
1.0
 40
1.0
 10
1807.327113819359
 20
1397.66129234582
 30
0.0
 10
1809.327113819359
 20
1397.66129234582
 30
0.0
 10
1813.327113819359
 20
1397.66129234582
 30
0.0
 10
1815.327113819358
 20
1397.66129234582
 30
0.0
  0
SPLINE
  5
D9
330
1F
100
AcDbEntity
  8
0
  6
Continuous
 62
     7
 48
5.0
370
     0
100
AcDbSpline
210
0.0
220
0.0
230
1.0
 70
     8
 71
     3
 72
    10
 73
     6
 74
     0
 42
0.00000001
 43
0.00000001
 40
0.0
 40
0.0
 40
0.0
 40
0.0
 40
1.0
 40
1.0
 40
1.561711767639462
 40
1.561711767639462
 40
1.561711767639462
 40
1.561711767639462
 10
1841.327113819358
 20
1390.911292345821
 30
0.0
 10
1841.327113819358
 20
1393.203761052969
 30
0.0
 10
1840.535517360987
 20
1392.66129234582
 30
0.0
 10
1836.891413591373
 20
1392.66129234582
 30
0.0
 10
1837.077113819359
 20
1392.318246895417
 30
0.0
 10
1837.077113819359
 20
1390.911292345821
 30
0.0
  0
SPLINE
  5
DA
330
1F
100
AcDbEntity
  8
0
  6
Continuous
 62
     7
 48
5.0
370
     0
100
AcDbSpline
210
0.0
220
0.0
230
1.0
 70
    24
 71
     3
 72
     8
 73
     4
 74
     0
 42
0.00000001
 43
0.00000001
 40
0.0
 40
0.0
 40
0.0
 40
0.0
 40
1.0
 40
1.0
 40
1.0
 40
1.0
 10
1704.827113819356
 20
1390.911292345822
 30
0.0
 10
1703.952113819358
 20
1390.911292345822
 30
0.0
 10
1702.202113819361
 20
1390.911292345822
 30
0.0
 10
1701.327113819362
 20
1390.911292345822
 30
0.0
  0
SPLINE
  5
DB
330
1F
100
AcDbEntity
  8
0
  6
Continuous
 62
     7
 48
5.0
370
     0
100
AcDbSpline
210
0.0
220
0.0
230
1.0
 70
     8
 71
     3
 72
    10
 73
     6
 74
     0
 42
0.00000001
 43
0.00000001
 40
0.0
 40
0.0
 40
0.0
 40
0.0
 40
1.0
 40
1.0
 40
1.724061311377763
 40
1.724061311377763
 40
1.724061311377763
 40
1.724061311377763
 10
1837.702113819359
 20
1395.911292345821
 30
0.0
 10
1838.452113819358
 20
1395.911292345821
 30
0.0
 10
1839.957563482833
 20
1396.00154087146
 30
0.0
 10
1841.241213912411
 20
1395.845946879996
 30
0.0
 10
1841.485310641627
 20
1395.269947083983
 30
0.0
 10
1841.264613819359
 20
1394.78629234582
 30
0.0
  0
SPLINE
  5
DC
330
1F
100
AcDbEntity
  8
0
  6
Continuous
 62
     7
 48
5.0
370
     0
100
AcDbSpline
210
0.0
220
0.0
230
1.0
 70
     8
 71
     3
 72
    12
 73
     8
 74
     0
 42
0.00000001
 43
0.00000001
 40
0.0
 40
0.0
 40
0.0
 40
0.0
 40
1.0
 40
1.0
 40
1.059492237851416
 40
1.059492237851416
 40
2.469252055791486
 40
2.469252055791486
 40
2.469252055791486
 40
2.469252055791486
 10
1921.452113819359
 20
1397.91129234582
 30
0.0
 10
1922.554536519034
 20
1397.91129234582
 30
0.0
 10
1923.901556599505
 20
1397.986431650784
 30
0.0
 10
1925.014613819359
 20
1397.708167345821
 30
0.0
 10
1925.138158409336
 20
1397.669044516732
 30
0.0
 10
1926.717635347025
 20
1397.477592766709
 30
0.0
 10
1926.827113819359
 20
1396.99490361074
 30
0.0
 10
1926.827113819359
 20
1395.411292345821
 30
0.0
  0
SPLINE
  5
DD
330
1F
100
AcDbEntity
  8
0
  6
Continuous
 62
     7
 48
5.0
370
     0
100
AcDbSpline
210
0.0
220
0.0
230
1.0
 70
     8
 71
     3
 72
    20
 73
    16
 74
     0
 42
0.00000001
 43
0.00000001
 40
0.0
 40
0.0
 40
0.0
 40
0.0
 40
1.0
 40
1.0
 40
1.646249000200274
 40
1.646249000200274
 40
4.011059281753417
 40
4.011059281753417
 40
6.718056495626734
 40
6.718056495626734
 40
10.57357563536292
 40
10.57357563536292
 40
13.31555275665534
 40
13.31555275665534
 40
13.75934142545315
 40
13.75934142545315
 40
13.75934142545315
 40
13.75934142545315
 10
1926.827113819359
 20
1395.411292345821
 30
0.0
 10
1926.486423481126
 20
1395.411292345821
 30
0.0
 10
1925.46065721193
 20
1395.448162168108
 30
0.0
 10
1925.652373785476
 20
1394.873012447468
 30
0.0
 10
1926.249038793095
 20
1394.84789375076
 30
0.0
 10
1927.195223533864
 20
1394.269669742512
 30
0.0
 10
1927.077113819359
 20
1393.140556449579
 30
0.0
 10
1927.077113819359
 20
1391.308416629182
 30
0.0
 10
1926.417514595281
 20
1390.911292345821
 30
0.0
 10
1924.077113819359
 20
1390.911292345821
 30
0.0
 10
1921.327113819359
 20
1390.911292345821
 30
0.0
 10
1918.97423810272
 20
1390.911292345821
 30
0.0
 10
1918.577113819359
 20
1391.570891569898
 30
0.0
 10
1918.577113819359
 20
1392.69254234582
 30
0.0
 10
1918.577113819359
 20
1393.005042345821
 30
0.0
 10
1918.577113819359
 20
1393.16129234582
 30
0.0
  0
SPLINE
  5
DE
330
1F
100
AcDbEntity
  8
0
  6
Continuous
 62
     7
 48
5.0
370
     0
100
AcDbSpline
210
0.0
220
0.0
230
1.0
 70
    24
 71
     3
 72
     8
 73
     4
 74
     0
 42
0.00000001
 43
0.00000001
 40
0.0
 40
0.0
 40
0.0
 40
0.0
 40
1.0
 40
1.0
 40
1.0
 40
1.0
 10
1843.327113819359
 20
1390.911292345821
 30
0.0
 10
1842.827113819359
 20
1390.911292345821
 30
0.0
 10
1841.827113819359
 20
1390.911292345821
 30
0.0
 10
1841.327113819358
 20
1390.911292345821
 30
0.0
  0
SPLINE
  5
DF
330
1F
100
AcDbEntity
  8
0
  6
Continuous
 62
     7
 48
5.0
370
     0
100
AcDbSpline
210
0.0
220
0.0
230
1.0
 70
     8
 71
     3
 72
    20
 73
    16
 74
     0
 42
0.00000001
 43
0.00000001
 40
0.0
 40
0.0
 40
0.0
 40
0.0
 40
1.0
 40
1.0
 40
1.646249000200303
 40
1.646249000200303
 40
4.011059281753734
 40
4.011059281753734
 40
6.718056495627336
 40
6.718056495627336
 40
10.57357563536389
 40
10.57357563536389
 40
13.31555275665654
 40
13.31555275665654
 40
13.7593414254544
 40
13.7593414254544
 40
13.7593414254544
 40
13.7593414254544
 10
1787.577113819359
 20
1395.411292345821
 30
0.0
 10
1787.236423481127
 20
1395.411292345821
 30
0.0
 10
1786.21065721193
 20
1395.448162168108
 30
0.0
 10
1786.402373785476
 20
1394.873012447468
 30
0.0
 10
1786.999038793095
 20
1394.84789375076
 30
0.0
 10
1787.945223533864
 20
1394.269669742512
 30
0.0
 10
1787.827113819359
 20
1393.140556449579
 30
0.0
 10
1787.827113819359
 20
1391.308416629182
 30
0.0
 10
1787.167514595281
 20
1390.911292345821
 30
0.0
 10
1784.827113819359
 20
1390.911292345821
 30
0.0
 10
1782.077113819359
 20
1390.911292345821
 30
0.0
 10
1779.72423810272
 20
1390.911292345821
 30
0.0
 10
1779.327113819359
 20
1391.570891569898
 30
0.0
 10
1779.327113819359
 20
1392.69254234582
 30
0.0
 10
1779.327113819359
 20
1393.005042345821
 30
0.0
 10
1779.327113819359
 20
1393.16129234582
 30
0.0
  0
SPLINE
  5
E0
330
1F
100
AcDbEntity
  8
0
  6
Continuous
 62
     7
 48
5.0
370
     0
100
AcDbSpline
210
0.0
220
0.0
230
1.0
 70
     8
 71
     3
 72
    12
 73
     8
 74
     0
 42
0.00000001
 43
0.00000001
 40
0.0
 40
0.0
 40
0.0
 40
0.0
 40
1.0
 40
1.0
 40
1.669292035781093
 40
1.669292035781093
 40
2.068239101543916
 40
2.068239101543916
 40
2.068239101543916
 40
2.068239101543916
 10
1810.327113819359
 20
1390.911292345821
 30
0.0
 10
1810.327113819359
 20
1392.005042345821
 30
0.0
 10
1810.458726252584
 20
1394.200489771722
 30
0.0
 10
1810.239026665992
 20
1396.013011361099
 30
0.0
 10
1809.63365759514
 20
1395.911292345821
 30
0.0
 10
1808.545863819359
 20
1395.911292345821
 30
0.0
 10
1807.733363819359
 20
1395.911292345821
 30
0.0
 10
1807.327113819359
 20
1395.911292345821
 30
0.0
  0
SPLINE
  5
E1
330
1F
100
AcDbEntity
  8
0
  6
Continuous
 62
     7
 48
5.0
370
     0
100
AcDbSpline
210
0.0
220
0.0
230
1.0
 70
    24
 71
     3
 72
     8
 73
     4
 74
     0
 42
0.00000001
 43
0.00000001
 40
0.0
 40
0.0
 40
0.0
 40
0.0
 40
1.0
 40
1.0
 40
1.0
 40
1.0
 10
1898.827113819359
 20
1392.411292345821
 30
0.0
 10
1898.827113819359
 20
1392.03629234582
 30
0.0
 10
1898.827113819359
 20
1391.28629234582
 30
0.0
 10
1898.827113819359
 20
1390.911292345821
 30
0.0
  0
SPLINE
  5
E2
330
1F
100
AcDbEntity
  8
0
  6
Continuous
 62
     7
 48
5.0
370
     0
100
AcDbSpline
210
0.0
220
0.0
230
1.0
 70
    24
 71
     3
 72
     8
 73
     4
 74
     0
 42
0.00000001
 43
0.00000001
 40
0.0
 40
0.0
 40
0.0
 40
0.0
 40
1.0
 40
1.0
 40
1.0
 40
1.0
 10
1702.827113819359
 20
1397.66129234582
 30
0.0
 10
1703.327113819359
 20
1397.66129234582
 30
0.0
 10
1704.327113819359
 20
1397.66129234582
 30
0.0
 10
1704.827113819356
 20
1397.66129234582
 30
0.0
  0
SPLINE
  5
E3
330
1F
100
AcDbEntity
  8
0
  6
Continuous
 62
     7
 48
5.0
370
     0
100
AcDbSpline
210
0.0
220
0.0
230
1.0
 70
     8
 71
     3
 72
    12
 73
     8
 74
     0
 42
0.00000001
 43
0.00000001
 40
1.577841799328547
 40
1.577841799328547
 40
1.577841799328547
 40
1.577841799328547
 40
1.863479924375741
 40
1.863479924375741
 40
2.315978351724246
 40
2.315978351724246
 40
2.848628995492681
 40
2.848628995492681
 40
2.848628995492681
 40
2.848628995492681
 10
1924.45211381936
 20
1395.223792345821
 30
0.0
 10
1924.26976901237
 20
1395.14058646302
 30
0.0
 10
1922.148637269014
 20
1395.161292345821
 30
0.0
 10
1921.640787899903
 20
1395.161292345821
 30
0.0
 10
1920.916930328772
 20
1395.264771611649
 30
0.0
 10
1920.585317092802
 20
1395.855908249684
 30
0.0
 10
1920.802170013309
 20
1396.1365170658
 30
0.0
 10
1921.202113819359
 20
1396.161292345821
 30
0.0
  0
SPLINE
  5
E4
330
1F
100
AcDbEntity
  8
0
  6
Continuous
 62
     7
 48
5.0
370
     0
100
AcDbSpline
210
0.0
220
0.0
230
1.0
 70
    24
 71
     3
 72
     8
 73
     4
 74
     0
 42
0.00000001
 43
0.00000001
 40
0.0
 40
0.0
 40
0.0
 40
0.0
 40
1.0
 40
1.0
 40
1.0
 40
1.0
 10
1918.577113819359
 20
1393.16129234582
 30
0.0
 10
1919.077113819359
 20
1393.16129234582
 30
0.0
 10
1920.077113819358
 20
1393.16129234582
 30
0.0
 10
1920.57711381936
 20
1393.16129234582
 30
0.0
  0
SPLINE
  5
E5
330
1F
100
AcDbEntity
  8
0
  6
Continuous
 62
     7
 48
5.0
370
     0
100
AcDbSpline
210
0.0
220
0.0
230
1.0
 70
    24
 71
     3
 72
     8
 73
     4
 74
     0
 42
0.00000001
 43
0.00000001
 40
0.0
 40
0.0
 40
0.0
 40
0.0
 40
1.0
 40
1.0
 40
1.0
 40
1.0
 10
1723.577113819359
 20
1390.911292345821
 30
0.0
 10
1723.577113819359
 20
1392.598792345821
 30
0.0
 10
1723.577113819359
 20
1395.97379234582
 30
0.0
 10
1723.577113819359
 20
1397.66129234582
 30
0.0
  0
SPLINE
  5
E6
330
1F
100
AcDbEntity
  8
0
  6
Continuous
 62
     7
 48
5.0
370
     0
100
AcDbSpline
210
0.0
220
0.0
230
1.0
 70
     8
 71
     3
 72
    14
 73
    10
 74
     0
 42
0.00000001
 43
0.00000001
 40
0.0
 40
0.0
 40
0.0
 40
0.0
 40
1.0
 40
1.0
 40
1.647231829889258
 40
1.647231829889258
 40
3.232311178125295
 40
3.232311178125295
 40
5.249338650897516
 40
5.249338650897516
 40
5.249338650897516
 40
5.249338650897516
 10
1782.202113819359
 20
1396.161292345821
 30
0.0
 10
1782.577195190739
 20
1396.161292345821
 30
0.0
 10
1784.85444148912
 20
1396.257438943114
 30
0.0
 10
1785.427138417863
 20
1395.996111218348
 30
0.0
 10
1785.595187723784
 20
1395.788085797151
 30
0.0
 10
1785.3172872572
 20
1394.919646839073
 30
0.0
 10
1783.599562236705
 20
1395.161292345821
 30
0.0
 10
1782.128229988906
 20
1395.161292345821
 30
0.0
 10
1781.895536249634
 20
1395.092869915545
 30
0.0
 10
1781.327113819359
 20
1395.661292345821
 30
0.0
  0
SPLINE
  5
E7
330
1F
100
AcDbEntity
  8
0
  6
Continuous
 62
     7
 48
5.0
370
     0
100
AcDbSpline
210
0.0
220
0.0
230
1.0
 70
    24
 71
     3
 72
     8
 73
     4
 74
     0
 42
0.00000001
 43
0.00000001
 40
0.0
 40
0.0
 40
0.0
 40
0.0
 40
1.0
 40
1.0
 40
1.0
 40
1.0
 10
1812.327113819359
 20
1390.911292345821
 30
0.0
 10
1811.82711381936
 20
1390.911292345821
 30
0.0
 10
1810.82711381936
 20
1390.911292345821
 30
0.0
 10
1810.327113819359
 20
1390.911292345821
 30
0.0
  0
SPLINE
  5
E8
330
1F
100
AcDbEntity
  8
0
  6
Continuous
 62
     7
 48
5.0
370
     0
100
AcDbSpline
210
0.0
220
0.0
230
1.0
 70
     8
 71
     3
 72
    14
 73
    10
 74
     0
 42
0.00000001
 43
0.00000001
 40
0.0
 40
0.0
 40
0.0
 40
0.0
 40
1.0
 40
1.0
 40
3.504357257626456
 40
3.504357257626456
 40
5.107954719549038
 40
5.107954719549038
 40
7.682373741821248
 40
7.682373741821248
 40
7.682373741821248
 40
7.682373741821248
 10
1701.333328154591
 20
1390.911292345821
 30
0.0
 10
1701.382391649804
 20
1391.254736812311
 30
0.0
 10
1700.728986935633
 20
1391.758747304431
 30
0.0
 10
1699.999524200549
 20
1392.731364284543
 30
0.0
 10
1698.917132108633
 20
1394.091220407098
 30
0.0
 10
1698.062025261634
 20
1395.231362869763
 30
0.0
 10
1697.655939869241
 20
1395.385338991679
 30
0.0
 10
1697.466757142307
 20
1393.824581494476
 30
0.0
 10
1697.583328154591
 20
1391.880042345821
 30
0.0
 10
1697.583328154591
 20
1390.911292345821
 30
0.0
  0
SPLINE
  5
E9
330
1F
100
AcDbEntity
  8
0
  6
Continuous
 62
     7
 48
5.0
370
     0
100
AcDbSpline
210
0.0
220
0.0
230
1.0
 70
    24
 71
     3
 72
     8
 73
     4
 74
     0
 42
0.00000001
 43
0.00000001
 40
0.0
 40
0.0
 40
0.0
 40
0.0
 40
1.0
 40
1.0
 40
1.0
 40
1.0
 10
1704.827113819356
 20
1397.66129234582
 30
0.0
 10
1704.827113819356
 20
1395.97379234582
 30
0.0
 10
1704.827113819356
 20
1392.598792345821
 30
0.0
 10
1704.827113819356
 20
1390.911292345822
 30
0.0
  0
SPLINE
  5
EA
330
1F
100
AcDbEntity
  8
0
  6
Continuous
 62
     7
 48
5.0
370
     0
100
AcDbSpline
210
0.0
220
0.0
230
1.0
 70
     8
 71
     3
 72
    24
 73
    20
 74
     0
 42
0.00000001
 43
0.00000001
 40
0.0
 40
0.0
 40
0.0
 40
0.0
 40
1.0
 40
1.0
 40
2.84682146408634
 40
2.84682146408634
 40
4.438859699228829
 40
4.438859699228829
 40
5.988064523527864
 40
5.988064523527864
 40
8.826466755819625
 40
8.826466755819625
 40
11.03735166409457
 40
11.03735166409457
 40
11.96019648949209
 40
11.96019648949209
 40
14.43814285926094
 40
14.43814285926094
 40
14.61319364393833
 40
14.61319364393833
 40
14.61319364393833
 40
14.61319364393833
 10
1781.327113819359
 20
1393.16129234582
 30
0.0
 10
1781.272132855266
 20
1392.77642559717
 30
0.0
 10
1781.832557536621
 20
1392.456087046758
 30
0.0
 10
1782.884618294507
 20
1392.328564530651
 30
0.0
 10
1784.264613819359
 20
1392.411292345821
 30
0.0
 10
1785.544767905283
 20
1392.411292345821
 30
0.0
 10
1786.038461674625
 20
1392.824944490554
 30
0.0
 10
1785.251496870972
 20
1393.611909294208
 30
0.0
 10
1784.000994071554
 20
1393.411292345821
 30
0.0
 10
1782.446473436201
 20
1393.411292345821
 30
0.0
 10
1782.421358693115
 20
1393.356481127381
 30
0.0
 10
1780.69715074914
 20
1393.787533113375
 30
0.0
 10
1780.013884390985
 20
1393.599795309834
 30
0.0
 10
1779.306213435525
 20
1394.572842873591
 30
0.0
 10
1779.266545657796
 20
1396.448994421538
 30
0.0
 10
1779.720066237564
 20
1397.691976751272
 30
0.0
 10
1781.067389718314
 20
1397.62761132056
 30
0.0
 10
1782.014613819359
 20
1397.86441734582
 30
0.0
 10
1782.139613819359
 20
1397.895667345821
 30
0.0
 10
1782.202113819359
 20
1397.911292345821
 30
0.0
  0
SPLINE
  5
EB
330
1F
100
AcDbEntity
  8
0
  6
Continuous
 62
     7
 48
5.0
370
     0
100
AcDbSpline
210
0.0
220
0.0
230
1.0
 70
    24
 71
     3
 72
     8
 73
     4
 74
     0
 42
0.00000001
 43
0.00000001
 40
0.0
 40
0.0
 40
0.0
 40
0.0
 40
1.0
 40
1.0
 40
1.0
 40
1.0
 10
1807.327113819359
 20
1395.911292345821
 30
0.0
 10
1807.327113819359
 20
1396.348792345821
 30
0.0
 10
1807.327113819359
 20
1397.223792345821
 30
0.0
 10
1807.327113819359
 20
1397.66129234582
 30
0.0
  0
SPLINE
  5
EC
330
1F
100
AcDbEntity
  8
0
  6
Continuous
 62
     7
 48
5.0
370
     0
100
AcDbSpline
210
0.0
220
0.0
230
1.0
 70
    24
 71
     3
 72
     8
 73
     4
 74
     0
 42
0.00000001
 43
0.00000001
 40
0.0
 40
0.0
 40
0.0
 40
0.0
 40
1.0
 40
1.0
 40
1.0
 40
1.0
 10
1837.077113819359
 20
1390.911292345821
 30
0.0
 10
1836.577113819359
 20
1390.911292345821
 30
0.0
 10
1835.577113819359
 20
1390.911292345821
 30
0.0
 10
1835.077113819359
 20
1390.911292345821
 30
0.0
  0
SPLINE
  5
ED
330
1F
100
AcDbEntity
  8
0
  6
Continuous
 62
     7
 48
5.0
370
     0
100
AcDbSpline
210
0.0
220
0.0
230
1.0
 70
     8
 71
     3
 72
    12
 73
     8
 74
     0
 42
0.00000001
 43
0.00000001
 40
0.0
 40
0.0
 40
0.0
 40
0.0
 40
1.0
 40
1.0
 40
1.225346954716585
 40
1.225346954716585
 40
1.577841799328547
 40
1.577841799328547
 40
1.577841799328547
 40
1.577841799328547
 10
1921.202113819359
 20
1396.161292345821
 30
0.0
 10
1921.952113819359
 20
1396.161292345821
 30
0.0
 10
1923.457563482833
 20
1396.25154087146
 30
0.0
 10
1924.369895970328
 20
1396.1409551154
 30
0.0
 10
1924.713103607878
 20
1395.947261756698
 30
0.0
 10
1924.845187723785
 20
1395.53449889449
 30
0.0
 10
1924.677138417863
 20
1395.326473473293
 30
0.0
 10
1924.45211381936
 20
1395.223792345821
 30
0.0
  0
SPLINE
  5
EE
330
1F
100
AcDbEntity
  8
0
  6
Continuous
 62
     7
 48
5.0
370
     0
100
AcDbSpline
210
0.0
220
0.0
230
1.0
 70
    24
 71
     3
 72
     8
 73
     4
 74
     0
 42
0.00000001
 43
0.00000001
 40
0.0
 40
0.0
 40
0.0
 40
0.0
 40
1.0
 40
1.0
 40
1.0
 40
1.0
 10
1757.827113819359
 20
1397.66129234582
 30
0.0
 10
1758.327113819359
 20
1397.66129234582
 30
0.0
 10
1759.327113819359
 20
1397.66129234582
 30
0.0
 10
1759.827113819359
 20
1397.66129234582
 30
0.0
  0
SPLINE
  5
EF
330
1F
100
AcDbEntity
  8
0
  6
Continuous
 62
     7
 48
5.0
370
     0
100
AcDbSpline
210
0.0
220
0.0
230
1.0
 70
     8
 71
     3
 72
    12
 73
     8
 74
     0
 42
0.00000001
 43
0.00000001
 40
0.0
 40
0.0
 40
0.0
 40
0.0
 40
1.0
 40
1.0
 40
1.761539211818453
 40
1.761539211818453
 40
2.239233677214646
 40
2.239233677214646
 40
2.239233677214646
 40
2.239233677214646
 10
1782.202113819359
 20
1397.911292345821
 30
0.0
 10
1783.304536519035
 20
1397.91129234582
 30
0.0
 10
1784.651556599505
 20
1397.986431650784
 30
0.0
 10
1786.502154336538
 20
1397.523782216526
 30
0.0
 10
1786.964219042973
 20
1397.732392888998
 30
0.0
 10
1787.656453303306
 20
1396.599645917542
 30
0.0
 10
1787.577113819359
 20
1395.927463277849
 30
0.0
 10
1787.577113819359
 20
1395.411292345821
 30
0.0
  0
SPLINE
  5
F0
330
1F
100
AcDbEntity
  8
0
  6
Continuous
 62
     7
 48
5.0
370
     0
100
AcDbSpline
210
0.0
220
0.0
230
1.0
 70
    24
 71
     3
 72
     8
 73
     4
 74
     0
 42
0.00000001
 43
0.00000001
 40
0.0
 40
0.0
 40
0.0
 40
0.0
 40
1.0
 40
1.0
 40
1.0
 40
1.0
 10
1898.827113819359
 20
1390.911292345821
 30
0.0
 10
1896.889613819359
 20
1390.911292345821
 30
0.0
 10
1893.014613819359
 20
1390.911292345821
 30
0.0
 10
1891.077113819359
 20
1390.911292345821
 30
0.0
  0
SPLINE
  5
F1
330
1F
100
AcDbEntity
  8
0
  6
Continuous
 62
     7
 48
5.0
370
     0
100
AcDbSpline
210
0.0
220
0.0
230
1.0
 70
    24
 71
     3
 72
     8
 73
     4
 74
     0
 42
0.00000001
 43
0.00000001
 40
0.0
 40
0.0
 40
0.0
 40
0.0
 40
1.0
 40
1.0
 40
1.0
 40
1.0
 10
1891.077113819359
 20
1390.911292345821
 30
0.0
 10
1891.077113819359
 20
1392.598792345821
 30
0.0
 10
1891.077113819359
 20
1395.97379234582
 30
0.0
 10
1891.077113819359
 20
1397.66129234582
 30
0.0
  0
SPLINE
  5
F2
330
1F
100
AcDbEntity
  8
0
  6
Continuous
 62
     7
 48
5.0
370
     0
100
AcDbSpline
210
0.0
220
0.0
230
1.0
 70
     8
 71
     3
 72
    12
 73
     8
 74
     0
 42
0.00000001
 43
0.00000001
 40
0.0
 40
0.0
 40
0.0
 40
0.0
 40
1.0
 40
1.0
 40
2.100823264507139
 40
2.100823264507139
 40
3.750764701960262
 40
3.750764701960262
 40
3.750764701960262
 40
3.750764701960262
 10
1726.202113819359
 20
1395.911292345821
 30
0.0
 10
1727.077113819359
 20
1395.911292345821
 30
0.0
 10
1728.833471760079
 20
1396.0165822924
 30
0.0
 10
1730.658335206746
 20
1395.795386723107
 30
0.0
 10
1730.577113819358
 20
1394.679230092743
 30
0.0
 10
1730.577113819358
 20
1392.447934920773
 30
0.0
 10
1729.555899653618
 20
1392.66129234582
 30
0.0
 10
1728.20211381936
 20
1392.66129234582
 30
0.0
  0
SPLINE
  5
F3
330
1F
100
AcDbEntity
  8
0
  6
Continuous
 62
     7
 48
5.0
370
     0
100
AcDbSpline
210
0.0
220
0.0
230
1.0
 70
     8
 71
     3
 72
    12
 73
     8
 74
     0
 42
0.00000001
 43
0.00000001
 40
1.724061311377763
 40
1.724061311377763
 40
1.724061311377763
 40
1.724061311377763
 40
2.437839502158603
 40
2.437839502158603
 40
3.151617692938614
 40
3.151617692938614
 40
3.8553088460909
 40
3.8553088460909
 40
3.8553088460909
 40
3.8553088460909
 10
1841.264613819359
 20
1394.78629234582
 30
0.0
 10
1841.047051333925
 20
1394.309506473487
 30
0.0
 10
1839.726192251585
 20
1394.41129234582
 30
0.0
 10
1838.678035387132
 20
1394.41129234582
 30
0.0
 10
1837.357176304792
 20
1394.309506473487
 30
0.0
 10
1836.925125903875
 20
1395.256340330815
 30
0.0
 10
1837.173183947845
 20
1395.878526778558
 30
0.0
 10
1837.702113819359
 20
1395.911292345821
 30
0.0
  0
SPLINE
  5
F4
330
1F
100
AcDbEntity
  8
0
  6
Continuous
 62
     7
 48
5.0
370
     0
100
AcDbSpline
210
0.0
220
0.0
230
1.0
 70
     8
 71
     3
 72
    16
 73
    12
 74
     0
 42
0.00000001
 43
0.00000001
 40
0.0
 40
0.0
 40
0.0
 40
0.0
 40
1.0
 40
1.0
 40
1.568945871497022
 40
1.568945871497022
 40
1.908184038144556
 40
1.908184038144556
 40
2.22552440810489
 40
2.22552440810489
 40
2.549580356059483
 40
2.549580356059483
 40
2.549580356059483
 40
2.549580356059483
 10
1835.077113819359
 20
1397.66129234582
 30
0.0
 10
1836.795863819358
 20
1397.66129234582
 30
0.0
 10
1840.233363819359
 20
1397.66129234582
 30
0.0
 10
1842.929989535997
 20
1397.66129234582
 30
0.0
 10
1843.327113819359
 20
1397.001693121743
 30
0.0
 10
1843.327113819359
 20
1395.460665022185
 30
0.0
 10
1843.406864852287
 20
1394.570794411676
 30
0.0
 10
1842.889613819358
 20
1393.536292345821
 30
0.0
 10
1842.889613819358
 20
1393.536292345821
 30
0.0
 10
1843.394904335968
 20
1392.525711312603
 30
0.0
 10
1843.327113819359
 20
1391.459025158415
 30
0.0
 10
1843.327113819359
 20
1390.911292345821
 30
0.0
  0
SPLINE
  5
F5
330
1F
100
AcDbEntity
  8
0
  6
Continuous
 62
     7
 48
5.0
370
     0
100
AcDbSpline
210
0.0
220
0.0
230
1.0
 70
     8
 71
     3
 72
    14
 73
    10
 74
     0
 42
0.00000001
 43
0.00000001
 40
0.0
 40
0.0
 40
0.0
 40
0.0
 40
1.0
 40
1.0
 40
1.767481449398427
 40
1.767481449398427
 40
2.796052877970425
 40
2.796052877970425
 40
2.881767163684746
 40
2.881767163684746
 40
2.881767163684746
 40
2.881767163684746
 10
1898.327113819359
 20
1393.661292345821
 30
0.0
 10
1897.233363819359
 20
1393.661292345821
 30
0.0
 10
1895.037916393458
 20
1393.792904779045
 30
0.0
 10
1893.118780486025
 20
1393.560282244811
 30
0.0
 10
1893.118780486025
 20
1392.512302446831
 30
0.0
 10
1895.068939324147
 20
1392.275919557362
 30
0.0
 10
1897.327113819359
 20
1392.411292345821
 30
0.0
 10
1898.545863819359
 20
1392.411292345821
 30
0.0
 10
1898.733363819359
 20
1392.411292345821
 30
0.0
 10
1898.827113819359
 20
1392.411292345821
 30
0.0
  0
MTEXT
  5
119
330
1F
100
AcDbEntity
  8
SLD-0
 62
     1
 48
5.0
100
AcDbMText
 10
1555.9983462593
 20
279.2915992292
 30
0.0
 40
10.5833333333
 41
0.0
 71
     1
 72
     1
  1
SIDE VIEW
  7
SLDTEXTSTYLE0
 73
     1
 44
1.0
  0
MTEXT
  5
11A
330
1F
100
AcDbEntity
  8
SLD-0
 62
     1
 48
5.0
100
AcDbMText
 10
588.1142486931
 20
279.2915992292
 30
0.0
 40
10.5833333333
 41
0.0
 71
     1
 72
     1
  1
FRONT VIEW
  7
SLDTEXTSTYLE0
 73
     1
 44
1.0
  0
MTEXT
  5
11C
330
1F
100
AcDbEntity
  8
0
  6
Continuous
 62
     7
 48
5.0
370
     0
100
AcDbMText
 10
2063.182191389
 20
1349.5196190858
 30
0.0
 40
7.9375
 41
0.0
 71
     1
 72
     1
  1
1
  7
SLDTEXTSTYLE1
 73
     1
 44
1.0
  0
MTEXT
  5
11D
330
1F
100
AcDbEntity
  8
0
  6
Continuous
 62
     7
 48
5.0
370
     0
100
AcDbMText
 10
2063.8788496683
 20
1122.7280992933
 30
0.0
 40
7.9375
 41
0.0
 71
     1
 72
     1
  1
2
  7
SLDTEXTSTYLE1
 73
     1
 44
1.0
  0
MTEXT
  5
11E
330
1F
100
AcDbEntity
  8
0
  6
Continuous
 62
     7
 48
5.0
370
     0
100
AcDbMText
 10
2063.7808042915
 20
872.8761096899
 30
0.0
 40
7.9375
 41
0.0
 71
     1
 72
     1
  1
3
  7
SLDTEXTSTYLE1
 73
     1
 44
1.0
  0
MTEXT
  5
11F
330
1F
100
AcDbEntity
  8
0
  6
Continuous
 62
     7
 48
5.0
370
     0
100
AcDbMText
 10
2063.7400757902
 20
622.7134023673
 30
0.0
 40
7.9375
 41
0.0
 71
     1
 72
     1
  1
4
  7
SLDTEXTSTYLE1
 73
     1
 44
1.0
  0
MTEXT
  5
120
330
1F
100
AcDbEntity
  8
0
  6
Continuous
 62
     7
 48
5.0
370
     0
100
AcDbMText
 10
2063.8017586972
 20
372.7229025466
 30
0.0
 40
7.9375
 41
0.0
 71
     1
 72
     1
  1
5
  7
SLDTEXTSTYLE1
 73
     1
 44
1.0
  0
MTEXT
  5
121
330
1F
100
AcDbEntity
  8
0
  6
Continuous
 62
     7
 48
5.0
370
     0
100
AcDbMText
 10
30.6233095407
 20
1349.6837678181
 30
0.0
 40
7.9375
 41
0.0
 71
     1
 72
     1
  1
1
  7
SLDTEXTSTYLE1
 73
     1
 44
1.0
  0
MTEXT
  5
122
330
1F
100
AcDbEntity
  8
0
  6
Continuous
 62
     7
 48
5.0
370
     0
100
AcDbMText
 10
30.8762467313
 20
142.3134289229
 30
0.0
 40
7.9375
 41
0.0
 71
     1
 72
     1
  1
6
  7
SLDTEXTSTYLE1
 73
     1
 44
1.0
  0
MTEXT
  5
123
330
1F
100
AcDbEntity
  8
0
  6
Continuous
 62
     7
 48
5.0
370
     0
100
AcDbMText
 10
31.2428768489
 20
372.8870512788
 30
0.0
 40
7.9375
 41
0.0
 71
     1
 72
     1
  1
5
  7
SLDTEXTSTYLE1
 73
     1
 44
1.0
  0
MTEXT
  5
124
330
1F
100
AcDbEntity
  8
0
  6
Continuous
 62
     7
 48
5.0
370
     0
100
AcDbMText
 10
31.1811939419
 20
622.8775510996
 30
0.0
 40
7.9375
 41
0.0
 71
     1
 72
     1
  1
4
  7
SLDTEXTSTYLE1
 73
     1
 44
1.0
  0
MTEXT
  5
125
330
1F
100
AcDbEntity
  8
0
  6
Continuous
 62
     7
 48
5.0
370
     0
100
AcDbMText
 10
31.2219224432
 20
873.0402584221
 30
0.0
 40
7.9375
 41
0.0
 71
     1
 72
     1
  1
3
  7
SLDTEXTSTYLE1
 73
     1
 44
1.0
  0
MTEXT
  5
126
330
1F
100
AcDbEntity
  8
0
  6
Continuous
 62
     7
 48
5.0
370
     0
100
AcDbMText
 10
31.31996782
 20
1122.8922480255
 30
0.0
 40
7.9375
 41
0.0
 71
     1
 72
     1
  1
2
  7
SLDTEXTSTYLE1
 73
     1
 44
1.0
  0
MTEXT
  5
127
330
1F
100
AcDbEntity
  8
0
  6
Continuous
 62
     7
 48
5.0
370
     0
100
AcDbMText
 10
1424.2802421601
 20
1457.9218243103
 30
0.0
 40
7.9375
 41
0.0
 71
     1
 72
     1
  1
F
  7
SLDTEXTSTYLE1
 73
     1
 44
1.0
  0
MTEXT
  5
128
330
1F
100
AcDbEntity
  8
0
  6
Continuous
 62
     7
 48
5.0
370
     0
100
AcDbMText
 10
1676.2559191587
 20
1457.9079029377
 30
0.0
 40
7.9375
 41
0.0
 71
     1
 72
     1
  1
G
  7
SLDTEXTSTYLE1
 73
     1
 44
1.0
  0
MTEXT
  5
129
330
1F
100
AcDbEntity
  8
0
  6
Continuous
 62
     7
 48
5.0
370
     0
100
AcDbMText
 10
1927.4492183135
 20
1457.9183170627
 30
0.0
 40
7.9375
 41
0.0
 71
     1
 72
     1
  1
H
  7
SLDTEXTSTYLE1
 73
     1
 44
1.0
  0
MTEXT
  5
12A
330
1F
100
AcDbEntity
  8
0
  6
Continuous
 62
     7
 48
5.0
370
     0
100
AcDbMText
 10
168.434994208
 20
1457.6138306623
 30
0.0
 40
7.9375
 41
0.0
 71
     1
 72
     1
  1
A
  7
SLDTEXTSTYLE1
 73
     1
 44
1.0
  0
MTEXT
  5
12B
330
1F
100
AcDbEntity
  8
0
  6
Continuous
 62
     7
 48
5.0
370
     0
100
AcDbMText
 10
424.6934140396
 20
1457.7577240095
 30
0.0
 40
7.9375
 41
0.0
 71
     1
 72
     1
  1
B
  7
SLDTEXTSTYLE1
 73
     1
 44
1.0
  0
MTEXT
  5
12C
330
1F
100
AcDbEntity
  8
0
  6
Continuous
 62
     7
 48
5.0
370
     0
100
AcDbMText
 10
676.6690910383
 20
1457.7438026368
 30
0.0
 40
7.9375
 41
0.0
 71
     1
 72
     1
  1
C
  7
SLDTEXTSTYLE1
 73
     1
 44
1.0
  0
MTEXT
  5
12D
330
1F
100
AcDbEntity
  8
0
  6
Continuous
 62
     7
 48
5.0
370
     0
100
AcDbMText
 10
925.7166479766
 20
1457.7786908855
 30
0.0
 40
7.9375
 41
0.0
 71
     1
 72
     1
  1
D
  7
SLDTEXTSTYLE1
 73
     1
 44
1.0
  0
MTEXT
  5
12E
330
1F
100
AcDbEntity
  8
0
  6
Continuous
 62
     7
 48
5.0
370
     0
100
AcDbMText
 10
1175.3846355636
 20
1457.6585500159
 30
0.0
 40
7.9375
 41
0.0
 71
     1
 72
     1
  1
E
  7
SLDTEXTSTYLE1
 73
     1
 44
1.0
  0
MTEXT
  5
12F
330
1F
100
AcDbEntity
  8
0
  6
Continuous
 62
     7
 48
5.0
370
     0
100
AcDbMText
 10
1175.0336907502
 20
35.6114541241
 30
0.0
 40
7.9375
 41
0.0
 71
     1
 72
     1
  1
E
  7
SLDTEXTSTYLE1
 73
     1
 44
1.0
  0
MTEXT
  5
130
330
1F
100
AcDbEntity
  8
0
  6
Continuous
 62
     7
 48
5.0
370
     0
100
AcDbMText
 10
925.3657031632
 20
35.7315949937
 30
0.0
 40
7.9375
 41
0.0
 71
     1
 72
     1
  1
D
  7
SLDTEXTSTYLE1
 73
     1
 44
1.0
  0
MTEXT
  5
131
330
1F
100
AcDbEntity
  8
0
  6
Continuous
 62
     7
 48
5.0
370
     0
100
AcDbMText
 10
676.3181462249
 20
35.696706745
 30
0.0
 40
7.9375
 41
0.0
 71
     1
 72
     1
  1
C
  7
SLDTEXTSTYLE1
 73
     1
 44
1.0
  0
MTEXT
  5
132
330
1F
100
AcDbEntity
  8
0
  6
Continuous
 62
     7
 48
5.0
370
     0
100
AcDbMText
 10
168.0840493946
 20
35.5667347705
 30
0.0
 40
7.9375
 41
0.0
 71
     1
 72
     1
  1
A
  7
SLDTEXTSTYLE1
 73
     1
 44
1.0
  0
MTEXT
  5
133
330
1F
100
AcDbEntity
  8
0
  6
Continuous
 62
     7
 48
5.0
370
     0
100
AcDbMText
 10
1543.6631063581
 20
205.9598661459
 30
0.0
 40
7.9375
 41
0.0
 71
     1
 72
     1
  1
REQUESTED
  7
SLDTEXTSTYLE1
 73
     1
 44
1.0
  0
MTEXT
  5
134
330
1F
100
AcDbEntity
  8
0
  6
Continuous
 62
     7
 48
5.0
370
     0
100
AcDbMText
 10
1285.1203072563
 20
51.1261343437
 30
0.0
 40
7.9375
 41
0.0
 71
     1
 72
     1
  1
FILE
  7
SLDTEXTSTYLE1
 73
     1
 44
1.0
  0
MTEXT
  5
135
330
1F
100
AcDbEntity
  8
0
  6
Continuous
 62
     7
 48
5.0
370
     0
100
AcDbMText
 10
1283.1501528614
 20
222.5661845383
 30
0.0
 40
7.9375
 41
0.0
 71
     1
 72
     1
  1
REVISIONS
  7
SLDTEXTSTYLE1
 73
     1
 44
1.0
  0
MTEXT
  5
136
330
1F
100
AcDbEntity
  8
0
  6
Continuous
 62
     7
 48
5.0
370
     0
100
AcDbMText
 10
1692.3575714757
 20
205.9598661459
 30
0.0
 40
7.9375
 41
0.0
 71
     1
 72
     1
  1
DATE
  7
SLDTEXTSTYLE1
 73
     1
 44
1.0
  0
MTEXT
  5
137
330
1F
100
AcDbEntity
  8
0
  6
Continuous
 62
     7
 48
5.0
370
     0
100
AcDbMText
 10
1285.1203072563
 20
95.2158678407
 30
0.0
 40
7.9375
 41
0.0
 71
     1
 72
     1
  1
TOOL NUMBER
  7
SLDTEXTSTYLE1
 73
     1
 44
1.0
  0
MTEXT
  5
138
330
1F
100
AcDbEntity
  8
0
  6
Continuous
 62
     7
 48
5.0
370
     0
100
AcDbMText
 10
1450.7397660733
 20
222.5661845383
 30
0.0
 40
7.9375
 41
0.0
 71
     1
 72
     1
  1
DRAWN
  7
SLDTEXTSTYLE1
 73
     1
 44
1.0
  0
MTEXT
  5
139
330
1F
100
AcDbEntity
  8
0
  6
Continuous
 62
     7
 48
5.0
370
     0
100
AcDbMText
 10
1502.4365764373
 20
222.5661845383
 30
0.0
 40
7.9375
 41
0.0
 71
     1
 72
     1
  1
DATE
  7
SLDTEXTSTYLE1
 73
     1
 44
1.0
  0
MTEXT
  5
13A
330
1F
100
AcDbEntity
  8
0
  6
Continuous
 62
     7
 48
5.0
370
     0
100
AcDbMText
 10
1543.6265258003
 20
119.8701910953
 30
0.0
 40
7.9375
 41
0.0
 71
     1
 72
     1
  1
MATERIAL
  7
SLDTEXTSTYLE1
 73
     1
 44
1.0
  0
MTEXT
  5
13B
330
1F
100
AcDbEntity
  8
0
  6
Continuous
 62
     7
 48
5.0
370
     0
100
AcDbMText
 10
1580.1411420249
 20
222.9159801483
 30
0.0
 40
7.9375
 41
0.0
 71
     1
 72
     1
  1
DO NOT SCALE DRAWING
  7
SLDTEXTSTYLE1
 73
     1
 44
1.0
  0
MTEXT
  5
13C
330
1F
100
AcDbEntity
  8
0
  6
Continuous
 62
     7
 48
5.0
370
     0
100
AcDbMText
 10
1757.8203320667
 20
109.4527819355
 30
0.0
 40
7.9375
 41
0.0
 71
     1
 72
     1
  1
PART NUMBER
  7
SLDTEXTSTYLE1
 73
     1
 44
1.0
  0
MTEXT
  5
13D
330
1F
100
AcDbEntity
  8
0
  6
Continuous
 62
     7
 48
5.0
370
     0
100
AcDbMText
 10
1761.4632302576
 20
222.9159801483
 30
0.0
 40
7.9375
 41
0.0
 71
     1
 72
     1
  1
TITLE
  7
SLDTEXTSTYLE1
 73
     1
 44
1.0
  0
MTEXT
  5
13E
330
1F
100
AcDbEntity
  8
0
  6
Continuous
 62
     7
 48
5.0
370
     0
100
AcDbMText
 10
1648.2745128143
 20
52.1229530026
 30
0.0
 40
7.9375
 41
0.0
 71
     1
 72
     1
  1
UNITS = MM
  7
SLDTEXTSTYLE1
 73
     1
 44
1.0
  0
MTEXT
  5
13F
330
1F
100
AcDbEntity
  8
0
  6
Continuous
 62
     7
 48
5.0
370
     0
100
AcDbMText
 10
1790.7321012065
 20
52.0659101099
 30
0.0
 40
7.9375
 41
0.0
 71
     1
 72
     1
  1
SCALE : NTS  (UOS)
  7
SLDTEXTSTYLE1
 73
     1
 44
1.0
  0
MTEXT
  5
140
330
1F
100
AcDbEntity
  8
0
  6
Continuous
 62
     7
 48
5.0
370
     0
100
AcDbMText
 10
1966.1187956436
 20
52.0659101099
 30
0.0
 40
7.9375
 41
0.0
 71
     1
 72
     1
  1
SHEET 1 OF 1
  7
SLDTEXTSTYLE1
 73
     1
 44
1.0
  0
MTEXT
  5
141
330
1F
100
AcDbEntity
  8
0
  6
Continuous
 62
     7
 48
5.0
370
     0
100
AcDbMText
 10
1562.7499279408
 20
52.3242089051
 30
0.0
 40
7.9375
 41
0.0
 71
     1
 72
     1
  1
A3
  7
SLDTEXTSTYLE1
 73
     1
 44
1.0
  0
MTEXT
  5
142
330
1F
100
AcDbEntity
  8
0
  6
Continuous
 62
     7
 48
5.0
370
     0
100
AcDbMText
 10
424.3424692262
 20
35.7106281177
 30
0.0
 40
7.9375
 41
0.0
 71
     1
 72
     1
  1
B
  7
SLDTEXTSTYLE1
 73
     1
 44
1.0
  0
MTEXT
  5
143
330
1F
100
AcDbEntity
  8
0
  6
Continuous
 62
     7
 48
5.0
370
     0
100
AcDbMText
 10
1543.6631063581
 20
177.5433661459
 30
0.0
 40
7.9375
 41
0.0
 71
     1
 72
     1
  1
DRAWN
  7
SLDTEXTSTYLE1
 73
     1
 44
1.0
  0
MTEXT
  5
144
330
1F
100
AcDbEntity
  8
0
  6
Continuous
 62
     7
 48
5.0
370
     0
100
AcDbMText
 10
1692.3575714757
 20
177.5433661459
 30
0.0
 40
7.9375
 41
0.0
 71
     1
 72
     1
  1
DATE
  7
SLDTEXTSTYLE1
 73
     1
 44
1.0
  0
MTEXT
  5
145
330
1F
100
AcDbEntity
  8
0
  6
Continuous
 62
     7
 48
5.0
370
     0
100
AcDbMText
 10
1692.3575714757
 20
149.1268661459
 30
0.0
 40
7.9375
 41
0.0
 71
     1
 72
     1
  1
DATE
  7
SLDTEXTSTYLE1
 73
     1
 44
1.0
  0
MTEXT
  5
146
330
1F
100
AcDbEntity
  8
0
  6
Continuous
 62
     7
 48
5.0
370
     0
100
AcDbMText
 10
1543.6631063581
 20
149.1268661459
 30
0.0
 40
7.9375
 41
0.0
 71
     1
 72
     1
  1
APPROVED
  7
SLDTEXTSTYLE1
 73
     1
 44
1.0
  0
MTEXT
  5
147
330
1F
100
AcDbEntity
  8
0
  6
Continuous
 62
     7
 48
5.0
370
     0
100
AcDbMText
 10
1285.1203072563
 20
72.2530727966
 30
0.0
 40
7.9375
 41
0.0
 71
     1
 72
     1
  1
PART WEIGHT(GRAMS)
  7
SLDTEXTSTYLE1
 73
     1
 44
1.0
  0
MTEXT
  5
148
330
1F
100
AcDbEntity
  8
0
  6
Continuous
 62
     7
 48
5.0
370
     0
100
AcDbMText
 10
1786.6402516559
 20
86.3023300546
 30
0.0
 40
7.9375
 41
0.0
 71
     1
 72
     1
  1
SCUP 65
  7
SLDTEXTSTYLE1
 73
     1
 44
1.0
  0
MTEXT
  5
149
330
1F
100
AcDbEntity
  8
0
  6
Continuous
 62
     7
 48
5.0
370
     0
100
AcDbMText
 10
1786.6402516559
 20
202.9524036561
 30
0.0
 40
7.9375
 41
0.0
 71
     1
 72
     1
  1
65x100MM SCUPPER DRAIN
  7
SLDTEXTSTYLE1
 73
     1
 44
1.0
  0
MTEXT
  5
14A
330
1F
100
AcDbEntity
  8
0
  6
Continuous
 62
     7
 48
5.0
370
     0
100
AcDbMText
 10
1424.6626979307
 20
34.6024932086
 30
0.0
 40
7.9375
 41
0.0
 71
     1
 72
     1
  1
F
  7
SLDTEXTSTYLE1
 73
     1
 44
1.0
  0
MTEXT
  5
14B
330
1F
100
AcDbEntity
  8
0
  6
Continuous
 62
     7
 48
5.0
370
     0
100
AcDbMText
 10
1675.4873912957
 20
35.3158811301
 30
0.0
 40
7.9375
 41
0.0
 71
     1
 72
     1
  1
G
  7
SLDTEXTSTYLE1
 73
     1
 44
1.0
  0
MTEXT
  5
14C
330
1F
100
AcDbEntity
  8
0
  6
Continuous
 62
     7
 48
5.0
370
     0
100
AcDbMText
 10
1926.4935169363
 20
35.1736043919
 30
0.0
 40
7.9375
 41
0.0
 71
     1
 72
     1
  1
H
  7
SLDTEXTSTYLE1
 73
     1
 44
1.0
  0
MTEXT
  5
14D
330
1F
100
AcDbEntity
  8
0
  6
Continuous
 62
     7
 48
5.0
370
     0
100
AcDbMText
 10
1464.6893227095
 20
93.3857959602
 30
0.0
 40
7.9375
 41
0.0
 71
     1
 72
     1
  1
0.0
  7
SLDTEXTSTYLE1
 73
     1
 44
1.0
  0
MTEXT
  5
14E
330
1F
100
AcDbEntity
  8
0
  6
Continuous
 62
     7
 48
5.0
370
     0
100
AcDbMText
 10
1464.6893227095
 20
72.2530727966
 30
0.0
 40
7.9375
 41
0.0
 71
     1
 72
     1
  1
0.0
  7
SLDTEXTSTYLE1
 73
     1
 44
1.0
  0
MTEXT
  5
14F
330
1F
100
AcDbEntity
  8
0
  6
Continuous
 62
     7
 48
5.0
370
     0
100
AcDbMText
 10
1599.8019225286
 20
191.516523796
 30
0.0
 40
7.9375
 41
0.0
 71
     1
 72
     1
  1
J.M
  7
SLDTEXTSTYLE1
 73
     1
 44
1.0
  0
MTEXT
  5
150
330
1F
100
AcDbEntity
  8
0
  6
Continuous
 62
     7
 48
5.0
370
     0
100
AcDbMText
 10
1679.2634554734
 20
194.405913799
 30
0.0
 40
7.9375
 41
0.0
 71
     1
 72
     1
  1
1.4.2014
  7
SLDTEXTSTYLE1
 73
     1
 44
1.0
  0
MTEXT
  5
151
330
1F
100
AcDbEntity
  8
0
  6
Continuous
 62
     7
 48
5.0
370
     0
100
AcDbMText
 10
1680.0516508882
 20
165.0424931845
 30
0.0
 40
7.9375
 41
0.0
 71
     1
 72
     1
  1
2.4.2014
  7
SLDTEXTSTYLE1
 73
     1
 44
1.0
  0
MTEXT
  5
152
330
1F
100
AcDbEntity
  8
0
  6
Continuous
 62
     7
 48
5.0
370
     0
100
AcDbMText
 10
1601.6595181632
 20
169.0133445707
 30
0.0
 40
7.9375
 41
0.0
 71
     1
 72
     1
  1
S.L.
  7
SLDTEXTSTYLE1
 73
     1
 44
1.0
  0
MTEXT
  5
153
330
1F
100
AcDbEntity
  8
SLD-0
 48
5.0
100
AcDbMText
 10
1330.376346883
 20
58.6150758249
 30
0.0
 40
6.6145833333
 41
0.0
 71
     1
 72
     1
  1
S/CAD FILES/2014/DIVERSE/SCUP65
  7
SLDTEXTSTYLE1
 73
     1
 44
1.0
  0
MTEXT
  5
154
330
1F
100
AcDbEntity
  8
SLD-0
 48
5.0
100
AcDbMText
 10
1290.9663238217
 20
116.7019266909
 30
0.0
 40
7.9375
 41
0.0
 71
     1
 72
     1
  1
XXX
  7
SLDTEXTSTYLE1
 73
     1
 44
1.0
  0
MTEXT
  5
155
330
1F
100
AcDbEntity
  8
SLD-0
 48
5.0
100
AcDbMText
 10
1460.2096460973
 20
116.7019266909
 30
0.0
 40
7.9375
 41
0.0
 71
     1
 72
     1
  1
S.L.
  7
SLDTEXTSTYLE1
 73
     1
 44
1.0
  0
MTEXT
  5
156
330
1F
100
AcDbEntity
  8
SLD-0
 48
5.0
100
AcDbMText
 10
1505.1136457158
 20
116.7019266909
 30
0.0
 40
7.9375
 41
0.0
 71
     1
 72
     1
  1
XXX
  7
SLDTEXTSTYLE1
 73
     1
 44
1.0
  0
MTEXT
  5
157
330
1F
100
AcDbEntity
  8
SLD-0
 48
5.0
100
AcDbMText
 10
1365.6805000657
 20
222.5661845383
 30
0.0
 40
7.9375
 41
0.0
 71
     1
 72
     1
  1
CHANGES
  7
SLDTEXTSTYLE1
 73
     1
 44
1.0
  0
MTEXT
  5
158
330
1F
100
AcDbEntity
  8
SLD-0
 48
5.0
100
AcDbMText
 10
1374.641227801
 20
116.7019266909
 30
0.0
 40
7.9375
 41
0.0
 71
     1
 72
     1
  1
XXX
  7
SLDTEXTSTYLE1
 73
     1
 44
1.0
  0
INSERT
  5
15F
330
1F
100
AcDbEntity
  8
SLD-0
 62
     7
 48
5.0
100
AcDbBlockReference
  2
SW_NOTE_0
 10
46.2011278298
 20
67.6118398263
 30
0.0
  0
MTEXT
  5
160
330
1F
100
AcDbEntity
  8
SLD-0
 62
     7
 48
5.0
100
AcDbMText
 10
1645.1399556488
 20
1353.5504300173
 30
0.0
 40
7.9375
 41
0.0
 71
     1
 72
     1
  1
CODE
  7
SLDTEXTSTYLE1
 73
     1
 44
1.0
  0
MTEXT
  5
161
330
1F
100
AcDbEntity
  8
SLD-0
 62
     7
 48
5.0
100
AcDbMText
 10
1767.7559595832
 20
1374.674003695
 30
0.0
 40
7.9375
 41
0.0
 71
     1
 72
     1
  1
DESCRIPTION
  7
SLDTEXTSTYLE1
 73
     1
 44
1.0
  0
MTEXT
  5
162
330
1F
100
AcDbEntity
  8
SLD-0
 62
     7
 48
5.0
100
AcDbMText
 10
1916.2149213718
 20
1353.5504300173
 30
0.0
 40
7.9375
 41
0.0
 71
     1
 72
     1
  1
FINISH
  7
SLDTEXTSTYLE1
 73
     1
 44
1.0
  0
MTEXT
  5
163
330
1F
100
AcDbEntity
  8
SLD-0
 48
5.0
100
AcDbMText
 10
1757.8203320667
 20
141.4196521444
 30
0.0
 40
7.9375
 41
0.0
 71
     1
 72
     1
  1
APPLICABLE STANDARD(S):
  7
SLDTEXTSTYLE1
 73
     1
 44
1.0
  0
LINE
  5
164
330
1F
100
AcDbEntity
  8
0
  6
Continuous
 62
     7
 48
5.0
370
     0
100
AcDbLine
 10
708.1306841165
 20
491.7768570503
 30
0.0
 11
705.5306841165
 21
491.7768570503
 31
0.0
  0
LINE
  5
165
330
1F
100
AcDbEntity
  8
0
  6
Continuous
 62
     7
 48
5.0
370
     0
100
AcDbLine
 10
705.5306841165
 20
491.7768570503
 30
0.0
 11
705.5306841165
 21
541.7768570503
 31
0.0
  0
LINE
  5
166
330
1F
100
AcDbEntity
  8
0
  6
Continuous
 62
     7
 48
5.0
370
     0
100
AcDbLine
 10
705.5306841165
 20
541.7768570503
 30
0.0
 11
708.1306841165
 21
541.7768570503
 31
0.0
  0
LINE
  5
167
330
1F
100
AcDbEntity
  8
0
  6
Continuous
 62
     7
 48
5.0
370
     0
100
AcDbLine
 10
708.1306841165
 20
541.7768570503
 30
0.0
 11
708.1306841165
 21
491.7768570503
 31
0.0
  0
LINE
  5
168
330
1F
100
AcDbEntity
  8
0
  6
Continuous
 62
     7
 48
5.0
370
     0
100
AcDbLine
 10
775.5306841165
 20
366.7768570503
 30
0.0
 11
775.5306841165
 21
369.3768570503
 31
0.0
  0
LINE
  5
169
330
1F
100
AcDbEntity
  8
0
  6
Continuous
 62
     7
 48
5.0
370
     0
100
AcDbLine
 10
825.5306841165
 20
369.3768570503
 30
0.0
 11
825.5306841165
 21
366.7768570503
 31
0.0
  0
LINE
  5
16A
330
1F
100
AcDbEntity
  8
0
  6
Continuous
 62
     7
 48
5.0
370
     0
100
AcDbLine
 10
775.5306841165
 20
369.3768570503
 30
0.0
 11
825.5306841165
 21
369.3768570503
 31
0.0
  0
LINE
  5
16B
330
1F
100
AcDbEntity
  8
0
  6
Continuous
 62
     7
 48
5.0
370
     0
100
AcDbLine
 10
825.5306841165
 20
366.7768570503
 30
0.0
 11
775.5306841165
 21
366.7768570503
 31
0.0
  0
LINE
  5
16C
330
1F
100
AcDbEntity
  8
0
  6
Continuous
 62
     7
 48
5.0
370
     0
100
AcDbLine
 10
705.5306841165
 20
491.7768570503
 30
0.0
 11
705.5306841165
 21
376.7768570503
 31
0.0
  0
LINE
  5
16D
330
1F
100
AcDbEntity
  8
0
  6
Continuous
 62
     7
 48
5.0
370
     0
100
AcDbLine
 10
775.5306841165
 20
369.3768570503
 30
0.0
 11
715.5306841165
 21
369.3768570503
 31
0.0
  0
LINE
  5
16E
330
1F
100
AcDbEntity
  8
0
  6
Continuous
 62
     7
 48
5.0
370
     0
100
AcDbLine
 10
715.5306841165
 20
366.7768570503
 30
0.0
 11
775.5306841165
 21
366.7768570503
 31
0.0
  0
ARC
  5
16F
330
1F
100
AcDbEntity
  8
0
  6
Continuous
 62
     7
 48
25.0
370
     0
100
AcDbCircle
 10
715.5306841165
 20
376.7768570503
 30
0.0
 40
10.0
100
AcDbArc
 50
180.0
 51
270.0
  0
ARC
  5
170
330
1F
100
AcDbEntity
  8
0
  6
Continuous
 62
     7
 48
25.0
370
     0
100
AcDbCircle
 10
715.5306841165
 20
376.7768570503
 30
0.0
 40
7.400000000000091
100
AcDbArc
 50
180.0
 51
270.0
  0
LINE
  5
171
330
1F
100
AcDbEntity
  8
0
  6
Continuous
 62
     7
 48
5.0
370
     0
100
AcDbLine
 10
708.1306841165
 20
376.7768570503
 30
0.0
 11
708.1306841165
 21
491.7768570503
 31
0.0
  0
LINE
  5
172
330
1F
100
AcDbEntity
  8
0
  6
Continuous
 62
     7
 48
5.0
370
     0
100
AcDbLine
 10
705.5306841165
 20
423.1196337125
 30
0.0
 11
702.5306841165
 21
423.1196337125
 31
0.0
  0
SPLINE
  5
173
330
1F
100
AcDbEntity
  8
0
  6
Continuous
 62
     7
 48
5.0
370
     0
100
AcDbSpline
210
0.0
220
0.0
230
1.0
 70
     8
 71
     3
 72
    27
 73
    23
 74
     0
 42
0.00000001
 43
0.00000001
 40
0.0
 40
0.0
 40
0.0
 40
0.0
 40
0.1250000000000009
 40
0.1250000000000009
 40
0.1875000000000012
 40
0.1875000000000012
 40
0.2500000000000015
 40
0.2500000000000015
 40
0.3750000000000021
 40
0.3750000000000021
 40
0.5000000000000027
 40
0.5000000000000027
 40
0.6250000000000032
 40
0.6250000000000032
 40
0.6875000000000026
 40
0.6875000000000026
 40
0.7500000000000019
 40
0.8125000000000013
 40
0.8125000000000013
 40
0.8750000000000007
 40
0.8750000000000007
 40
1.0
 40
1.0
 40
1.0
 40
1.0
 10
702.5306841164988
 20
423.1196337124737
 30
0.0
 10
702.5410586092256
 20
423.6480630533631
 30
0.0
 10
702.5512603464603
 20
424.1676943569407
 30
0.0
 10
702.5663120899648
 20
424.9344811415975
 30
0.0
 10
702.5712872250078
 20
425.1879510593012
 30
0.0
 10
702.5811510435769
 20
425.6905424811836
 30
0.0
 10
702.5860534861117
 20
425.9403656066602
 30
0.0
 10
702.6003139477632
 20
426.6671658541041
 30
0.0
 10
702.6093307371077
 20
427.1268575345971
 30
0.0
 10
702.6263921230556
 20
427.9969874996509
 30
0.0
 10
702.6344697877491
 20
428.4091170386638
 30
0.0
 10
702.6489470169807
 20
429.1480370224665
 30
0.0
 10
702.6554420672744
 20
429.4796949476474
 30
0.0
 10
702.6640446317456
 20
429.9191155826849
 30
0.0
 10
702.6667165480409
 20
430.0556253045185
 30
0.0
 10
702.6715588847
 20
430.3030611490736
 30
0.0
 10
702.6759335772152
 20
430.5266423757466
 30
0.0
 10
702.6793879614498
 20
430.7032390183122
 30
0.0
 10
702.6823763097756
 20
430.8560253659282
 30
0.0
 10
702.6836414910732
 20
430.9207192175562
 30
0.0
 10
702.686676809197
 20
431.075936723662
 30
0.0
 10
702.687691985228
 20
431.1278621462039
 30
0.0
 10
702.687691985228
 20
431.1278621462038
 30
0.0
  0
ARC
  5
174
330
1F
100
AcDbEntity
  8
0
  6
Continuous
 62
     7
 48
25.0
370
     0
100
AcDbCircle
 10
702.5306841165
 20
434.1237507505
 30
0.0
 40
3.000000000000114
100
AcDbArc
 50
273.0
 51
0.0
  0
LINE
  5
175
330
1F
100
AcDbEntity
  8
0
  6
Continuous
 62
     7
 48
5.0
370
     0
100
AcDbLine
 10
705.6681167496
 20
375.1246570219
 30
0.0
 11
702.7093465396
 21
374.6289970133
 31
0.0
  0
SPLINE
  5
176
330
1F
100
AcDbEntity
  8
0
  6
Continuous
 62
     7
 48
5.0
370
     0
100
AcDbSpline
210
0.0
220
0.0
230
1.0
 70
     8
 71
     3
 72
    16
 73
    12
 74
     0
 42
0.00000001
 43
0.00000001
 40
0.0
 40
0.0
 40
0.0
 40
0.0
 40
0.2500000000000033
 40
0.2500000000000033
 40
0.5000000000000066
 40
0.5000000000000066
 40
0.6250000000000061
 40
0.6250000000000061
 40
0.7500000000000056
 40
0.7500000000000056
 40
1.0
 40
1.0
 40
1.0
 40
1.0
 10
705.5585490979748
 20
370.1659077078655
 30
0.0
 10
705.8067593933969
 20
370.3038900119601
 30
0.0
 10
706.0496007452368
 20
370.4130350187573
 30
0.0
 10
706.524585270252
 20
370.573879721673
 30
0.0
 10
706.7466348346157
 20
370.6220141681787
 30
0.0
 10
707.0542620597332
 20
370.6460416050419
 30
0.0
 10
707.1525071630706
 20
370.6457573433422
 30
0.0
 10
707.3341064990342
 20
370.6288587530644
 30
0.0
 10
707.4183689631735
 20
370.6123536831437
 30
0.0
 10
707.6514947949524
 20
370.5386101201695
 30
0.0
 10
707.7807892322116
 20
370.4554779698059
 30
0.0
 10
707.8733326522527
 20
370.3452966989771
 30
0.0
  0
SPLINE
  5
177
330
1F
100
AcDbEntity
  8
0
  6
Continuous
 62
     7
 48
5.0
370
     0
100
AcDbSpline
210
0.0
220
0.0
230
1.0
 70
     8
 71
     3
 72
    17
 73
    13
 74
     0
 42
0.00000001
 43
0.00000001
 40
0.0
 40
0.0
 40
0.0
 40
0.0
 40
0.0000188027577087
 40
0.0000188027577087
 40
0.0000188027577087
 40
0.000037475789254
 40
0.000037475789254
 40
0.000037475789254
 40
0.0000702116592658
 40
0.0000702116592658
 40
0.0000702116592658
 40
0.0000765574726114
 40
0.0000765574726114
 40
0.0000765574726114
 40
0.0000765574726114
 10
705.5585490979748
 20
370.1659077078655
 30
0.0
 10
705.5533669133263
 20
370.1630268854657
 30
0.0
 10
705.5487411430386
 20
370.1593516196384
 30
0.0
 10
705.5450531631227
 20
370.1552151442659
 30
0.0
 10
705.5413783652435
 20
370.1510934539981
 30
0.0
 10
705.5385270388953
 20
370.1464427246602
 30
0.0
 10
705.5364317402327
 20
370.1416476667176
 30
0.0
 10
705.5327770936731
 20
370.1332840657071
 30
0.0
 10
705.5312277417032
 20
370.1242944454554
 30
0.0
 10
705.5308054754493
 20
370.1154483678069
 30
0.0
 10
705.530722892301
 20
370.1137183291509
 30
0.0
 10
705.530684116499
 20
370.1119871196083
 30
0.0
 10
705.530684116499
 20
370.1102567716096
 30
0.0
  0
SPLINE
  5
178
330
1F
100
AcDbEntity
  8
0
  6
Continuous
 62
     7
 48
5.0
370
     0
100
AcDbSpline
210
0.0
220
0.0
230
1.0
 70
     8
 71
     3
 72
    18
 73
    14
 74
     0
 42
0.00000001
 43
0.00000001
 40
0.0
 40
0.0
 40
0.0
 40
0.0
 40
0.2500000000000002
 40
0.2500000000000002
 40
0.5000000000000004
 40
0.5000000000000004
 40
0.6250000000000003
 40
0.6250000000000003
 40
0.7500000000000002
 40
0.7500000000000002
 40
0.8750000000000001
 40
0.8750000000000001
 40
1.0
 40
1.0
 40
1.0
 40
1.0
 10
705.5306841164987
 20
370.1102567716096
 30
0.0
 10
705.2075573240912
 20
370.3873717587719
 30
0.0
 10
704.8957672083732
 20
370.6889259411354
 30
0.0
 10
704.3125819658565
 20
371.3388282449587
 30
0.0
 10
704.0401406771006
 20
371.6876446996685
 30
0.0
 10
703.667598288633
 20
372.2559132904747
 30
0.0
 10
703.5489142779816
 20
372.4540535459527
 30
0.0
 10
703.329711306345
 20
372.8599219017554
 30
0.0
 10
703.2288665642386
 20
373.0679408537618
 30
0.0
 10
703.0459506036103
 20
373.4949194291365
 30
0.0
 10
702.9638739812905
 20
373.7138755952093
 30
0.0
 10
702.8202428764178
 20
374.1638073016831
 30
0.0
 10
702.7586947724046
 20
374.3953051851123
 30
0.0
 10
702.7093465395767
 20
374.6289970133088
 30
0.0
  0
ARC
  5
179
330
1F
100
AcDbEntity
  8
0
  6
Continuous
 62
     7
 48
25.0
370
     0
100
AcDbCircle
 10
715.5306841165
 20
376.7768570503
 30
0.0
 40
13.00000000000027
100
AcDbArc
 50
180.0
 51
189.5100151155
  0
LINE
  5
17A
330
1F
100
AcDbEntity
  8
0
  6
Continuous
 62
     7
 48
5.0
370
     0
100
AcDbLine
 10
705.5306841165
 20
376.7768570503
 30
0.0
 11
702.5306841165
 21
376.7768570503
 31
0.0
  0
LINE
  5
17B
330
1F
100
AcDbEntity
  8
0
  6
Continuous
 62
     7
 48
5.0
370
     0
100
AcDbLine
 10
702.5306841165
 20
376.7768570503
 30
0.0
 11
702.5306841165
 21
423.1196337125
 31
0.0
  0
LINE
  5
17C
330
1F
100
AcDbEntity
  8
0
  6
Continuous
 62
     7
 48
5.0
370
     0
100
AcDbLine
 10
205.5306841165
 20
397.0729674088
 30
0.0
 11
702.5306841165
 21
423.1196337125
 31
0.0
  0
SPLINE
  5
17D
330
1F
100
AcDbEntity
  8
0
  6
Continuous
 62
     7
 48
5.0
370
     0
100
AcDbSpline
210
0.0
220
0.0
230
1.0
 70
    24
 71
     3
 72
    18
 73
    14
 74
     0
 42
0.00000001
 43
0.00000001
 40
0.0
 40
0.0
 40
0.0
 40
0.0
 40
0.1249999999999998
 40
0.1249999999999998
 40
0.2499999999999995
 40
0.2499999999999995
 40
0.4999999999999997
 40
0.4999999999999997
 40
0.7499999999999998
 40
0.7499999999999998
 40
0.8749999999999999
 40
0.8749999999999999
 40
1.0
 40
1.0
 40
1.0
 40
1.0
 10
205.530684116499
 20
405.0729674088041
 30
0.0
 10
205.5306841164989
 20
405.0729674088041
 30
0.0
 10
205.5306841164989
 20
405.0213460004657
 30
0.0
 10
205.5306841164991
 20
404.8168016281843
 30
0.0
 10
205.530684116499
 20
404.6638189205989
 30
0.0
 10
205.530684116499
 20
404.0627470543405
 30
0.0
 10
205.5306841164991
 20
403.4689240500073
 30
0.0
 10
205.5306841164989
 20
401.9876527137338
 30
0.0
 10
205.530684116499
 20
401.1000682878882
 30
0.0
 10
205.530684116499
 20
399.6462564575486
 30
0.0
 10
205.530684116499
 20
399.1422343028211
 30
0.0
 10
205.5306841164991
 20
398.1168032265094
 30
0.0
 10
205.530684116499
 20
397.5979798563535
 30
0.0
 10
205.530684116499
 20
397.072967408804
 30
0.0
  0
LINE
  5
17E
330
1F
100
AcDbEntity
  8
0
  6
Continuous
 62
     7
 48
5.0
370
     0
100
AcDbLine
 10
205.5306841165
 20
405.0729674088
 30
0.0
 11
702.6876919852
 21
431.1278621462
 31
0.0
  0
LINE
  5
17F
330
1F
100
AcDbEntity
  8
0
  6
Continuous
 62
     7
 48
5.0
370
     0
100
AcDbLine
 10
705.5306841165
 20
366.7768570503
 30
0.0
 11
705.5306841165
 21
370.1102567716
 31
0.0
  0
LINE
  5
180
330
1F
100
AcDbEntity
  8
0
  6
Continuous
 62
     7
 48
5.0
370
     0
100
AcDbLine
 10
205.5306841165
 20
340.5729674088
 30
0.0
 11
705.5306841165
 21
366.7768570503
 31
0.0
  0
LINE
  5
181
330
1F
100
AcDbEntity
  8
0
  6
Continuous
 62
     7
 48
5.0
370
     0
100
AcDbLine
 10
205.5306841165
 20
348.5729674088
 30
0.0
 11
702.7093465396
 21
374.6289970133
 31
0.0
  0
SPLINE
  5
182
330
1F
100
AcDbEntity
  8
0
  6
Continuous
 62
     7
 48
5.0
370
     0
100
AcDbSpline
210
0.0
220
0.0
230
1.0
 70
    24
 71
     3
 72
    22
 73
    18
 74
     0
 42
0.00000001
 43
0.00000001
 40
0.0
 40
0.0
 40
0.0
 40
0.0
 40
0.1249999999999997
 40
0.1249999999999997
 40
0.1874999999999996
 40
0.1874999999999996
 40
0.2499999999999994
 40
0.2499999999999994
 40
0.4999999999999993
 40
0.4999999999999993
 40
0.6249999999999994
 40
0.6249999999999994
 40
0.7499999999999997
 40
0.7499999999999997
 40
0.8749999999999998
 40
0.8749999999999998
 40
1.0
 40
1.0
 40
1.0
 40
1.0
 10
205.530684116499
 20
348.5729674088042
 30
0.0
 10
205.5306841164989
 20
348.0471551982472
 30
0.0
 10
205.5306841164989
 20
347.5300855226524
 30
0.0
 10
205.5306841164989
 20
346.767057478831
 30
0.0
 10
205.530684116499
 20
346.5148263160281
 30
0.0
 10
205.5306841164989
 20
346.0146812744579
 30
0.0
 10
205.5306841164989
 20
345.7661805941541
 30
0.0
 10
205.5306841164992
 20
344.5545448801593
 30
0.0
 10
205.530684116499
 20
343.6637960334581
 30
0.0
 10
205.530684116499
 20
342.5505948643813
 30
0.0
 10
205.5306841164991
 20
342.2158421048238
 30
0.0
 10
205.530684116499
 20
341.6319651091279
 30
0.0
 10
205.5306841164989
 20
341.3836450237039
 30
0.0
 10
205.5306841164991
 20
340.9813221548098
 30
0.0
 10
205.5306841164991
 20
340.8284803862844
 30
0.0
 10
205.530684116499
 20
340.6243090477633
 30
0.0
 10
205.5306841164989
 20
340.5729674088041
 30
0.0
 10
205.530684116499
 20
340.5729674088041
 30
0.0
  0
LINE
  5
183
330
1F
100
AcDbEntity
  8
0
  6
Continuous
 62
     7
 48
5.0
370
     0
100
AcDbLine
 10
205.5306841165
 20
348.5729674088
 30
0.0
 11
205.5306841165
 21
397.0729674088
 31
0.0
  0
LINE
  5
184
330
1F
100
AcDbEntity
  8
0
  6
Continuous
 62
     7
 48
5.0
370
     0
100
AcDbLine
 10
715.5306841167
 20
366.7768570503
 30
0.0
 11
705.5306841165
 21
366.7768570503
 31
0.0
  0
SPLINE
  5
185
330
1F
100
AcDbEntity
  8
0
  6
Continuous
 62
     8
 48
5.0
370
     0
100
AcDbSpline
210
0.0
220
0.0
230
1.0
 70
     8
 71
     3
 72
    12
 73
     8
 74
     0
 42
0.00000001
 43
0.00000001
 40
0.0
 40
0.0
 40
0.0
 40
0.0
 40
0.2338875372381182
 40
0.5720539897408409
 40
0.7770123055355883
 40
0.9862415849858457
 40
1.0
 40
1.0
 40
1.0
 40
1.0
 10
714.5996170861596
 20
366.8590323419635
 30
0.0
 10
713.8568770011343
 20
366.9017766000964
 30
0.0
 10
712.0402456662778
 20
367.0063226725042
 30
0.0
 10
709.6195834260278
 20
367.7332228537205
 30
0.0
 10
707.3806058614482
 20
368.8018854640517
 30
0.0
 10
706.1795888870897
 20
369.6305319785653
 30
0.0
 10
705.5946406019823
 20
370.134794539888
 30
0.0
 10
705.5585490979748
 20
370.1659077078655
 30
0.0
  0
DIMENSION
  5
186
330
1F
100
AcDbEntity
  8
SLD-0
 62
     1
 48
5.0
100
AcDbDimension
  2
*D2
 10
825.5306841165
 20
366.7768570503
 30
0.0
 11
705.575882935
 21
290.1219977518
 31
0.0
 70
   162
 71
     1
 42
-1.0
  3
SLDDIMSTYLE0
100
AcDb2LineAngularDimension
 13
205.5306841165
 23
340.5729674088
 33
0.0
 14
705.5306841165
 24
366.7768570503
 34
0.0
 15
705.5306841165
 25
366.7768570503
 35
0.0
 16
707.5372747548
 26
290.1482521367
 36
0.0
  0
DIMENSION
  5
18F
330
1F
100
AcDbEntity
  8
SLD-0
 62
     1
 48
5.0
100
AcDbDimension
  2
*D3
 10
875.5306841165
 20
541.7768570503
 30
0.0
 11
875.5306841165
 21
454.2768570503
 31
0.0
 70
   160
 71
     2
 42
-1.0
  3
SLDDIMSTYLE1
100
AcDbAlignedDimension
 13
825.5306841165
 23
366.7768570503
 33
0.0
 14
708.1306841165
 24
541.7768570503
 34
0.0
 50
90.0
100
AcDbRotatedDimension
  0
DIMENSION
  5
19A
330
1F
100
AcDbEntity
  8
SLD-0
 62
     1
 48
5.0
100
AcDbDimension
  2
*D4
 10
705.5306841165
 20
591.7768570503
 30
0.0
 11
750.9897308543
 21
591.7768570503
 31
0.0
 70
   160
 71
     2
 42
-1.0
  3
SLDDIMSTYLE2
100
AcDbAlignedDimension
 13
708.1306841165
 23
541.7768570503
 33
0.0
 14
705.5306841165
 24
541.7768570503
 34
0.0
100
AcDbRotatedDimension
  0
DIMENSION
  5
1A7
330
1F
100
AcDbEntity
  8
SLD-0
 62
     1
 48
5.0
100
AcDbDimension
  2
*D6
 10
715.5306841165
 20
376.7768570503
 30
0.0
 11
762.9617453307
 21
403.0046131917
 31
0.0
 70
   164
  1
<>
 71
     1
 42
-1.0
  3
SLDDIMSTYLE3
100
AcDbRadialDimension
 15
0.0
 25
0.0
 35
0.0
 40
0.0
  0
DIMENSION
  5
1B1
330
1F
100
AcDbEntity
  8
SLD-0
 62
     1
 48
5.0
100
AcDbDimension
  2
*D7
 10
840.37978889
 20
431.1278621462
 30
0.0
 11
840.37978889
 21
474.4567875484
 31
0.0
 70
   160
 71
     2
 42
-1.0
  3
SLDDIMSTYLE1
100
AcDbAlignedDimension
 13
705.5306841165
 23
541.7768570503
 33
0.0
 14
702.6876919852
 24
431.1278621462
 34
0.0
 50
90.0
100
AcDbRotatedDimension
  0
DIMENSION
  5
1BB
330
1F
100
AcDbEntity
  8
SLD-0
 62
     1
 48
5.0
100
AcDbDimension
  2
*D8
 10
238.1084980146
 20
406.7802982891
 30
0.0
 11
235.5808640823
 21
455.010426847
 31
0.0
 70
   160
 71
     2
 42
-1.0
  3
SLDDIMSTYLE1
100
AcDbAlignedDimension
 13
205.5306841165
 23
340.5729674088
 33
0.0
 14
205.5306841165
 24
405.0729674088
 34
0.0
 50
-87.0
100
AcDbRotatedDimension
  0
SOLID
  5
1C4
330
1F
100
AcDbEntity
  8
SLD-0
 62
     1
 48
5.0
100
AcDbTrace
 10
722.0118820736
 20
380.3481415588
 30
0.0
 11
735.1315786618
 21
382.4394477141
 31
0.0
 12
730.7881245298
 22
390.32198577
 32
0.0
 13
730.7881245298
 23
390.32198577
 33
0.0
  0
LINE
  5
1C5
330
1F
100
AcDbEntity
  8
SLD-0
 62
     1
 48
5.0
100
AcDbLine
 10
722.0118820736
 20
380.3481415588
 30
0.0
 11
780.0559764136
 21
412.3317310582
 31
0.0
  0
LINE
  5
1C6
330
1F
100
AcDbEntity
  8
0
  6
Continuous
 62
     7
 48
5.0
370
     0
100
AcDbLine
 10
708.1306841165
 20
1174.2532662632
 30
0.0
 11
705.5306841165
 21
1174.2532662632
 31
0.0
  0
LINE
  5
1C7
330
1F
100
AcDbEntity
  8
0
  6
Continuous
 62
     7
 48
5.0
370
     0
100
AcDbLine
 10
705.5306841165
 20
1224.2532662632
 30
0.0
 11
708.1306841165
 21
1224.2532662632
 31
0.0
  0
LINE
  5
1C8
330
1F
100
AcDbEntity
  8
0
  6
Continuous
 62
     7
 48
5.0
370
     0
100
AcDbLine
 10
705.5306841165
 20
1174.2532662632
 30
0.0
 11
705.5306841165
 21
1224.2532662632
 31
0.0
  0
LINE
  5
1C9
330
1F
100
AcDbEntity
  8
0
  6
Continuous
 62
     7
 48
5.0
370
     0
100
AcDbLine
 10
708.1306841165
 20
1224.2532662632
 30
0.0
 11
708.1306841165
 21
1174.2532662632
 31
0.0
  0
LINE
  5
1CA
330
1F
100
AcDbEntity
  8
0
  6
Continuous
 62
     7
 48
5.0
370
     0
100
AcDbLine
 10
705.5306841165
 20
929.2532662632
 30
0.0
 11
708.1306841165
 21
929.2532662632
 31
0.0
  0
LINE
  5
1CB
330
1F
100
AcDbEntity
  8
0
  6
Continuous
 62
     7
 48
5.0
370
     0
100
AcDbLine
 10
705.5306841165
 20
1174.2532662632
 30
0.0
 11
705.5306841165
 21
929.2532662632
 31
0.0
  0
LINE
  5
1CC
330
1F
100
AcDbEntity
  8
0
  6
Continuous
 62
     7
 48
5.0
370
     0
100
AcDbLine
 10
708.1306841165
 20
1174.2532662632
 30
0.0
 11
708.1306841165
 21
929.2532662632
 31
0.0
  0
LINE
  5
1CD
330
1F
100
AcDbEntity
  8
0
  6
Continuous
 62
     7
 48
5.0
370
     0
100
AcDbLine
 10
708.1306841165
 20
879.2532662632
 30
0.0
 11
705.5306841165
 21
879.2532662632
 31
0.0
  0
LINE
  5
1CE
330
1F
100
AcDbEntity
  8
0
  6
Continuous
 62
     7
 48
5.0
370
     0
100
AcDbLine
 10
705.5306841165
 20
879.2532662632
 30
0.0
 11
705.5306841165
 21
929.2532662632
 31
0.0
  0
LINE
  5
1CF
330
1F
100
AcDbEntity
  8
0
  6
Continuous
 62
     7
 48
5.0
370
     0
100
AcDbLine
 10
708.1306841165
 20
929.2532662632
 30
0.0
 11
708.1306841165
 21
879.2532662632
 31
0.0
  0
ARC
  5
1D0
330
1F
100
AcDbEntity
  8
0
  6
Continuous
 62
     7
 48
25.0
370
     0
100
AcDbCircle
 10
702.5306841165
 20
999.9532662632
 30
0.0
 40
3.0
100
AcDbArc
 50
0.0
 51
89.9999999997
  0
SPLINE
  5
1D1
330
1F
100
AcDbEntity
  8
0
  6
Continuous
 62
     7
 48
5.0
370
     0
100
AcDbSpline
210
0.0
220
0.0
230
1.0
 70
     8
 71
     3
 72
    27
 73
    23
 74
     0
 42
0.00000001
 43
0.00000001
 40
0.0
 40
0.0
 40
0.0
 40
0.0
 40
0.1250000000000009
 40
0.1250000000000009
 40
0.1875000000000012
 40
0.1875000000000012
 40
0.2500000000000015
 40
0.2500000000000015
 40
0.3750000000000021
 40
0.3750000000000021
 40
0.5000000000000027
 40
0.5000000000000027
 40
0.6250000000000032
 40
0.6250000000000032
 40
0.6875000000000026
 40
0.6875000000000026
 40
0.7500000000000019
 40
0.8125000000000013
 40
0.8125000000000013
 40
0.8750000000000007
 40
0.8750000000000007
 40
1.0
 40
1.0
 40
1.0
 40
1.0
 10
702.5306841164988
 20
1002.953266263218
 30
0.0
 10
702.5410586092256
 20
1002.953266263218
 30
0.0
 10
702.5512603464603
 20
1003.005003375198
 30
0.0
 10
702.5663120899648
 20
1003.157057803961
 30
0.0
 10
702.5712872250078
 20
1003.220242762596
 30
0.0
 10
702.5811510435768
 20
1003.372183774094
 30
0.0
 10
702.5860534861117
 20
1003.461374444859
 30
0.0
 10
702.6003139477631
 20
1003.761929012183
 30
0.0
 10
702.6093307371076
 20
1004.007186442135
 30
0.0
 10
702.6263921230556
 20
1004.586699331861
 30
0.0
 10
702.6344697877491
 20
1004.924090547544
 30
0.0
 10
702.6489470169807
 20
1005.661279458878
 30
0.0
 10
702.6554420672743
 20
1006.06356567728
 30
0.0
 10
702.6640446317456
 20
1006.718747545477
 30
0.0
 10
702.6667165480409
 20
1006.945847433637
 30
0.0
 10
702.6715588847
 20
1007.407434117766
 30
0.0
 10
702.6759335772152
 20
1007.878834024306
 30
0.0
 10
702.6793879614497
 20
1008.369562264986
 30
0.0
 10
702.6823763097756
 20
1008.870085488729
 30
0.0
 10
702.6836414910732
 20
1009.12636265575
 30
0.0
 10
702.686676809197
 20
1009.901937843747
 30
0.0
 10
702.6876919852277
 20
1010.424716893799
 30
0.0
 10
702.6876919852277
 20
1010.953266263218
 30
0.0
  0
LINE
  5
1D2
330
1F
100
AcDbEntity
  8
0
  6
Continuous
 62
     7
 48
5.0
370
     0
100
AcDbLine
 10
705.5306841165
 20
1010.9532662632
 30
0.0
 11
702.6876919852
 21
1010.9532662632
 31
0.0
  0
LINE
  5
1D3
330
1F
100
AcDbEntity
  8
0
  6
Continuous
 62
     7
 48
5.0
370
     0
100
AcDbLine
 10
705.5306841165
 20
1092.5532662632
 30
0.0
 11
702.6876919852
 21
1092.5532662632
 31
0.0
  0
SPLINE
  5
1D4
330
1F
100
AcDbEntity
  8
0
  6
Continuous
 62
     7
 48
5.0
370
     0
100
AcDbSpline
210
0.0
220
0.0
230
1.0
 70
     8
 71
     3
 72
    27
 73
    23
 74
     0
 42
0.00000001
 43
0.00000001
 40
0.0
 40
0.0
 40
0.0
 40
0.0
 40
0.1249999999999977
 40
0.1249999999999977
 40
0.1874999999999966
 40
0.1874999999999966
 40
0.2499999999999954
 40
0.2499999999999954
 40
0.3749999999999959
 40
0.3749999999999959
 40
0.4999999999999964
 40
0.4999999999999964
 40
0.6249999999999969
 40
0.6249999999999969
 40
0.6874999999999972
 40
0.6874999999999972
 40
0.7499999999999976
 40
0.8124999999999979
 40
0.8124999999999979
 40
0.8749999999999981
 40
0.8749999999999981
 40
1.0
 40
1.0
 40
1.0
 40
1.0
 10
702.6876919852277
 20
1092.553266263218
 30
0.0
 10
702.6876919852277
 20
1093.08181441542
 30
0.0
 10
702.6866769348209
 20
1093.601507697476
 30
0.0
 10
702.6836937223914
 20
1094.368311626122
 30
0.0
 10
702.6824540545754
 20
1094.621774476823
 30
0.0
 10
702.6794727873337
 20
1095.124326211241
 30
0.0
 10
702.6777227465935
 20
1095.374099288338
 30
0.0
 10
702.6718257654989
 20
1096.100619684812
 30
0.0
 10
702.6670136680593
 20
1096.560013497093
 30
0.0
 10
702.6556416094301
 20
1097.429372555961
 30
0.0
 10
702.6490209933803
 20
1097.840955088955
 30
0.0
 10
702.6345545110452
 20
1098.578653084985
 30
0.0
 10
702.6266591544146
 20
1098.9096623258
 30
0.0
 10
702.6137988961788
 20
1099.34810815454
 30
0.0
 10
702.6093424368383
 20
1099.484249412839
 30
0.0
 10
702.6002835569997
 20
1099.731012656096
 30
0.0
 10
702.5910313344913
 20
1099.953967190333
 30
0.0
 10
702.581398575218
 20
1100.130037893415
 30
0.0
 10
702.5715732304697
 20
1100.282355768776
 30
0.0
 10
702.566542094993
 20
1100.346844216453
 30
0.0
 10
702.5513201760386
 20
1100.501523224927
 30
0.0
 10
702.5410585857983
 20
1100.553266263218
 30
0.0
 10
702.530684116499
 20
1100.553266263218
 30
0.0
  0
ARC
  5
1D5
330
1F
100
AcDbEntity
  8
0
  6
Continuous
 62
     7
 48
25.0
370
     0
100
AcDbCircle
 10
702.5306841165
 20
1103.5532662632
 30
0.0
 40
3.000000000000227
100
AcDbArc
 50
270.0
 51
0.0
  0
LINE
  5
1D6
330
1F
100
AcDbEntity
  8
0
  6
Continuous
 62
     7
 48
5.0
370
     0
100
AcDbLine
 10
702.6876919852
 20
1010.9532662632
 30
0.0
 11
702.6876919852
 21
1092.5532662632
 31
0.0
  0
LINE
  5
1D7
330
1F
100
AcDbEntity
  8
0
  6
Continuous
 62
     7
 48
5.0
370
     0
100
AcDbLine
 10
205.5306841165
 20
1002.9532662632
 30
0.0
 11
702.5306841165
 21
1002.9532662632
 31
0.0
  0
SPLINE
  5
1D8
330
1F
100
AcDbEntity
  8
0
  6
Continuous
 62
     7
 48
5.0
370
     0
100
AcDbSpline
210
0.0
220
0.0
230
1.0
 70
    24
 71
     3
 72
    18
 73
    14
 74
     0
 42
0.00000001
 43
0.00000001
 40
0.0
 40
0.0
 40
0.0
 40
0.0
 40
0.1249999999999998
 40
0.1249999999999998
 40
0.2499999999999995
 40
0.2499999999999995
 40
0.4999999999999997
 40
0.4999999999999997
 40
0.7499999999999998
 40
0.7499999999999998
 40
0.8749999999999999
 40
0.8749999999999999
 40
1.0
 40
1.0
 40
1.0
 40
1.0
 10
205.5306841164989
 20
1010.953266263218
 30
0.0
 10
205.5306841164988
 20
1010.428253815669
 30
0.0
 10
205.5306841164988
 20
1009.905514466859
 30
0.0
 10
205.530684116499
 20
1008.877805435856
 30
0.0
 10
205.5306841164989
 20
1008.373953749192
 30
0.0
 10
205.5306841164989
 20
1006.923564117479
 30
0.0
 10
205.530684116499
 20
1006.035113489112
 30
0.0
 10
205.5306841164988
 20
1004.554644816445
 30
0.0
 10
205.5306841164989
 20
1003.961660487873
 30
0.0
 10
205.5306841164989
 20
1003.36029539052
 30
0.0
 10
205.5306841164989
 20
1003.207857618583
 30
0.0
 10
205.530684116499
 20
1003.004453311793
 30
0.0
 10
205.5306841164989
 20
1002.953266263218
 30
0.0
 10
205.5306841164989
 20
1002.953266263218
 30
0.0
  0
LINE
  5
1D9
330
1F
100
AcDbEntity
  8
0
  6
Continuous
 62
     7
 48
5.0
370
     0
100
AcDbLine
 10
205.5306841165
 20
1010.9532662632
 30
0.0
 11
702.6876919852
 21
1010.9532662632
 31
0.0
  0
LINE
  5
1DA
330
1F
100
AcDbEntity
  8
0
  6
Continuous
 62
     7
 48
5.0
370
     0
100
AcDbLine
 10
205.5306841165
 20
1092.5532662632
 30
0.0
 11
702.6876919852
 21
1092.5532662632
 31
0.0
  0
SPLINE
  5
1DB
330
1F
100
AcDbEntity
  8
0
  6
Continuous
 62
     7
 48
5.0
370
     0
100
AcDbSpline
210
0.0
220
0.0
230
1.0
 70
    24
 71
     3
 72
    18
 73
    14
 74
     0
 42
0.00000001
 43
0.00000001
 40
0.0
 40
0.0
 40
0.0
 40
0.0
 40
0.1250000000000002
 40
0.1250000000000002
 40
0.2500000000000005
 40
0.2500000000000005
 40
0.5000000000000003
 40
0.5000000000000003
 40
0.7500000000000002
 40
0.7500000000000002
 40
0.8750000000000002
 40
0.8750000000000002
 40
1.0
 40
1.0
 40
1.0
 40
1.0
 10
205.5306841164989
 20
1100.553266263218
 30
0.0
 10
205.5306841164988
 20
1100.553266263218
 30
0.0
 10
205.5306841164989
 20
1100.50164485488
 30
0.0
 10
205.5306841164989
 20
1100.297100482598
 30
0.0
 10
205.5306841164989
 20
1100.144117775013
 30
0.0
 10
205.530684116499
 20
1099.543045908755
 30
0.0
 10
205.5306841164989
 20
1098.949222904422
 30
0.0
 10
205.530684116499
 20
1097.467951568148
 30
0.0
 10
205.5306841164989
 20
1096.580367142302
 30
0.0
 10
205.5306841164987
 20
1095.126555311963
 30
0.0
 10
205.5306841164989
 20
1094.622533157235
 30
0.0
 10
205.5306841164989
 20
1093.597102080924
 30
0.0
 10
205.530684116499
 20
1093.078278710768
 30
0.0
 10
205.5306841164989
 20
1092.553266263218
 30
0.0
  0
LINE
  5
1DC
330
1F
100
AcDbEntity
  8
0
  6
Continuous
 62
     7
 48
5.0
370
     0
100
AcDbLine
 10
205.5306841165
 20
1100.5532662632
 30
0.0
 11
702.5306841165
 21
1100.5532662632
 31
0.0
  0
LINE
  5
1DD
330
1F
100
AcDbEntity
  8
0
  6
Continuous
 62
     7
 48
5.0
370
     0
100
AcDbLine
 10
205.5306841165
 20
1092.5532662632
 30
0.0
 11
205.5306841165
 21
1010.9532662632
 31
0.0
  0
LINE
  5
1DE
330
1F
100
AcDbEntity
  8
0
  6
Continuous
 62
     7
 48
5.0
370
     0
100
AcDbLine
 10
715.5306841165
 20
1224.2532662632
 30
0.0
 11
715.5306841165
 21
1092.5532662632
 31
0.0
  0
SPLINE
  5
1DF
330
1F
100
AcDbEntity
  8
0
  6
Continuous
 62
     7
 48
5.0
370
     0
100
AcDbSpline
210
0.0
220
0.0
230
1.0
 70
     8
 71
     3
 72
    26
 73
    22
 74
     0
 42
0.00000001
 43
0.00000001
 40
0.0
 40
0.0
 40
0.0
 40
0.0
 40
0.1250000000000001
 40
0.1250000000000001
 40
0.1875000000000004
 40
0.1875000000000004
 40
0.2500000000000007
 40
0.2500000000000007
 40
0.3750000000000008
 40
0.3750000000000008
 40
0.5000000000000009
 40
0.5000000000000009
 40
0.625000000000001
 40
0.625000000000001
 40
0.7500000000000011
 40
0.7500000000000011
 40
0.8750000000000012
 40
0.8750000000000012
 40
0.9375000000000006
 40
0.9375000000000006
 40
1.0
 40
1.0
 40
1.0
 40
1.0
 10
708.530684116499
 20
1097.553266263218
 30
0.0
 10
708.6768152945494
 20
1097.553266263218
 30
0.0
 10
708.8573541274578
 20
1097.499827686032
 30
0.0
 10
709.1750942541515
 20
1097.358254494075
 30
0.0
 10
709.2897489322233
 20
1097.300141821344
 30
0.0
 10
709.529396918035
 20
1097.167619949488
 30
0.0
 10
709.6544175936368
 20
1097.093304256299
 30
0.0
 10
710.0438358865539
 20
1096.849772819784
 30
0.0
 10
710.3234656438316
 20
1096.659486654885
 30
0.0
 10
710.9136315704258
 20
1096.238009084464
 30
0.0
 10
711.2178963752824
 20
1096.011345261254
 30
0.0
 10
711.8430802003527
 20
1095.533999875437
 30
0.0
 10
712.1640179090076
 20
1095.283223603197
 30
0.0
 10
712.8222948090473
 20
1094.761420097964
 30
0.0
 10
713.1572456764843
 20
1094.49223807531
 30
0.0
 10
713.8276528145169
 20
1093.949233860972
 30
0.0
 10
714.1648495077893
 20
1093.674008817153
 30
0.0
 10
714.6742123065765
 20
1093.256789745398
 30
0.0
 10
714.8445957794133
 20
1093.116980907753
 30
0.0
 10
715.1866737955256
 20
1092.836040753482
 30
0.0
 10
715.3596356705389
 20
1092.693867192808
 30
0.0
 10
715.530684116499
 20
1092.553266263218
 30
0.0
  0
LINE
  5
1E0
330
1F
100
AcDbEntity
  8
0
  6
Continuous
 62
     7
 48
5.0
370
     0
100
AcDbLine
 10
708.1306841165
 20
1097.5532662632
 30
0.0
 11
708.5306841165
 21
1097.5532662632
 31
0.0
  0
LINE
  5
1E1
330
1F
100
AcDbEntity
  8
0
  6
Continuous
 62
     7
 48
5.0
370
     0
100
AcDbLine
 10
715.5306841165
 20
1224.2532662632
 30
0.0
 11
708.1306841165
 21
1224.2532662632
 31
0.0
  0
LINE
  5
1E2
330
1F
100
AcDbEntity
  8
0
  6
Continuous
 62
     7
 48
5.0
370
     0
100
AcDbLine
 10
715.5306841165
 20
1010.9532662632
 30
0.0
 11
715.5306841165
 21
879.2532662632
 31
0.0
  0
SPLINE
  5
1E3
330
1F
100
AcDbEntity
  8
0
  6
Continuous
 62
     7
 48
5.0
370
     0
100
AcDbSpline
210
0.0
220
0.0
230
1.0
 70
     8
 71
     3
 72
    26
 73
    22
 74
     0
 42
0.00000001
 43
0.00000001
 40
0.0
 40
0.0
 40
0.0
 40
0.0
 40
0.1250000000000002
 40
0.1250000000000002
 40
0.1875000000000003
 40
0.1875000000000003
 40
0.2500000000000004
 40
0.2500000000000004
 40
0.3750000000000006
 40
0.3750000000000006
 40
0.5000000000000008
 40
0.5000000000000008
 40
0.625000000000001
 40
0.625000000000001
 40
0.7500000000000011
 40
0.7500000000000011
 40
0.8750000000000012
 40
0.8750000000000012
 40
0.9375000000000007
 40
0.9375000000000007
 40
1.0
 40
1.0
 40
1.0
 40
1.0
 10
708.530684116499
 20
1005.953266263218
 30
0.0
 10
708.6768152945494
 20
1005.953266263218
 30
0.0
 10
708.8573541274578
 20
1006.006704840404
 30
0.0
 10
709.1750942541515
 20
1006.148278032362
 30
0.0
 10
709.2897489322233
 20
1006.206390705092
 30
0.0
 10
709.529396918035
 20
1006.338912576948
 30
0.0
 10
709.6544175936368
 20
1006.413228270137
 30
0.0
 10
710.0438358865539
 20
1006.656759706652
 30
0.0
 10
710.3234656438316
 20
1006.847045871551
 30
0.0
 10
710.9136315704258
 20
1007.268523441973
 30
0.0
 10
711.2178963752824
 20
1007.495187265182
 30
0.0
 10
711.8430802003527
 20
1007.972532651
 30
0.0
 10
712.1640179090076
 20
1008.22330892324
 30
0.0
 10
712.8222948090473
 20
1008.745112428472
 30
0.0
 10
713.1572456764843
 20
1009.014294451127
 30
0.0
 10
713.8276528145169
 20
1009.557298665464
 30
0.0
 10
714.1648495077893
 20
1009.832523709283
 30
0.0
 10
714.6742123065765
 20
1010.249742781038
 30
0.0
 10
714.8445957794133
 20
1010.389551618684
 30
0.0
 10
715.1866737955256
 20
1010.670491772954
 30
0.0
 10
715.359635670539
 20
1010.812665333628
 30
0.0
 10
715.530684116499
 20
1010.953266263218
 30
0.0
  0
LINE
  5
1E4
330
1F
100
AcDbEntity
  8
0
  6
Continuous
 62
     7
 48
5.0
370
     0
100
AcDbLine
 10
708.5306841165
 20
1005.9532662632
 30
0.0
 11
708.1306841165
 21
1005.9532662632
 31
0.0
  0
LINE
  5
1E5
330
1F
100
AcDbEntity
  8
0
  6
Continuous
 62
     7
 48
5.0
370
     0
100
AcDbLine
 10
715.5306841165
 20
879.2532662632
 30
0.0
 11
708.1306841165
 21
879.2532662632
 31
0.0
  0
LINE
  5
1E6
330
1F
100
AcDbEntity
  8
0
  6
Continuous
 62
     7
 48
5.0
370
     0
100
AcDbLine
 10
825.5306841165
 20
1174.2532662632
 30
0.0
 11
825.5306841165
 21
929.2532662632
 31
0.0
  0
ARC
  5
1E7
330
1F
100
AcDbEntity
  8
0
  6
Continuous
 62
     7
 48
25.0
370
     0
100
AcDbCircle
 10
775.5306841165
 20
929.2532662632
 30
0.0
 40
50.0
100
AcDbArc
 50
270.0
 51
0.0
  0
ARC
  5
1E8
330
1F
100
AcDbEntity
  8
0
  6
Continuous
 62
     7
 48
25.0
370
     0
100
AcDbCircle
 10
775.5306841165
 20
1174.2532662632
 30
0.0
 40
50.00000000000023
100
AcDbArc
 50
0.0
 51
90.0
  0
LINE
  5
1E9
330
1F
100
AcDbEntity
  8
0
  6
Continuous
 62
     7
 48
5.0
370
     0
100
AcDbLine
 10
775.5306841165
 20
879.2532662632
 30
0.0
 11
715.5306841165
 21
879.2532662632
 31
0.0
  0
LINE
  5
1EA
330
1F
100
AcDbEntity
  8
0
  6
Continuous
 62
     7
 48
5.0
370
     0
100
AcDbLine
 10
775.5306841165
 20
1224.2532662632
 30
0.0
 11
715.5306841165
 21
1224.2532662632
 31
0.0
  0
LINE
  5
1EB
330
1F
100
AcDbEntity
  8
0
  6
Continuous
 62
     8
 48
5.0
370
     0
100
AcDbLine
 10
715.5306841165
 20
1092.5532662632
 30
0.0
 11
708.1306841165
 21
1092.5532662632
 31
0.0
  0
LINE
  5
1EC
330
1F
100
AcDbEntity
  8
0
  6
Continuous
 62
     8
 48
5.0
370
     0
100
AcDbLine
 10
715.5306841165
 20
1010.9532662632
 30
0.0
 11
708.1306841165
 21
1010.9532662632
 31
0.0
  0
DIMENSION
  5
1ED
330
1F
100
AcDbEntity
  8
SLD-0
 62
     1
 48
5.0
100
AcDbDimension
  2
*D9
 10
705.5306841165
 20
1274.2532662632
 30
0.0
 11
455.5306841165
 21
1274.2532662632
 31
0.0
 70
   160
 71
     2
 42
-1.0
  3
SLDDIMSTYLE1
100
AcDbAlignedDimension
 13
205.5306841165
 23
1100.5532662632
 33
0.0
 14
705.5306841165
 24
1224.2532662632
 34
0.0
100
AcDbRotatedDimension
  0
DIMENSION
  5
1F7
330
1F
100
AcDbEntity
  8
SLD-0
 62
     1
 48
5.0
100
AcDbDimension
  2
*D10
 10
825.5306841165
 20
1274.2532662632
 30
0.0
 11
765.5306841165
 21
1274.2532662632
 31
0.0
 70
   160
 71
     2
 42
-1.0
  3
SLDDIMSTYLE1
100
AcDbAlignedDimension
 13
705.5306841165
 23
1224.2532662632
 33
0.0
 14
825.5306841165
 24
1174.2532662632
 34
0.0
100
AcDbRotatedDimension
  0
DIMENSION
  5
201
330
1F
100
AcDbEntity
  8
SLD-0
 62
     1
 48
5.0
100
AcDbDimension
  2
*D11
 10
875.5306841165
 20
879.2532662632
 30
0.0
 11
875.5306841165
 21
1051.7532662632
 31
0.0
 70
   160
 71
     2
 42
-1.0
  3
SLDDIMSTYLE1
100
AcDbAlignedDimension
 13
775.5306841165
 23
1224.2532662632
 33
0.0
 14
775.5306841165
 24
879.2532662632
 34
0.0
 50
90.0
100
AcDbRotatedDimension
  0
DIMENSION
  5
20B
330
1F
100
AcDbEntity
  8
SLD-0
 62
     1
 48
5.0
100
AcDbDimension
  2
*D12
 10
205.5306841165
 20
1304.2532662632
 30
0.0
 11
515.5306841165
 21
1304.2532662632
 31
0.0
 70
   160
 71
     2
 42
-1.0
  3
SLDDIMSTYLE1
100
AcDbAlignedDimension
 13
825.5306841165
 23
1174.2532662632
 33
0.0
 14
205.5306841165
 24
1092.5532662632
 34
0.0
100
AcDbRotatedDimension
  0
DIMENSION
  5
215
330
1F
100
AcDbEntity
  8
SLD-0
 62
     1
 48
5.0
100
AcDbDimension
  2
*D13
 10
155.5306591165
 20
1002.9532662632
 30
0.0
 11
155.5306591165
 21
1051.7532662632
 31
0.0
 70
   160
 71
     2
 42
-1.0
  3
SLDDIMSTYLE1
100
AcDbAlignedDimension
 13
205.5306841165
 23
1100.5532662632
 33
0.0
 14
205.5306841165
 24
1002.9532662632
 34
0.0
 50
90.0
100
AcDbRotatedDimension
  0
MTEXT
  5
21F
330
1F
100
AcDbEntity
  8
SLD-0
 62
     1
 48
5.0
100
AcDbMText
 10
509.0102238682
 20
804.7491535924
 30
0.0
 40
10.5833333333
 41
0.0
 71
     1
 72
     1
  1
TOP VIEW
  7
SLDTEXTSTYLE1
 73
     1
 44
1.0
  0
LINE
  5
220
330
1F
100
AcDbEntity
  8
0
  6
Continuous
 62
     7
 48
5.0
370
     0
100
AcDbLine
 10
1707.269775882
 20
366.7768570503
 30
0.0
 11
1707.269775882
 21
369.3768570503
 31
0.0
  0
LINE
  5
221
330
1F
100
AcDbEntity
  8
0
  6
Continuous
 62
     7
 48
5.0
370
     0
100
AcDbLine
 10
1707.269775882
 20
369.3768570503
 30
0.0
 11
1757.269775882
 21
369.3768570503
 31
0.0
  0
LINE
  5
222
330
1F
100
AcDbEntity
  8
0
  6
Continuous
 62
     7
 48
5.0
370
     0
100
AcDbLine
 10
1757.269775882
 20
369.3768570503
 30
0.0
 11
1757.269775882
 21
366.7768570503
 31
0.0
  0
LINE
  5
223
330
1F
100
AcDbEntity
  8
0
  6
Continuous
 62
     7
 48
5.0
370
     0
100
AcDbLine
 10
1757.269775882
 20
366.7768570503
 30
0.0
 11
1707.269775882
 21
366.7768570503
 31
0.0
  0
LINE
  5
224
330
1F
100
AcDbEntity
  8
0
  6
Continuous
 62
     7
 48
5.0
370
     0
100
AcDbLine
 10
1462.269775882
 20
369.3768570503
 30
0.0
 11
1462.269775882
 21
366.7768570503
 31
0.0
  0
LINE
  5
225
330
1F
100
AcDbEntity
  8
0
  6
Continuous
 62
     7
 48
5.0
370
     0
100
AcDbLine
 10
1707.269775882
 20
369.3768570503
 30
0.0
 11
1462.269775882
 21
369.3768570503
 31
0.0
  0
LINE
  5
226
330
1F
100
AcDbEntity
  8
0
  6
Continuous
 62
     7
 48
5.0
370
     0
100
AcDbLine
 10
1707.269775882
 20
366.7768570503
 30
0.0
 11
1462.269775882
 21
366.7768570503
 31
0.0
  0
LINE
  5
227
330
1F
100
AcDbEntity
  8
0
  6
Continuous
 62
     7
 48
5.0
370
     0
100
AcDbLine
 10
1412.269775882
 20
366.7768570503
 30
0.0
 11
1412.269775882
 21
369.3768570503
 31
0.0
  0
LINE
  5
228
330
1F
100
AcDbEntity
  8
0
  6
Continuous
 62
     7
 48
5.0
370
     0
100
AcDbLine
 10
1412.269775882
 20
369.3768570503
 30
0.0
 11
1462.269775882
 21
369.3768570503
 31
0.0
  0
LINE
  5
229
330
1F
100
AcDbEntity
  8
0
  6
Continuous
 62
     7
 48
5.0
370
     0
100
AcDbLine
 10
1462.269775882
 20
366.7768570503
 30
0.0
 11
1412.269775882
 21
366.7768570503
 31
0.0
  0
LINE
  5
22A
330
1F
100
AcDbEntity
  8
0
  6
Continuous
 62
     7
 48
5.0
370
     0
100
AcDbLine
 10
1757.269775882
 20
376.7768570503
 30
0.0
 11
1630.569775882
 21
376.7768570503
 31
0.0
  0
SPLINE
  5
22B
330
1F
100
AcDbEntity
  8
0
  6
Continuous
 62
     7
 48
5.0
370
     0
100
AcDbSpline
210
0.0
220
0.0
230
1.0
 70
     8
 71
     3
 72
    26
 73
    22
 74
     0
 42
0.00000001
 43
0.00000001
 40
0.0
 40
0.0
 40
0.0
 40
0.0
 40
0.1250000000000001
 40
0.1250000000000001
 40
0.1875000000000004
 40
0.1875000000000004
 40
0.2500000000000007
 40
0.2500000000000007
 40
0.3750000000000008
 40
0.3750000000000008
 40
0.5000000000000009
 40
0.5000000000000009
 40
0.625000000000001
 40
0.625000000000001
 40
0.7500000000000011
 40
0.7500000000000011
 40
0.8750000000000012
 40
0.8750000000000012
 40
0.9375000000000006
 40
0.9375000000000006
 40
1.0
 40
1.0
 40
1.0
 40
1.0
 10
1630.569775882003
 20
374.3768570503229
 30
0.0
 10
1630.569775882003
 20
373.9506411143425
 30
0.0
 10
1630.516337304818
 20
373.5495446850205
 30
0.0
 10
1630.37476411286
 20
372.9803195405526
 30
0.0
 10
1630.316651440129
 20
372.7948731195623
 30
0.0
 10
1630.184129568273
 20
372.4421113875744
 30
0.0
 10
1630.109813875085
 20
372.2744202534596
 30
0.0
 10
1629.866282438569
 20
371.7944602444288
 30
0.0
 10
1629.67599627367
 20
371.5042352164702
 30
0.0
 10
1629.254518703249
 20
370.9804365159148
 30
0.0
 10
1629.027854880039
 20
370.752081778383
 30
0.0
 10
1628.550509494222
 20
370.3503780348909
 30
0.0
 10
1628.299733221982
 20
370.1771720252809
 30
0.0
 10
1627.777929716749
 20
369.8808501520006
 30
0.0
 10
1627.508747694095
 20
369.7591383632332
 30
0.0
 10
1626.965743479758
 20
369.5670533092952
 30
0.0
 10
1626.690518435938
 20
369.4959183449415
 30
0.0
 10
1626.273299364183
 20
369.4245887478685
 30
0.0
 10
1626.133490526538
 20
369.4067363224304
 30
0.0
 10
1625.852550372267
 20
369.3828693813408
 30
0.0
 10
1625.710376811593
 20
369.3768570503229
 30
0.0
 10
1625.569775882003
 20
369.3768570503229
 30
0.0
  0
LINE
  5
22C
330
1F
100
AcDbEntity
  8
0
  6
Continuous
 62
     7
 48
5.0
370
     0
100
AcDbLine
 10
1630.569775882
 20
376.7768570503
 30
0.0
 11
1630.569775882
 21
374.3768570503
 31
0.0
  0
LINE
  5
22D
330
1F
100
AcDbEntity
  8
0
  6
Continuous
 62
     7
 48
5.0
370
     0
100
AcDbLine
 10
1757.269775882
 20
369.3768570503
 30
0.0
 11
1757.269775882
 21
376.7768570503
 31
0.0
  0
LINE
  5
22E
330
1F
100
AcDbEntity
  8
0
  6
Continuous
 62
     7
 48
5.0
370
     0
100
AcDbLine
 10
1538.969775882
 20
376.7768570503
 30
0.0
 11
1412.269775882
 21
376.7768570503
 31
0.0
  0
LINE
  5
22F
330
1F
100
AcDbEntity
  8
0
  6
Continuous
 62
     7
 48
5.0
370
     0
100
AcDbLine
 10
1538.969775882
 20
374.3768570503
 30
0.0
 11
1538.969775882
 21
376.7768570503
 31
0.0
  0
SPLINE
  5
230
330
1F
100
AcDbEntity
  8
0
  6
Continuous
 62
     7
 48
5.0
370
     0
100
AcDbSpline
210
0.0
220
0.0
230
1.0
 70
     8
 71
     3
 72
    26
 73
    22
 74
     0
 42
0.00000001
 43
0.00000001
 40
0.0
 40
0.0
 40
0.0
 40
0.0
 40
0.1250000000000002
 40
0.1250000000000002
 40
0.1875000000000003
 40
0.1875000000000003
 40
0.2500000000000004
 40
0.2500000000000004
 40
0.3750000000000006
 40
0.3750000000000006
 40
0.5000000000000008
 40
0.5000000000000008
 40
0.625000000000001
 40
0.625000000000001
 40
0.7500000000000011
 40
0.7500000000000011
 40
0.8750000000000012
 40
0.8750000000000012
 40
0.9375000000000007
 40
0.9375000000000007
 40
1.0
 40
1.0
 40
1.0
 40
1.0
 10
1538.969775882003
 20
374.3768570503229
 30
0.0
 10
1538.969775882003
 20
373.9506411143425
 30
0.0
 10
1539.023214459189
 20
373.5495446850205
 30
0.0
 10
1539.164787651147
 20
372.9803195405526
 30
0.0
 10
1539.222900323877
 20
372.7948731195623
 30
0.0
 10
1539.355422195733
 20
372.4421113875744
 30
0.0
 10
1539.429737888922
 20
372.2744202534596
 30
0.0
 10
1539.673269325437
 20
371.7944602444288
 30
0.0
 10
1539.863555490336
 20
371.5042352164702
 30
0.0
 10
1540.285033060758
 20
370.9804365159148
 30
0.0
 10
1540.511696883967
 20
370.752081778383
 30
0.0
 10
1540.989042269785
 20
370.3503780348909
 30
0.0
 10
1541.239818542025
 20
370.177172025281
 30
0.0
 10
1541.761622047257
 20
369.8808501520006
 30
0.0
 10
1542.030804069911
 20
369.7591383632332
 30
0.0
 10
1542.573808284249
 20
369.5670533092952
 30
0.0
 10
1542.849033328068
 20
369.4959183449415
 30
0.0
 10
1543.266252399823
 20
369.4245887478685
 30
0.0
 10
1543.406061237469
 20
369.4067363224304
 30
0.0
 10
1543.687001391739
 20
369.3828693813408
 30
0.0
 10
1543.829174952413
 20
369.3768570503229
 30
0.0
 10
1543.969775882003
 20
369.3768570503229
 30
0.0
  0
LINE
  5
231
330
1F
100
AcDbEntity
  8
0
  6
Continuous
 62
     7
 48
5.0
370
     0
100
AcDbLine
 10
1412.269775882
 20
369.3768570503
 30
0.0
 11
1412.269775882
 21
376.7768570503
 31
0.0
  0
ARC
  5
232
330
1F
100
AcDbEntity
  8
0
  6
Continuous
 62
     7
 48
25.0
370
     0
100
AcDbCircle
 10
1462.269775882
 20
491.7768570503
 30
0.0
 40
50.00000000000023
100
AcDbArc
 50
90.0
 51
180.0
  0
LINE
  5
233
330
1F
100
AcDbEntity
  8
0
  6
Continuous
 62
     7
 48
5.0
370
     0
100
AcDbLine
 10
1707.269775882
 20
541.7768570503
 30
0.0
 11
1462.269775882
 21
541.7768570503
 31
0.0
  0
ARC
  5
234
330
1F
100
AcDbEntity
  8
0
  6
Continuous
 62
     7
 48
25.0
370
     0
100
AcDbCircle
 10
1707.269775882
 20
491.7768570503
 30
0.0
 40
50.00000000000023
100
AcDbArc
 50
0.0
 51
90.0
  0
LINE
  5
235
330
1F
100
AcDbEntity
  8
0
  6
Continuous
 62
     7
 48
5.0
370
     0
100
AcDbLine
 10
1543.969775882
 20
427.8768570503
 30
0.0
 11
1625.569775882
 21
427.8768570503
 31
0.0
  0
ARC
  5
236
330
1F
100
AcDbEntity
  8
0
  6
Continuous
 62
     7
 48
25.0
370
     0
100
AcDbCircle
 10
1543.969775882
 20
422.8768570503
 30
0.0
 40
5.0
100
AcDbArc
 50
90.0
 51
180.0
  0
ARC
  5
237
330
1F
100
AcDbEntity
  8
0
  6
Continuous
 62
     7
 48
25.0
370
     0
100
AcDbCircle
 10
1625.569775882
 20
422.8768570503
 30
0.0
 40
5.0
100
AcDbArc
 50
0.0
 51
90.0
  0
LINE
  5
238
330
1F
100
AcDbEntity
  8
0
  6
Continuous
 62
     7
 48
5.0
370
     0
100
AcDbLine
 10
1538.969775882
 20
376.7768570503
 30
0.0
 11
1538.969775882
 21
422.8768570503
 31
0.0
  0
LINE
  5
239
330
1F
100
AcDbEntity
  8
0
  6
Continuous
 62
     7
 48
5.0
370
     0
100
AcDbLine
 10
1630.569775882
 20
422.8768570503
 30
0.0
 11
1630.569775882
 21
376.7768570503
 31
0.0
  0
LINE
  5
23A
330
1F
100
AcDbEntity
  8
0
  6
Continuous
 62
     7
 48
5.0
370
     0
100
AcDbLine
 10
1412.269775882
 20
376.7768570503
 30
0.0
 11
1412.269775882
 21
491.7768570503
 31
0.0
  0
LINE
  5
23B
330
1F
100
AcDbEntity
  8
0
  6
Continuous
 62
     7
 48
5.0
370
     0
100
AcDbLine
 10
1757.269775882
 20
376.7768570503
 30
0.0
 11
1757.269775882
 21
491.7768570503
 31
0.0
  0
LINE
  5
23C
330
1F
100
AcDbEntity
  8
0
  6
Continuous
 62
     7
 48
5.0
370
     0
100
AcDbLine
 10
1633.569775882
 20
348.5729674088
 30
0.0
 11
1633.569775882
 21
366.7768570503
 31
0.0
  0
SPLINE
  5
23D
330
1F
100
AcDbEntity
  8
0
  6
Continuous
 62
     7
 48
5.0
370
     0
100
AcDbSpline
210
0.0
220
0.0
230
1.0
 70
     8
 71
     3
 72
    18
 73
    14
 74
     0
 42
0.00000001
 43
0.00000001
 40
0.0
 40
0.0
 40
0.0
 40
0.0
 40
0.1250000000000001
 40
0.1250000000000001
 40
0.2500000000000003
 40
0.2500000000000003
 40
0.5000000000000002
 40
0.5000000000000002
 40
0.7500000000000001
 40
0.7500000000000001
 40
0.8750000000000001
 40
0.8750000000000001
 40
1.0
 40
1.0
 40
1.0
 40
1.0
 10
1625.569775882003
 20
340.5729674088041
 30
0.0
 10
1626.094788329553
 20
340.5729674088041
 30
0.0
 10
1626.617527678363
 20
340.6245888171425
 30
0.0
 10
1627.645236709365
 20
340.8291331894238
 30
0.0
 10
1628.14908839603
 20
340.9821158970092
 30
0.0
 10
1629.599478027742
 20
341.5831877632676
 30
0.0
 10
1630.48792865611
 20
342.1770107676008
 30
0.0
 10
1631.968397328777
 20
343.6582821038742
 30
0.0
 10
1632.561381657348
 20
344.5458665297199
 30
0.0
 10
1633.162746754702
 20
345.9996783600595
 30
0.0
 10
1633.315184526639
 20
346.5037005147869
 30
0.0
 10
1633.518588833429
 20
347.5291315910987
 30
0.0
 10
1633.569775882003
 20
348.0479549612546
 30
0.0
 10
1633.569775882003
 20
348.5729674088041
 30
0.0
  0
LINE
  5
23E
330
1F
100
AcDbEntity
  8
0
  6
Continuous
 62
     7
 48
5.0
370
     0
100
AcDbLine
 10
1625.569775882
 20
340.5729674088
 30
0.0
 11
1625.569775882
 21
366.7768570503
 31
0.0
  0
LINE
  5
23F
330
1F
100
AcDbEntity
  8
0
  6
Continuous
 62
     7
 48
5.0
370
     0
100
AcDbLine
 10
1543.969775882
 20
340.5729674088
 30
0.0
 11
1543.969775882
 21
366.7768570503
 31
0.0
  0
SPLINE
  5
240
330
1F
100
AcDbEntity
  8
0
  6
Continuous
 62
     7
 48
5.0
370
     0
100
AcDbSpline
210
0.0
220
0.0
230
1.0
 70
     8
 71
     3
 72
    22
 73
    18
 74
     0
 42
0.00000001
 43
0.00000001
 40
0.0
 40
0.0
 40
0.0
 40
0.0
 40
0.1249999999999997
 40
0.1249999999999997
 40
0.1874999999999996
 40
0.1874999999999996
 40
0.2499999999999994
 40
0.2499999999999994
 40
0.4999999999999993
 40
0.4999999999999993
 40
0.6249999999999994
 40
0.6249999999999994
 40
0.7499999999999997
 40
0.7499999999999997
 40
0.8749999999999998
 40
0.8749999999999998
 40
1.0
 40
1.0
 40
1.0
 40
1.0
 10
1535.969775882003
 20
348.5729674088042
 30
0.0
 10
1535.969775882003
 20
348.0471551982472
 30
0.0
 10
1536.021111095484
 20
347.5300855226524
 30
0.0
 10
1536.171961575798
 20
346.767057478831
 30
0.0
 10
1536.234643675812
 20
346.5148263160281
 30
0.0
 10
1536.385358497665
 20
346.0146812744579
 30
0.0
 10
1536.473733562032
 20
345.7661805941541
 30
0.0
 10
1536.973239356531
 20
344.5545448801593
 30
0.0
 10
1537.566697964227
 20
343.6637960334581
 30
0.0
 10
1538.677718480615
 20
342.5505948643813
 30
0.0
 10
1539.084841646396
 20
342.2158421048238
 30
0.0
 10
1539.9575306636
 20
341.6319651091279
 30
0.0
 10
1540.421576097194
 20
341.3836450237039
 30
0.0
 10
1541.392374010481
 20
340.9813221548098
 30
0.0
 10
1541.896795025234
 20
340.8284803862844
 30
0.0
 10
1542.924233374993
 20
340.6243090477633
 30
0.0
 10
1543.443963671446
 20
340.5729674088041
 30
0.0
 10
1543.969775882003
 20
340.5729674088041
 30
0.0
  0
LINE
  5
241
330
1F
100
AcDbEntity
  8
0
  6
Continuous
 62
     7
 48
5.0
370
     0
100
AcDbLine
 10
1535.969775882
 20
348.5729674088
 30
0.0
 11
1535.969775882
 21
366.7768570503
 31
0.0
  0
SPLINE
  5
242
330
1F
100
AcDbEntity
  8
0
  6
Continuous
 62
     7
 48
5.0
370
     0
100
AcDbSpline
210
0.0
220
0.0
230
1.0
 70
     8
 71
     3
 72
    18
 73
    14
 74
     0
 42
0.00000001
 43
0.00000001
 40
0.0
 40
0.0
 40
0.0
 40
0.0
 40
0.1250000000000003
 40
0.1250000000000003
 40
0.2500000000000006
 40
0.2500000000000006
 40
0.5000000000000013
 40
0.5000000000000013
 40
0.7500000000000019
 40
0.7500000000000019
 40
0.8750000000000009
 40
0.8750000000000009
 40
1.0
 40
1.0
 40
1.0
 40
1.0
 10
1630.569775882003
 20
374.776857050323
 30
0.0
 10
1630.569775882003
 20
374.4487242706046
 30
0.0
 10
1630.537512501792
 20
374.1220121775983
 30
0.0
 10
1630.409672269116
 20
373.4796940332217
 30
0.0
 10
1630.314058076875
 20
373.1647867290566
 30
0.0
 10
1629.938388160464
 20
372.2582932092363
 30
0.0
 10
1629.567248782755
 20
371.7030115665065
 30
0.0
 10
1628.641454197585
 20
370.7777186460896
 30
0.0
 10
1628.086713931431
 20
370.4071034407324
 30
0.0
 10
1627.178081537469
 20
370.0312502548863
 30
0.0
 10
1626.863067690764
 20
369.9359766474257
 30
0.0
 10
1626.222173268069
 20
369.8088489556822
 30
0.0
 10
1625.897908661722
 20
369.7768570503229
 30
0.0
 10
1625.569775882003
 20
369.7768570503229
 30
0.0
  0
LINE
  5
243
330
1F
100
AcDbEntity
  8
0
  6
Continuous
 62
     7
 48
5.0
370
     0
100
AcDbLine
 10
1625.569775882
 20
369.7768570503
 30
0.0
 11
1543.969775882
 21
369.7768570503
 31
0.0
  0
SPLINE
  5
244
330
1F
100
AcDbEntity
  8
0
  6
Continuous
 62
     7
 48
5.0
370
     0
100
AcDbSpline
210
0.0
220
0.0
230
1.0
 70
     8
 71
     3
 72
    16
 73
    12
 74
     0
 42
0.00000001
 43
0.00000001
 40
0.0
 40
0.0
 40
0.0
 40
0.0
 40
0.114642344182006
 40
0.2292846883640115
 40
0.3439270325460164
 40
0.4585693767280218
 40
0.5732117209100273
 40
0.6878540650920333
 40
0.8024964092740393
 40
0.9171387534560453
 40
1.0
 40
1.0
 40
1.0
 40
1.0
 10
1543.969775882003
 20
369.7768570503229
 30
0.0
 10
1543.692664673742
 20
369.7901885076514
 30
0.0
 10
1543.138442257221
 20
369.8168514223084
 30
0.0
 10
1542.330026516697
 20
370.0305999345006
 30
0.0
 10
1541.566882995406
 20
370.3653616603516
 30
0.0
 10
1540.869843130674
 20
370.8244279866285
 30
0.0
 10
1540.258943487526
 20
371.3918844135774
 30
0.0
 10
1539.748005569754
 20
372.0525664604299
 30
0.0
 10
1539.362422232394
 20
372.7895574933413
 30
0.0
 10
1539.097615604532
 20
373.5040718747609
 30
0.0
 10
1539.058310267354
 20
373.9809444250622
 30
0.0
 10
1539.041819988759
 20
374.1810129595902
 30
0.0
  0
SPLINE
  5
245
330
1F
100
AcDbEntity
  8
0
  6
Continuous
 62
     7
 48
5.0
370
     0
100
AcDbSpline
210
0.0
220
0.0
230
1.0
 70
     8
 71
     3
 72
    18
 73
    14
 74
     0
 42
0.00000001
 43
0.00000001
 40
0.0
 40
0.0
 40
0.0
 40
0.0
 40
0.1249999999999997
 40
0.1249999999999997
 40
0.2499999999999994
 40
0.2499999999999994
 40
0.4999999999999988
 40
0.4999999999999988
 40
0.7499999999999982
 40
0.7499999999999982
 40
0.8749999999999991
 40
0.8749999999999991
 40
1.0
 40
1.0
 40
1.0
 40
1.0
 10
1625.569775882003
 20
402.0729674088041
 30
0.0
 10
1625.897908661722
 20
402.0729674088041
 30
0.0
 10
1626.224620754728
 20
402.0407040285925
 30
0.0
 10
1626.866938899105
 20
401.9128637959167
 30
0.0
 10
1627.18184620327
 20
401.8172496036759
 30
0.0
 10
1628.08833972309
 20
401.4415796872643
 30
0.0
 10
1628.64362136582
 20
401.0704403095561
 30
0.0
 10
1629.568914286237
 20
400.1446457243852
 30
0.0
 10
1629.939529491594
 20
399.5899054582317
 30
0.0
 10
1630.31538267744
 20
398.6812730642694
 30
0.0
 10
1630.410656284901
 20
398.3662592175647
 30
0.0
 10
1630.537783976644
 20
397.72536479487
 30
0.0
 10
1630.569775882003
 20
397.4011001885227
 30
0.0
 10
1630.569775882003
 20
397.0729674088043
 30
0.0
  0
LINE
  5
246
330
1F
100
AcDbEntity
  8
0
  6
Continuous
 62
     7
 48
5.0
370
     0
100
AcDbLine
 10
1543.969775882
 20
402.0729674088
 30
0.0
 11
1625.569775882
 21
402.0729674088
 31
0.0
  0
LINE
  5
247
330
1F
100
AcDbEntity
  8
0
  6
Continuous
 62
     7
 48
5.0
370
     0
100
AcDbLine
 10
1543.969775882
 20
340.5729674088
 30
0.0
 11
1625.569775882
 21
340.5729674088
 31
0.0
  0
SPLINE
  5
248
330
1F
100
AcDbEntity
  8
0
  6
Continuous
 62
     7
 48
5.0
370
     0
100
AcDbSpline
210
0.0
220
0.0
230
1.0
 70
     8
 71
     3
 72
    18
 73
    14
 74
     0
 42
0.00000001
 43
0.00000001
 40
0.0
 40
0.0
 40
0.0
 40
0.0
 40
0.1249999999999993
 40
0.1249999999999993
 40
0.2499999999999999
 40
0.2499999999999999
 40
0.5000000000000011
 40
0.5000000000000011
 40
0.7500000000000023
 40
0.7500000000000023
 40
0.8750000000000011
 40
0.8750000000000011
 40
1.0
 40
1.0
 40
1.0
 40
1.0
 10
1538.969775882003
 20
397.072967408804
 30
0.0
 10
1538.969775882003
 20
397.4011001885224
 30
0.0
 10
1539.002039262215
 20
397.7278122815287
 30
0.0
 10
1539.129879494891
 20
398.3701304259053
 30
0.0
 10
1539.225493687131
 20
398.6850377300705
 30
0.0
 10
1539.601163603543
 20
399.5915312498907
 30
0.0
 10
1539.972302981251
 20
400.1468128926206
 30
0.0
 10
1540.898097566422
 20
401.0721058130375
 30
0.0
 10
1541.452837832576
 20
401.4427210183946
 30
0.0
 10
1542.361470226538
 20
401.8185742042407
 30
0.0
 10
1542.676484073243
 20
401.9138478117013
 30
0.0
 10
1543.317378495937
 20
402.0409755034449
 30
0.0
 10
1543.641643102284
 20
402.0729674088041
 30
0.0
 10
1543.969775882003
 20
402.0729674088041
 30
0.0
  0
LINE
  5
249
330
1F
100
AcDbEntity
  8
0
  6
Continuous
 62
     8
 48
5.0
370
     0
100
AcDbLine
 10
1625.569775882
 20
427.8768570503
 30
0.0
 11
1625.569775882
 21
402.0729674088
 31
0.0
  0
LINE
  5
24A
330
1F
100
AcDbEntity
  8
0
  6
Continuous
 62
     8
 48
5.0
370
     0
100
AcDbLine
 10
1543.969775882
 20
427.8768570503
 30
0.0
 11
1543.969775882
 21
402.0729674088
 31
0.0
  0
DIMENSION
  5
24B
330
1F
100
AcDbEntity
  8
SLD-0
 62
     1
 48
5.0
100
AcDbDimension
  2
*D14
 10
1807.269775882
 20
427.8768570503
 30
0.0
 11
1807.269775882
 21
398.6268570503
 31
0.0
 70
   160
 71
     2
 42
-1.0
  3
SLDDIMSTYLE2
100
AcDbAlignedDimension
 13
1707.269775882
 23
369.3768570503
 33
0.0
 14
1625.569775882
 24
427.8768570503
 34
0.0
 50
90.0
100
AcDbRotatedDimension
  0
DIMENSION
  5
257
330
1F
100
AcDbEntity
  8
SLD-0
 62
     1
 48
5.0
100
AcDbDimension
  2
*D15
 10
1630.569775882
 20
591.7768570503
 30
0.0
 11
1584.769775882
 21
591.7768570503
 31
0.0
 70
   160
 71
     2
 42
-1.0
  3
SLDDIMSTYLE1
100
AcDbAlignedDimension
 13
1538.969775882
 23
422.8768570503
 33
0.0
 14
1630.569775882
 24
422.8768570503
 34
0.0
 50
0.0
100
AcDbRotatedDimension
  0
DIMENSION
  5
261
330
1F
100
AcDbEntity
  8
SLD-0
 62
     1
 48
5.0
100
AcDbDimension
  2
*D16
 10
1462.269775882
 20
491.7768570503
 30
0.0
 11
1362.269775882
 21
591.7768570503
 31
0.0
 70
   164
  1
<>
 71
     1
 42
-1.0
  3
SLDDIMSTYLE4
100
AcDbRadialDimension
 15
0.0
 25
0.0
 35
0.0
 40
0.0
  0
DIMENSION
  5
268
330
1F
100
AcDbEntity
  8
SLD-0
 62
     1
 48
5.0
100
AcDbDimension
  2
*D17
 10
1625.569775882
 20
348.5729674088
 30
0.0
 11
1684.020745539
 21
290.1219977518
 31
0.0
 70
   164
  1
<>
 71
     1
 42
-1.0
  3
SLDDIMSTYLE4
100
AcDbRadialDimension
 15
0.0
 25
0.0
 35
0.0
 40
0.0
  0
SOLID
  5
26E
330
1F
100
AcDbEntity
  8
SLD-0
 62
     1
 48
5.0
100
AcDbTrace
 10
1426.9144368278
 20
527.1321961148
 30
0.0
 11
1421.2575825801
 21
539.1530113958
 31
0.0
 12
1414.8936215485
 22
532.789050366
 32
0.0
 13
1414.8936215485
 23
532.789050366
 33
0.0
  0
LINE
  5
26F
330
1F
100
AcDbEntity
  8
SLD-0
 62
     1
 48
5.0
100
AcDbLine
 10
1426.9144368278
 20
527.1321961148
 30
0.0
 11
1349.4081318067
 21
604.6385011584
 31
0.0
  0
SOLID
  5
270
330
1F
100
AcDbEntity
  8
SLD-0
 62
     1
 48
5.0
100
AcDbTrace
 10
1631.2266301315
 20
342.9161131593
 30
0.0
 11
1636.883484381
 21
330.8952978791
 31
0.0
 12
1643.2474454117
 22
337.2592589098
 32
0.0
 13
1643.2474454117
 23
337.2592589098
 33
0.0
  0
LINE
  5
271
330
1F
100
AcDbEntity
  8
SLD-0
 62
     1
 48
5.0
100
AcDbLine
 10
1631.2266301315
 20
342.9161131593
 30
0.0
 11
1694.5524008941
 21
279.5903423967
 31
0.0
  0
LINE
  5
272
330
1F
100
AcDbEntity
  8
0
  6
Continuous
 62
     7
 48
5.0
370
     0
100
AcDbLine
 10
1185.8190329695
 20
1160.7924931969
 30
0.0
 11
1450.1367215301
 21
1024.2012678209
 31
0.0
  0
LINE
  5
273
330
1F
100
AcDbEntity
  8
0
  6
Continuous
 62
     7
 48
5.0
370
     0
100
AcDbLine
 10
1685.5696679271
 20
1189.5113102688
 30
0.0
 11
1683.731190296
 21
1190.5726408141
 31
0.0
  0
LINE
  5
274
330
1F
100
AcDbEntity
  8
0
  6
Continuous
 62
     7
 48
5.0
370
     0
100
AcDbLine
 10
1520.7459902661
 20
1108.4389049962
 30
0.0
 11
1251.2995302774
 21
1247.6805211873
 31
0.0
  0
LINE
  5
275
330
1F
100
AcDbEntity
  8
0
  6
Continuous
 62
     7
 48
5.0
370
     0
100
AcDbLine
 10
1758.2306966632
 20
1016.6283122956
 30
0.0
 11
1758.2306966632
 21
1018.7513184065
 31
0.0
  0
ARC
  5
276
330
1F
100
AcDbEntity
  8
0
  6
Continuous
 62
     7
 48
25.0
370
     0
100
AcDbCircle
 10
1465.4888825437
 20
933.646416357
 30
0.0
 40
15.36804807572081
100
AcDbArc
 50
182.6054784857
 51
237.39452166
  0
LINE
  5
277
330
1F
100
AcDbEntity
  8
0
  6
Continuous
 62
     7
 48
5.0
370
     0
100
AcDbLine
 10
1450.1367215301
 20
1026.8500012013
 30
0.0
 11
1450.1367215301
 21
932.9478078344
 31
0.0
  0
LINE
  5
278
330
1F
100
AcDbEntity
  8
0
  6
Continuous
 62
     7
 48
5.0
370
     0
100
AcDbLine
 10
1451.9751991611
 20
1025.7886706559
 30
0.0
 11
1450.1367215301
 21
1026.8500012013
 31
0.0
  0
LINE
  5
279
330
1F
100
AcDbEntity
  8
0
  6
Continuous
 62
     7
 48
5.0
370
     0
100
AcDbLine
 10
1451.9751991611
 20
931.886477289
 30
0.0
 11
1451.9751991611
 21
1025.7886706559
 31
0.0
  0
ARC
  5
27A
330
1F
100
AcDbEntity
  8
0
  6
Continuous
 62
     7
 48
25.0
370
     0
100
AcDbCircle
 10
1463.3357983113
 20
932.4034475958
 30
0.0
 40
11.37235557603346
100
AcDbArc
 50
182.6054784857
 51
237.39452166
  0
LINE
  5
27B
330
1F
100
AcDbEntity
  8
0
  6
Continuous
 62
     7
 48
5.0
370
     0
100
AcDbLine
 10
1499.6341962131
 20
898.3311219126
 30
0.0
 11
1457.2077893419
 21
922.8233652673
 31
0.0
  0
LINE
  5
27C
330
1F
100
AcDbEntity
  8
0
  6
Continuous
 62
     7
 48
5.0
370
     0
100
AcDbLine
 10
1499.6341962131
 20
896.2081158017
 30
0.0
 11
1499.6341962131
 21
898.3311219126
 31
0.0
  0
LINE
  5
27D
330
1F
100
AcDbEntity
  8
0
  6
Continuous
 62
     7
 48
5.0
370
     0
100
AcDbLine
 10
1457.2077893419
 20
920.7003591564
 30
0.0
 11
1499.6341962131
 21
896.2081158017
 31
0.0
  0
LWPOLYLINE
  5
27E
330
1F
100
AcDbEntity
  8
0
  6
Continuous
 62
     7
 48
5.0
370
     0
100
AcDbPolyline
 90
       19
 70
   128
 43
0.0
 10
1487.3305382205
 20
1087.0259140457
 10
1484.2491173847
 20
1085.091688446
 10
1481.191148022
 20
1082.86146504
 10
1478.1799031259
 20
1080.3522171745
 10
1475.2383000881
 20
1077.583041741
 10
1472.388726284
 20
1074.5750138365
 10
1469.6528686908
 20
1071.3510263697
 10
1467.0515488368
 20
1067.9356158318
 10
1464.6045643369
 20
1064.3547755595
 10
1462.3305382205
 20
1060.6357579093
 10
1460.2467771995
 20
1056.8068668512
 10
1458.3691399535
 20
1052.8972425579
 10
1456.7119164357
 20
1048.9366396312
 10
1455.2877191177
 20
1044.9552006508
 10
1454.107387001
 20
1040.9832267713
 10
1453.1799031259
 20
1037.0509471124
 10
1452.5123262045
 20
1033.1882886966
 10
1452.1097369003
 20
1029.4246486867
 10
1451.9751991611
 20
1025.7886706559
  0
LINE
  5
27F
330
1F
100
AcDbEntity
  8
0
  6
Continuous
 62
     7
 48
5.0
370
     0
100
AcDbLine
 10
1660.5716996112
 20
1187.035907744
 30
0.0
 11
1487.3305382205
 21
1087.0259140457
 31
0.0
  0
LWPOLYLINE
  5
280
330
1F
100
AcDbEntity
  8
0
  6
Continuous
 62
     7
 48
5.0
370
     0
100
AcDbPolyline
 90
       19
 70
   128
 43
0.0
 10
1695.9270386705
 20
1166.6190699453
 10
1695.7925009313
 20
1170.0997140088
 10
1695.3899116272
 20
1173.3985343021
 10
1694.7223347058
 20
1176.4904248107
 10
1693.7948508306
 20
1179.3518543811
 10
1692.614518714
 20
1181.9610458063
 10
1691.190321396
 20
1184.2981415642
 10
1689.5330978782
 20
1186.3453549449
 10
1687.6554606322
 20
1188.0871054184
 10
1685.5716996112
 20
1189.5101372119
 10
1683.2976734948
 20
1190.6036201942
 10
1680.8506889948
 20
1191.3592322995
 10
1678.2493691408
 20
1191.7712228635
 10
1675.5135115477
 20
1191.8364563892
 10
1672.6639377436
 20
1191.5544364102
 10
1669.7223347058
 20
1190.9273092686
 10
1666.7110898096
 20
1189.9598477808
 10
1663.653120447
 20
1188.6594149128
 10
1660.5716996112
 20
1187.035907744
  0
LINE
  5
281
330
1F
100
AcDbEntity
  8
0
  6
Continuous
 62
     7
 48
5.0
370
     0
100
AcDbLine
 10
1695.9270386705
 20
1072.7168765784
 30
0.0
 11
1695.9270386705
 21
1166.6190699453
 31
0.0
  0
LINE
  5
282
330
1F
100
AcDbEntity
  8
0
  6
Continuous
 62
     7
 48
5.0
370
     0
100
AcDbLine
 10
1695.9270386705
 20
1072.7168765784
 30
0.0
 11
1606.3366094942
 21
1020.9974226945
 31
0.0
  0
LINE
  5
283
330
1F
100
AcDbEntity
  8
0
  6
Continuous
 62
     7
 48
5.0
370
     0
100
AcDbLine
 10
1606.3366094942
 20
1058.6399541224
 30
0.0
 11
1606.3366094942
 21
1020.9974226945
 31
0.0
  0
ARC
  5
284
330
1F
100
AcDbEntity
  8
0
  6
Continuous
 62
     7
 48
25.0
370
     0
100
AcDbCircle
 10
1604.181237657
 20
1058.9895901069
 30
0.0
 40
2.183545987142511
100
AcDbArc
 50
350.7859630095
 51
129.2032852357
  0
LINE
  5
285
330
1F
100
AcDbEntity
  8
0
  6
Continuous
 62
     7
 48
5.0
370
     0
100
AcDbLine
 10
1545.1011622434
 20
1027.3721869399
 30
0.0
 11
1602.8010755882
 21
1060.6816379023
 31
0.0
  0
ARC
  5
286
330
1F
100
AcDbEntity
  8
0
  6
Continuous
 62
     7
 48
25.0
370
     0
100
AcDbCircle
 10
1549.2417088443
 20
1020.8991583396
 30
0.0
 40
7.684024037860498
100
AcDbArc
 50
122.60547834
 51
177.3945215143
  0
LINE
  5
287
330
1F
100
AcDbEntity
  8
0
  6
Continuous
 62
     7
 48
5.0
370
     0
100
AcDbLine
 10
1541.5656283375
 20
983.605931173
 30
0.0
 11
1541.5656283375
 21
1021.2484626009
 31
0.0
  0
LINE
  5
288
330
1F
100
AcDbEntity
  8
0
  6
Continuous
 62
     7
 48
5.0
370
     0
100
AcDbLine
 10
1541.5656283375
 20
983.605931173
 30
0.0
 11
1451.9751991611
 21
931.886477289
 31
0.0
  0
LWPOLYLINE
  5
289
330
1F
100
AcDbEntity
  8
0
  6
Continuous
 62
     7
 48
5.0
370
     0
100
AcDbPolyline
 90
       19
 70
   128
 43
0.0
 10
1450.1367215301
 20
1026.8500012013
 10
1450.2712592693
 20
1030.4859792321
 10
1450.6738485734
 20
1034.2496192419
 10
1451.3414254948
 20
1038.1122776578
 10
1452.26890937
 20
1042.0445573167
 10
1453.4492414866
 20
1046.0165311962
 10
1454.8734388046
 20
1049.9979701766
 10
1456.5306623224
 20
1053.9585731033
 10
1458.4082995684
 20
1057.8681973965
 10
1460.4920605894
 20
1061.6970884547
 10
1462.7660867058
 20
1065.4161061049
 10
1465.2130712058
 20
1068.9969463772
 10
1467.8143910597
 20
1072.412356915
 10
1470.5502486529
 20
1075.6363443818
 10
1473.399822457
 20
1078.6443722864
 10
1476.3414254948
 20
1081.4135477199
 10
1479.3526703909
 20
1083.9227955854
 10
1482.4106397536
 20
1086.1530189913
 10
1485.4920605894
 20
1088.0872445911
  0
LINE
  5
28A
330
1F
100
AcDbEntity
  8
0
  6
Continuous
 62
     7
 48
5.0
370
     0
100
AcDbLine
 10
1485.4920605894
 20
1088.0872445911
 30
0.0
 11
1487.3305382205
 21
1087.0259140457
 31
0.0
  0
LINE
  5
28B
330
1F
100
AcDbEntity
  8
0
  6
Continuous
 62
     7
 48
5.0
370
     0
100
AcDbLine
 10
1660.5716996112
 20
1187.035907744
 30
0.0
 11
1658.7332219801
 21
1188.0972382894
 31
0.0
  0
LINE
  5
28C
330
1F
100
AcDbEntity
  8
0
  6
Continuous
 62
     7
 48
5.0
370
     0
100
AcDbLine
 10
1658.7332219801
 20
1188.0972382894
 30
0.0
 11
1485.4920605894
 21
1088.0872445911
 31
0.0
  0
LWPOLYLINE
  5
28D
330
1F
100
AcDbEntity
  8
0
  6
Continuous
 62
     7
 48
5.0
370
     0
100
AcDbPolyline
 90
       19
 70
   128
 43
0.0
 10
1499.6341962131
 20
898.3311219126
 10
1502.8501547881
 20
896.629922512
 10
1506.3107134549
 20
895.0970042333
 10
1509.9895352724
 20
893.7440335103
 10
1513.8586221854
 20
892.581307267
 10
1517.8885281062
 20
891.6176745524
 10
1522.0485830173
 20
890.8604691931
 10
1526.3071263891
 20
890.3154539792
 10
1530.6317481351
 20
889.9867768056
 10
1534.9895352724
 20
889.8769391039
 10
1539.3473224098
 20
889.9867768056
 10
1543.6719441558
 20
890.3154539792
 10
1547.9304875276
 20
890.8604691931
 10
1552.0905424387
 20
891.6176745524
 10
1556.1204483595
 20
892.581307267
 10
1559.9895352724
 20
893.7440335103
 10
1563.66835709
 20
895.0970042333
 10
1567.1289157568
 20
896.629922512
 10
1570.3448743318
 20
898.3311219126
  0
LINE
  5
28E
330
1F
100
AcDbEntity
  8
0
  6
Continuous
 62
     7
 48
5.0
370
     0
100
AcDbLine
 10
1570.3448743318
 20
898.3311219126
 30
0.0
 11
1570.3448743318
 21
896.2081158017
 31
0.0
  0
LWPOLYLINE
  5
28F
330
1F
100
AcDbEntity
  8
0
  6
Continuous
 62
     7
 48
5.0
370
     0
100
AcDbPolyline
 90
       19
 70
   128
 43
0.0
 10
1570.3448743318
 20
896.2081158017
 10
1567.1289157568
 20
894.5069164011
 10
1563.66835709
 20
892.9739981224
 10
1559.9895352724
 20
891.6210273994
 10
1556.1204483595
 20
890.4583011561
 10
1552.0905424387
 20
889.4946684414
 10
1547.9304875276
 20
888.7374630822
 10
1543.6719441558
 20
888.1924478683
 10
1539.3473224098
 20
887.8637706947
 10
1534.9895352724
 20
887.753932993
 10
1530.6317481351
 20
887.8637706947
 10
1526.3071263891
 20
888.1924478683
 10
1522.0485830173
 20
888.7374630822
 10
1517.8885281062
 20
889.4946684414
 10
1513.8586221854
 20
890.4583011561
 10
1509.9895352724
 20
891.6210273994
 10
1506.3107134549
 20
892.9739981224
 10
1502.8501547881
 20
894.5069164011
 10
1499.6341962131
 20
896.2081158017
  0
LINE
  5
290
330
1F
100
AcDbEntity
  8
0
  6
Continuous
 62
     7
 48
5.0
370
     0
100
AcDbLine
 10
1743.5860357225
 20
1039.1615212021
 30
0.0
 11
1701.1596288513
 21
1063.6537645567
 31
0.0
  0
LWPOLYLINE
  5
291
330
1F
100
AcDbEntity
  8
0
  6
Continuous
 62
     7
 48
5.0
370
     0
100
AcDbPolyline
 90
       19
 70
   128
 43
0.0
 10
1743.5860357225
 20
998.3411156109
 10
1746.5329188191
 20
1000.1976489788
 10
1749.1882988776
 20
1002.1953869741
 10
1751.5319668524
 20
1004.3191256044
 10
1753.546086015
 20
1006.5527019362
 10
1755.2153277024
 20
1008.8791171051
 10
1756.5269879776
 20
1011.2806656869
 10
1757.4710843138
 20
1013.7390704468
 10
1758.0404315677
 20
1016.2356214402
 10
1758.2306966632
 20
1018.7513184065
 10
1758.0404315677
 20
1021.2670153728
 10
1757.4710843138
 20
1023.7635663662
 10
1756.5269879776
 20
1026.2219711261
 10
1755.2153277024
 20
1028.6235197079
 10
1753.546086015
 20
1030.9499348768
 10
1751.5319668524
 20
1033.1835112086
 10
1749.1882988776
 20
1035.3072498389
 10
1746.5329188191
 20
1037.3049878341
 10
1743.5860357225
 20
1039.1615212021
  0
LINE
  5
292
330
1F
100
AcDbEntity
  8
0
  6
Continuous
 62
     7
 48
5.0
370
     0
100
AcDbLine
 10
1743.5860357225
 20
998.3411156109
 30
0.0
 11
1570.3448743318
 21
898.3311219126
 31
0.0
  0
LINE
  5
293
330
1F
100
AcDbEntity
  8
0
  6
Continuous
 62
     7
 48
5.0
370
     0
100
AcDbLine
 10
1550.3337524242
 20
976.5838394308
 30
0.0
 11
1457.2077893419
 21
922.8233652673
 31
0.0
  0
LINE
  5
294
330
1F
100
AcDbEntity
  8
0
  6
Continuous
 62
     7
 48
5.0
370
     0
100
AcDbLine
 10
1550.3337524242
 20
976.5838394308
 30
0.0
 11
1543.2626846123
 21
980.66587999
 31
0.0
  0
LINE
  5
295
330
1F
100
AcDbEntity
  8
0
  6
Continuous
 62
     7
 48
5.0
370
     0
100
AcDbLine
 10
1543.2626846123
 20
980.66587999
 30
0.0
 11
1600.9625979572
 21
1013.9753309523
 31
0.0
  0
LINE
  5
296
330
1F
100
AcDbEntity
  8
0
  6
Continuous
 62
     7
 48
5.0
370
     0
100
AcDbLine
 10
1608.033665769
 20
1009.8932903932
 30
0.0
 11
1600.9625979572
 21
1013.9753309523
 31
0.0
  0
LINE
  5
297
330
1F
100
AcDbEntity
  8
0
  6
Continuous
 62
     7
 48
5.0
370
     0
100
AcDbLine
 10
1701.1596288513
 20
1063.6537645567
 30
0.0
 11
1608.033665769
 21
1009.8932903932
 31
0.0
  0
LINE
  5
298
330
1F
100
AcDbEntity
  8
0
  6
Continuous
 62
     7
 48
5.0
370
     0
100
AcDbLine
 10
1743.5860357225
 20
996.2181095
 30
0.0
 11
1743.5860357225
 21
998.3411156109
 31
0.0
  0
LINE
  5
299
330
1F
100
AcDbEntity
  8
0
  6
Continuous
 62
     7
 48
5.0
370
     0
100
AcDbLine
 10
1743.5860357225
 20
996.2181095
 30
0.0
 11
1570.3448743318
 21
896.2081158017
 31
0.0
  0
ARC
  5
29A
330
1F
100
AcDbEntity
  8
0
  6
Continuous
 62
     7
 48
25.0
370
     0
100
AcDbCircle
 10
1550.2677879946
 20
983.6849810682
 30
0.0
 40
8.702518691932429
100
AcDbArc
 50
180.5204571014
 51
194.6570967618
  0
SPLINE
  5
29B
330
1F
100
AcDbEntity
  8
0
  6
Continuous
 62
     7
 48
5.0
370
     0
100
AcDbSpline
210
0.0
220
0.0
230
1.0
 70
     8
 71
     3
 72
    26
 73
    22
 74
     0
 42
0.00000001
 43
0.00000001
 40
0.0
 40
0.0
 40
0.0
 40
0.0
 40
0.1250000000000002
 40
0.1250000000000002
 40
0.1875000000000003
 40
0.1875000000000003
 40
0.2500000000000004
 40
0.2500000000000004
 40
0.3750000000000006
 40
0.3750000000000006
 40
0.5000000000000008
 40
0.5000000000000008
 40
0.625000000000001
 40
0.625000000000001
 40
0.7500000000000011
 40
0.7500000000000011
 40
0.8750000000000012
 40
0.8750000000000012
 40
0.9375000000000007
 40
0.9375000000000007
 40
1.0
 40
1.0
 40
1.0
 40
1.0
 10
1541.848471049959
 20
981.4829516021011
 30
0.0
 10
1541.951801396901
 20
981.0752775561218
 30
0.0
 10
1542.117248410223
 20
980.6958831121852
 30
0.0
 10
1542.442031972531
 20
980.1591754932991
 30
0.0
 10
1542.564196937851
 20
979.9846702462326
 30
0.0
 10
1542.82736076796
 20
979.6528965809822
 30
0.0
 10
1542.968312866069
 20
979.4952719467101
 30
0.0
 10
1543.415875911901
 20
979.0438134047761
 30
0.0
 10
1543.74815664706
 20
978.7703624080385
 30
0.0
 10
1544.463496623943
 20
978.2738001206477
 30
0.0
 10
1544.838919857175
 20
978.0556621224144
 30
0.0
 10
1545.61852573865
 20
977.6673063710431
 30
0.0
 10
1546.022788571439
 20
977.4972364124196
 30
0.0
 10
1546.857231428353
 20
977.1995685161476
 30
0.0
 10
1547.284417891674
 20
977.0733387641385
 30
0.0
 10
1548.142429287304
 20
976.8644870880574
 30
0.0
 10
1548.575476850547
 20
976.7811054078522
 30
0.0
 10
1549.230669174533
 20
976.6852484376457
 30
0.0
 10
1549.450008260746
 20
976.658190513591
 30
0.0
 10
1549.890548633826
 20
976.613745458963
 30
0.0
 10
1550.113383037393
 20
976.5962682305243
 30
0.0
 10
1550.333752424197
 20
976.5838394308496
 30
0.0
  0
SPLINE
  5
29C
330
1F
100
AcDbEntity
  8
0
  6
Continuous
 62
     7
 48
5.0
370
     0
100
AcDbSpline
210
0.0
220
0.0
230
1.0
 70
     8
 71
     3
 72
    18
 73
    14
 74
     0
 42
0.00000001
 43
0.00000001
 40
0.0
 40
0.0
 40
0.0
 40
0.0
 40
0.1249999999999998
 40
0.1249999999999998
 40
0.2499999999999995
 40
0.2499999999999995
 40
0.4999999999999997
 40
0.4999999999999997
 40
0.7499999999999998
 40
0.7499999999999998
 40
0.8749999999999999
 40
0.8749999999999999
 40
1.0
 40
1.0
 40
1.0
 40
1.0
 10
1189.709294019058
 20
1213.915238878918
 30
0.0
 10
1189.338054157189
 20
1213.700926668425
 30
0.0
 10
1188.968421618852
 20
1213.445391359381
 30
0.0
 10
1188.241721593944
 20
1212.858857536819
 30
0.0
 10
1187.885444649591
 20
1212.528266610489
 30
0.0
 10
1186.859864305645
 20
1211.445411970496
 30
0.0
 10
1186.231634841576
 20
1210.597862102444
 30
0.0
 10
1185.184785403799
 20
1208.784010286068
 30
0.0
 10
1184.765482163929
 20
1207.817202770356
 30
0.0
 10
1184.340252825621
 20
1206.384626406259
 30
0.0
 10
1184.232463043376
 20
1205.91084603005
 30
0.0
 10
1184.088634478722
 20
1204.990509243444
 30
0.0
 10
1184.052439769566
 20
1204.545974026714
 30
0.0
 10
1184.052439769566
 20
1204.117279936541
 30
0.0
  0
LINE
  5
29D
330
1F
100
AcDbEntity
  8
0
  6
Continuous
 62
     7
 48
5.0
370
     0
100
AcDbLine
 10
1184.0524397696
 20
1164.5150505601
 30
0.0
 11
1184.0524397696
 21
1204.1172799365
 31
0.0
  0
LINE
  5
29E
330
1F
100
AcDbEntity
  8
0
  6
Continuous
 62
     7
 48
5.0
370
     0
100
AcDbLine
 10
1247.4092073639
 20
1247.2246898413
 30
0.0
 11
1189.7092940191
 21
1213.9152388789
 31
0.0
  0
LWPOLYLINE
  5
29F
330
1F
100
AcDbEntity
  8
0
  6
Continuous
 62
     7
 48
5.0
370
     0
100
AcDbPolyline
 90
        3
 70
   128
 43
0.0
 10
1542.3446709795
 20
980.2759511658
 10
1542.5729361641
 20
980.3461447001
 10
1543.2626846123
 20
980.66587999
  0
SPLINE
  5
2A0
330
1F
100
AcDbEntity
  8
0
  6
Continuous
 62
     7
 48
5.0
370
     0
100
AcDbSpline
210
0.0
220
0.0
230
1.0
 70
     8
 71
     3
 72
    11
 73
     7
 74
     0
 42
0.00000001
 43
0.00000001
 40
0.0
 40
0.0
 40
0.0
 40
0.0
 40
0.4143929614679132
 40
0.6193564615745737
 40
0.8243199616812351
 40
1.0
 40
1.0
 40
1.0
 40
1.0
 10
1184.052439769566
 20
1164.515050560083
 30
0.0
 10
1184.112026537478
 20
1163.813633984904
 30
0.0
 10
1184.201085602574
 20
1162.765288746236
 30
0.0
 10
1184.73621998318
 20
1161.744926990424
 30
0.0
 10
1185.222748350824
 20
1161.151560764623
 30
0.0
 10
1185.635274224002
 20
1160.913942485411
 30
0.0
 10
1185.825669052474
 20
1160.804273505951
 30
0.0
  0
LWPOLYLINE
  5
2A1
330
1F
100
AcDbEntity
  8
0
  6
Continuous
 62
     7
 48
5.0
370
     0
100
AcDbPolyline
 90
       10
 70
   128
 43
0.0
 10
1658.7332219801
 20
1188.0972382894
 10
1661.8146428159
 20
1189.7207454582
 10
1664.8726121785
 20
1191.0211783262
 10
1667.8838570747
 20
1191.988639814
 10
1670.8254601125
 20
1192.6157669555
 10
1673.6750339166
 20
1192.8977869346
 10
1676.4108915098
 20
1192.8325534089
 10
1679.0122113637
 20
1192.4205628449
 10
1681.4591958637
 20
1191.6649507395
 10
1683.731190296
 20
1190.5726408141
  0
LINE
  5
2A2
330
1F
100
AcDbEntity
  8
0
  6
Continuous
 62
     7
 48
5.0
370
     0
100
AcDbLine
 10
1600.9625979572
 20
1014.3019472771
 30
0.0
 11
1543.2626846123
 21
980.9924963147
 31
0.0
  0
SPLINE
  5
2A3
330
1F
100
AcDbEntity
  8
0
  6
Continuous
 62
     7
 48
5.0
370
     0
100
AcDbSpline
210
0.0
220
0.0
230
1.0
 70
     8
 71
     3
 72
    18
 73
    14
 74
     0
 42
0.00000001
 43
0.00000001
 40
0.0
 40
0.0
 40
0.0
 40
0.0
 40
0.1250000000000003
 40
0.1250000000000003
 40
0.2500000000000006
 40
0.2500000000000006
 40
0.5000000000000013
 40
0.5000000000000013
 40
0.7500000000000019
 40
0.7500000000000019
 40
0.8750000000000009
 40
0.8750000000000009
 40
1.0
 40
1.0
 40
1.0
 40
1.0
 10
1604.498131863087
 20
1020.42567161607
 30
0.0
 10
1604.498131863087
 20
1020.157737809712
 30
0.0
 10
1604.475318208155
 20
1019.877794009376
 30
0.0
 10
1604.384921512722
 20
1019.301130128791
 30
0.0
 10
1604.317312069011
 20
1019.004965361904
 30
0.0
 10
1604.051673323628
 20
1018.111426423697
 30
0.0
 10
1603.789238152885
 20
1017.506515701029
 30
0.0
 10
1603.134602523725
 20
1016.373063163952
 30
0.0
 10
1602.742341919731
 20
1015.843993496651
 30
0.0
 10
1602.099841792354
 20
1015.166186602583
 30
0.0
 10
1601.877093365182
 20
1014.959801883902
 30
0.0
 10
1601.42391257287
 20
1014.594381232518
 30
0.0
 10
1601.194622870823
 20
1014.435892408643
 30
0.0
 10
1600.962597957154
 20
1014.301947277084
 30
0.0
  0
LINE
  5
2A4
330
1F
100
AcDbEntity
  8
0
  6
Continuous
 62
     7
 48
5.0
370
     0
100
AcDbLine
 10
1604.4981318631
 20
1020.0990552913
 30
0.0
 11
1604.4981318631
 21
1020.4256716161
 31
0.0
  0
ARC
  5
2A5
330
1F
100
AcDbEntity
  8
0
  6
Continuous
 62
     7
 48
25.0
370
     0
100
AcDbCircle
 10
1596.8220513562
 20
1020.4483595526
 30
0.0
 40
7.684024037860514
100
AcDbArc
 50
302.60547834
 51
357.3945215143
  0
SPLINE
  5
2A6
330
1F
100
AcDbEntity
  8
0
  6
Continuous
 62
     7
 48
5.0
370
     0
100
AcDbSpline
210
0.0
220
0.0
230
1.0
 70
     8
 71
     3
 72
     9
 73
     5
 74
     0
 42
0.00000001
 43
0.00000001
 40
0.0
 40
0.0
 40
0.0
 40
0.0
 40
0.5487055954366322
 40
1.0
 40
1.0
 40
1.0
 40
1.0
 10
1543.262684612332
 20
980.9924963147175
 30
0.0
 10
1543.066161772901
 20
980.8876578926704
 30
0.0
 10
1542.708004609816
 20
980.696592915533
 30
0.0
 10
1542.364553854487
 20
980.6152137482555
 30
0.0
 10
1542.209556450365
 20
980.5784877854153
 30
0.0
  0
LINE
  5
2A7
330
1F
100
AcDbEntity
  8
0
  6
Continuous
 62
     7
 48
5.0
370
     0
100
AcDbLine
 10
1606.3366094942
 20
1058.6399541224
 30
0.0
 11
1604.4981318631
 21
1059.7012846678
 31
0.0
  0
ARC
  5
2A8
330
1F
100
AcDbEntity
  8
0
  6
Continuous
 62
     7
 48
25.0
370
     0
100
AcDbCircle
 10
1601.2860168971
 20
1059.8145192587
 30
0.0
 40
3.21411023883325
100
AcDbArc
 50
357.9810253748
 51
24.6794885916
  0
SPLINE
  5
2A9
330
1F
100
AcDbEntity
  8
0
  6
Continuous
 62
     7
 48
5.0
370
     0
100
AcDbSpline
210
0.0
220
0.0
230
1.0
 70
     8
 71
     3
 72
    12
 73
     8
 74
     0
 42
0.00000001
 43
0.00000001
 40
0.0
 40
0.0
 40
0.0
 40
0.0
 40
0.0249641552153391
 40
0.2442921233294097
 40
0.4636200914434799
 40
0.6829480595575516
 40
0.9999999999999999
 40
0.9999999999999999
 40
0.9999999999999999
 40
0.9999999999999999
 10
1251.294036052768
 20
1247.670834608384
 30
0.0
 10
1251.269976703667
 20
1247.687335106521
 30
0.0
 10
1251.034538755652
 20
1247.848804288669
 30
0.0
 10
1250.484121748637
 20
1247.973904415113
 30
0.0
 10
1249.66023067944
 20
1248.018009697885
 30
0.0
 10
1248.630386995941
 20
1247.832708282142
 30
0.0
 10
1247.862878471219
 20
1247.450570123026
 30
0.0
 10
1247.409207363881
 20
1247.224689841285
 30
0.0
  0
ARC
  5
2AA
330
1F
100
AcDbEntity
  8
0
  6
Continuous
 62
     7
 48
25.0
370
     0
100
AcDbCircle
 10
1615.0387691513
 20
1021.0764725897
 30
0.0
 40
8.70251869196889
100
AcDbArc
 50
180.5204571015
 51
194.6570967618
  0
LINE
  5
2AB
330
1F
100
AcDbEntity
  8
0
  6
Continuous
 62
     7
 48
5.0
370
     0
100
AcDbLine
 10
1606.6194522066
 20
1018.8744431236
 30
0.0
 11
1604.4981318631
 21
1020.0990552913
 31
0.0
  0
LWPOLYLINE
  5
2AC
330
1F
100
AcDbEntity
  8
0
  6
Continuous
 62
     7
 48
5.0
370
     0
100
AcDbPolyline
 90
       10
 70
   128
 43
0.0
 10
1758.2306966632
 20
1016.6283122956
 10
1758.0404315677
 20
1014.1126153293
 10
1757.4710843138
 20
1011.6160643359
 10
1756.5269879776
 20
1009.157659576
 10
1755.2153277024
 20
1006.7561109942
 10
1753.546086015
 20
1004.4296958253
 10
1751.5319668524
 20
1002.1961194935
 10
1749.1882988776
 20
1000.0723808632
 10
1746.5329188191
 20
998.0746428679
 10
1743.5860357225
 20
996.2181095
  0
SPLINE
  5
2AD
330
1F
100
AcDbEntity
  8
0
  6
Continuous
 62
     7
 48
5.0
370
     0
100
AcDbSpline
210
0.0
220
0.0
230
1.0
 70
     8
 71
     3
 72
    26
 73
    22
 74
     0
 42
0.00000001
 43
0.00000001
 40
0.0
 40
0.0
 40
0.0
 40
0.0
 40
0.1250000000000001
 40
0.1250000000000001
 40
0.1875000000000004
 40
0.1875000000000004
 40
0.2500000000000007
 40
0.2500000000000007
 40
0.3750000000000008
 40
0.3750000000000008
 40
0.5000000000000009
 40
0.5000000000000009
 40
0.625000000000001
 40
0.625000000000001
 40
0.7500000000000011
 40
0.7500000000000011
 40
0.8750000000000012
 40
0.8750000000000012
 40
0.9375000000000006
 40
0.9375000000000006
 40
1.0
 40
1.0
 40
1.0
 40
1.0
 10
1606.619452206646
 20
1018.874443123581
 30
0.0
 10
1606.722782553589
 20
1018.466769077602
 30
0.0
 10
1606.812656006301
 20
1018.043746945767
 30
0.0
 10
1606.937224840473
 20
1017.391457824549
 30
0.0
 10
1606.977206075872
 20
1017.169508920066
 30
0.0
 10
1607.052955677492
 20
1016.729543323639
 30
0.0
 10
1607.088809514396
 20
1016.511246754611
 30
0.0
 10
1607.191967099844
 20
1015.860967172423
 30
0.0
 10
1607.255142559871
 20
1015.432165007094
 30
0.0
 10
1607.374423240428
 20
1014.59150501226
 30
0.0
 10
1607.429295420777
 20
1014.188316830101
 30
0.0
 10
1607.533832983693
 20
1013.410252433608
 30
0.0
 10
1607.583444611159
 20
1013.035446692075
 30
0.0
 10
1607.679945874079
 20
1012.311774181353
 30
0.0
 10
1607.726451470216
 20
1011.965782042492
 30
0.0
 10
1607.816538941504
 20
1011.313617321072
 30
0.0
 10
1607.860359515074
 20
1011.005539682516
 30
0.0
 10
1607.925514969302
 20
1010.569061677721
 30
0.0
 10
1607.947134501178
 20
1010.427862684509
 30
0.0
 10
1607.990365497873
 20
1010.154055808997
 30
0.0
 10
1608.012136123724
 20
1010.020506932338
 30
0.0
 10
1608.03366576902
 20
1009.893290393216
 30
0.0
  0
ARC
  5
2AE
330
1F
100
AcDbEntity
  8
0
  6
Continuous
 62
     7
 48
25.0
370
     0
100
AcDbCircle
 10
1707.2876378206
 20
1073.2338468852
 30
0.0
 40
11.37235557603317
100
AcDbArc
 50
182.6054784857
 51
237.39452166
  0
LINE
  5
2AF
330
1F
100
AcDbEntity
  8
0
  6
Continuous
 62
     8
 48
5.0
370
     0
100
AcDbLine
 10
1184.0524397696
 20
1204.1172799365
 30
0.0
 11
1460.2992731313
 21
1061.3614406259
 31
0.0
  0
LINE
  5
2B0
330
1F
100
AcDbEntity
  8
0
  6
Continuous
 62
     8
 48
5.0
370
     0
100
AcDbLine
 10
1189.7092940191
 20
1213.9152388789
 30
0.0
 11
1466.5797048872
 21
1070.8371539548
 31
0.0
  0
LINE
  5
2B1
330
1F
100
AcDbEntity
  8
0
  6
Continuous
 62
     8
 48
5.0
370
     0
100
AcDbLine
 10
1184.0524397696
 20
1164.5150505601
 30
0.0
 11
1450.1369950839
 21
1027.0107629661
 31
0.0
  0
LINE
  5
2B2
330
1F
100
AcDbEntity
  8
0
  6
Continuous
 62
     8
 48
5.0
370
     0
100
AcDbLine
 10
1247.4092073639
 20
1247.2246898413
 30
0.0
 11
1518.4917836657
 21
1107.1375792253
 31
0.0
  0
LINE
  5
2B3
330
1F
100
AcDbEntity
  8
0
  6
Continuous
 62
     8
 48
5.0
370
     0
100
AcDbLine
 10
1543.2626846123
 20
980.9924963147
 30
0.0
 11
1541.7829490432
 21
981.7571779965
 31
0.0
  0
LINE
  5
2B4
330
1F
100
AcDbEntity
  8
0
  6
Continuous
 62
     8
 48
5.0
370
     0
100
AcDbLine
 10
1600.9625979572
 20
1014.3019472771
 30
0.0
 11
1559.5402899002
 21
1035.7077179094
 31
0.0
  0
LINE
  5
2B5
330
1F
100
AcDbEntity
  8
0
  6
Continuous
 62
     8
 48
5.0
370
     0
100
AcDbLine
 10
1604.4858464879
 20
1060.0342496953
 30
0.0
 11
1603.0117639396
 21
1060.7960100704
 31
0.0
  0
LINE
  5
2B6
330
1F
100
AcDbEntity
  8
0
  6
Continuous
 62
     8
 48
5.0
370
     0
100
AcDbLine
 10
1604.4981318631
 20
1020.4256716161
 30
0.0
 11
1566.8075348601
 21
1039.9030091255
 31
0.0
  0
MTEXT
  5
2B7
330
1F
100
AcDbEntity
  8
SLD-0
 62
     1
 48
5.0
100
AcDbMText
 10
1495.8455653572
 20
829.4437946211
 30
0.0
 40
10.5833333333
 41
0.0
 71
     1
 72
     1
  1
ISOMETRIC VIEW
  7
SLDTEXTSTYLE1
 73
     1
 44
1.0
  0
ENDSEC
  0
SECTION
  2
OBJECTS
  0
DICTIONARY
  5
C
330
0
100
AcDbDictionary
281
     1
  3
ACAD_GROUP
350
D
  3
ACAD_LAYOUT
350
1A
  3
ACAD_MLEADERSTYLE
350
2BA
  3
ACAD_MLINESTYLE
350
17
  3
ACAD_PLOTSETTINGS
350
19
  3
ACAD_PLOTSTYLENAME
350
E
  3
ACAD_SCALELIST
350
F7
  3
ACAD_VISUALSTYLE
350
2A
  3
AcDbVariableDictionary
350
2B8
  0
DICTIONARY
  5
D
102
{ACAD_REACTORS
330
C
102
}
330
C
100
AcDbDictionary
281
     1
  0
DICTIONARY
  5
1A
102
{ACAD_REACTORS
330
C
102
}
330
C
100
AcDbDictionary
281
     1
  3
Layout1
350
1E
  3
Layout2
350
26
  3
Model
350
22
  0
DICTIONARY
  5
2BA
102
{ACAD_REACTORS
330
C
102
}
330
C
100
AcDbDictionary
281
     1
  0
DICTIONARY
  5
17
102
{ACAD_REACTORS
330
C
102
}
330
C
100
AcDbDictionary
281
     1
  3
Standard
350
18
  0
DICTIONARY
  5
19
102
{ACAD_REACTORS
330
C
102
}
330
C
100
AcDbDictionary
281
     1
  0
ACDBDICTIONARYWDFLT
  5
E
102
{ACAD_REACTORS
330
C
102
}
330
C
100
AcDbDictionary
281
     1
  3
Normal
350
F
100
AcDbDictionaryWithDefault
340
F
  0
DICTIONARY
  5
F7
102
{ACAD_REACTORS
330
C
102
}
330
C
100
AcDbDictionary
281
     1
  3
A0
350
F8
  3
A1
350
F9
  3
A2
350
FA
  3
A3
350
FB
  3
A4
350
FC
  3
A5
350
FD
  3
A6
350
FE
  3
A7
350
FF
  3
A8
350
100
  3
A9
350
101
  3
B0
350
102
  3
B1
350
103
  3
B2
350
104
  3
B3
350
105
  3
B4
350
106
  3
B5
350
107
  3
B6
350
108
  3
B7
350
109
  3
B8
350
10A
  3
B9
350
10B
  3
C0
350
10C
  3
C1
350
10D
  3
C2
350
10E
  3
C3
350
10F
  3
C4
350
110
  3
C5
350
111
  3
C6
350
112
  3
C7
350
113
  3
C8
350
114
  3
C9
350
115
  3
D0
350
116
  3
D1
350
117
  3
D2
350
118
  0
DICTIONARY
  5
2A
102
{ACAD_REACTORS
330
C
102
}
330
C
100
AcDbDictionary
281
     1
  3
2dWireframe
350
2F
  3
3D Hidden
350
31
  3
3dWireframe
350
30
  3
Basic
350
32
  3
Brighten
350
36
  3
ColorChange
350
3A
  3
Conceptual
350
34
  3
Dim
350
35
  3
Facepattern
350
39
  3
Flat
350
2B
  3
FlatWithEdges
350
2C
  3
Gouraud
350
2D
  3
GouraudWithEdges
350
2E
  3
Linepattern
350
38
  3
Realistic
350
33
  3
Thicken
350
37
  0
DICTIONARY
  5
2B8
102
{ACAD_REACTORS
330
C
102
}
330
C
100
AcDbDictionary
281
     1
  3
CANNOSCALE
350
2BD
  3
DIMASSOC
350
2BE
  3
HIDETEXT
350
2BF
  3
PSOLHEIGHT
350
2BC
  3
PSOLWIDTH
350
2BB
  0
LAYOUT
  5
1E
102
{ACAD_REACTORS
330
1A
102
}
330
1A
100
AcDbPlotSettings
  1

  2
none_device
  4

  6

 40
0.0
 41
0.0
 42
0.0
 43
0.0
 44
0.0
 45
0.0
 46
0.0
 47
0.0
 48
0.0
 49
0.0
140
0.0
141
0.0
142
1.0
143
1.0
 70
   688
 72
     0
 73
     0
 74
     5
  7

 75
    16
147
1.0
148
0.0
149
0.0
100
AcDbLayout
  1
Layout1
 70
     1
 71
     1
 10
0.0
 20
0.0
 11
420.0
 21
297.0
 12
0.0
 22
0.0
 32
0.0
 14
1.0000000000E+20
 24
1.0000000000E+20
 34
1.0000000000E+20
 15
-1.0000000000E+20
 25
-1.0000000000E+20
 35
-1.0000000000E+20
146
0.0
 13
0.0
 23
0.0
 33
0.0
 16
1.0
 26
0.0
 36
0.0
 17
0.0
 27
1.0
 37
0.0
 76
     0
330
1B
  0
LAYOUT
  5
26
102
{ACAD_REACTORS
330
1A
102
}
330
1A
100
AcDbPlotSettings
  1

  2
none_device
  4

  6

 40
0.0
 41
0.0
 42
0.0
 43
0.0
 44
0.0
 45
0.0
 46
0.0
 47
0.0
 48
0.0
 49
0.0
140
0.0
141
0.0
142
1.0
143
1.0
 70
   688
 72
     0
 73
     0
 74
     5
  7

 75
    16
147
1.0
148
0.0
149
0.0
100
AcDbLayout
  1
Layout2
 70
     1
 71
     2
 10
0.0
 20
0.0
 11
0.0
 21
0.0
 12
0.0
 22
0.0
 32
0.0
 14
0.0
 24
0.0
 34
0.0
 15
0.0
 25
0.0
 35
0.0
146
0.0
 13
0.0
 23
0.0
 33
0.0
 16
1.0
 26
0.0
 36
0.0
 17
0.0
 27
1.0
 37
0.0
 76
     0
330
23
  0
LAYOUT
  5
22
102
{ACAD_REACTORS
330
1A
102
}
330
1A
100
AcDbPlotSettings
  1

  2
none_device
  4

  6

 40
0.0
 41
0.0
 42
0.0
 43
0.0
 44
0.0
 45
0.0
 46
0.0
 47
0.0
 48
0.0
 49
0.0
140
0.0
141
0.0
142
1.0
143
1.0
 70
  1712
 72
     0
 73
     0
 74
     0
  7

 75
     0
147
1.0
148
0.0
149
0.0
100
AcDbLayout
  1
Model
 70
     1
 71
     0
 10
0.0
 20
0.0
 11
2100.0
 21
1485.0
 12
0.0
 22
0.0
 32
0.0
 14
0.0
 24
0.0
 34
0.0
 15
2100.0
 25
1485.0
 35
0.0
146
0.0
 13
0.0
 23
0.0
 33
0.0
 16
1.0
 26
0.0
 36
0.0
 17
0.0
 27
1.0
 37
0.0
 76
     0
330
1F
331
29
  0
MLINESTYLE
  5
18
102
{ACAD_REACTORS
330
17
102
}
330
17
100
AcDbMlineStyle
  2
Standard
 70
     0
  3

 62
   256
 51
90.0
 52
90.0
 71
     2
 49
0.5
 62
   256
  6
BYLAYER
 49
-0.5
 62
   256
  6
BYLAYER
  0
ACDBPLACEHOLDER
  5
F
102
{ACAD_REACTORS
330
E
102
}
330
E
  0
SCALE
  5
F8
102
{ACAD_REACTORS
330
F7
102
}
330
F7
100
AcDbScale
 70
     0
300
1:1
140
1.0
141
1.0
290
     1
  0
SCALE
  5
F9
102
{ACAD_REACTORS
330
F7
102
}
330
F7
100
AcDbScale
 70
     0
300
1:2
140
1.0
141
2.0
290
     0
  0
SCALE
  5
FA
102
{ACAD_REACTORS
330
F7
102
}
330
F7
100
AcDbScale
 70
     0
300
1:4
140
1.0
141
4.0
290
     0
  0
SCALE
  5
FB
102
{ACAD_REACTORS
330
F7
102
}
330
F7
100
AcDbScale
 70
     0
300
1:5
140
1.0
141
5.0
290
     0
  0
SCALE
  5
FC
102
{ACAD_REACTORS
330
F7
102
}
330
F7
100
AcDbScale
 70
     0
300
1:8
140
1.0
141
8.0
290
     0
  0
SCALE
  5
FD
102
{ACAD_REACTORS
330
F7
102
}
330
F7
100
AcDbScale
 70
     0
300
1:10
140
1.0
141
10.0
290
     0
  0
SCALE
  5
FE
102
{ACAD_REACTORS
330
F7
102
}
330
F7
100
AcDbScale
 70
     0
300
1:16
140
1.0
141
16.0
290
     0
  0
SCALE
  5
FF
102
{ACAD_REACTORS
330
F7
102
}
330
F7
100
AcDbScale
 70
     0
300
1:20
140
1.0
141
20.0
290
     0
  0
SCALE
  5
100
102
{ACAD_REACTORS
330
F7
102
}
330
F7
100
AcDbScale
 70
     0
300
1:30
140
1.0
141
30.0
290
     0
  0
SCALE
  5
101
102
{ACAD_REACTORS
330
F7
102
}
330
F7
100
AcDbScale
 70
     0
300
1:40
140
1.0
141
40.0
290
     0
  0
SCALE
  5
102
102
{ACAD_REACTORS
330
F7
102
}
330
F7
100
AcDbScale
 70
     0
300
1:50
140
1.0
141
50.0
290
     0
  0
SCALE
  5
103
102
{ACAD_REACTORS
330
F7
102
}
330
F7
100
AcDbScale
 70
     0
300
1:100
140
1.0
141
100.0
290
     0
  0
SCALE
  5
104
102
{ACAD_REACTORS
330
F7
102
}
330
F7
100
AcDbScale
 70
     0
300
2:1
140
2.0
141
1.0
290
     0
  0
SCALE
  5
105
102
{ACAD_REACTORS
330
F7
102
}
330
F7
100
AcDbScale
 70
     0
300
4:1
140
4.0
141
1.0
290
     0
  0
SCALE
  5
106
102
{ACAD_REACTORS
330
F7
102
}
330
F7
100
AcDbScale
 70
     0
300
8:1
140
8.0
141
1.0
290
     0
  0
SCALE
  5
107
102
{ACAD_REACTORS
330
F7
102
}
330
F7
100
AcDbScale
 70
     0
300
10:1
140
10.0
141
1.0
290
     0
  0
SCALE
  5
108
102
{ACAD_REACTORS
330
F7
102
}
330
F7
100
AcDbScale
 70
     0
300
100:1
140
100.0
141
1.0
290
     0
  0
SCALE
  5
109
102
{ACAD_REACTORS
330
F7
102
}
330
F7
100
AcDbScale
 70
     0
300
1/128" = 1'-0"
140
0.0078125
141
12.0
290
     0
  0
SCALE
  5
10A
102
{ACAD_REACTORS
330
F7
102
}
330
F7
100
AcDbScale
 70
     0
300
1/64" = 1'-0"
140
0.015625
141
12.0
290
     0
  0
SCALE
  5
10B
102
{ACAD_REACTORS
330
F7
102
}
330
F7
100
AcDbScale
 70
     0
300
1/32" = 1'-0"
140
0.03125
141
12.0
290
     0
  0
SCALE
  5
10C
102
{ACAD_REACTORS
330
F7
102
}
330
F7
100
AcDbScale
 70
     0
300
1/16" = 1'-0"
140
0.0625
141
12.0
290
     0
  0
SCALE
  5
10D
102
{ACAD_REACTORS
330
F7
102
}
330
F7
100
AcDbScale
 70
     0
300
3/32" = 1'-0"
140
0.09375
141
12.0
290
     0
  0
SCALE
  5
10E
102
{ACAD_REACTORS
330
F7
102
}
330
F7
100
AcDbScale
 70
     0
300
1/8" = 1'-0"
140
0.125
141
12.0
290
     0
  0
SCALE
  5
10F
102
{ACAD_REACTORS
330
F7
102
}
330
F7
100
AcDbScale
 70
     0
300
3/16" = 1'-0"
140
0.1875
141
12.0
290
     0
  0
SCALE
  5
110
102
{ACAD_REACTORS
330
F7
102
}
330
F7
100
AcDbScale
 70
     0
300
1/4" = 1'-0"
140
0.25
141
12.0
290
     0
  0
SCALE
  5
111
102
{ACAD_REACTORS
330
F7
102
}
330
F7
100
AcDbScale
 70
     0
300
3/8" = 1'-0"
140
0.375
141
12.0
290
     0
  0
SCALE
  5
112
102
{ACAD_REACTORS
330
F7
102
}
330
F7
100
AcDbScale
 70
     0
300
1/2" = 1'-0"
140
0.5
141
12.0
290
     0
  0
SCALE
  5
113
102
{ACAD_REACTORS
330
F7
102
}
330
F7
100
AcDbScale
 70
     0
300
3/4" = 1'-0"
140
0.75
141
12.0
290
     0
  0
SCALE
  5
114
102
{ACAD_REACTORS
330
F7
102
}
330
F7
100
AcDbScale
 70
     0
300
1" = 1'-0"
140
1.0
141
12.0
290
     0
  0
SCALE
  5
115
102
{ACAD_REACTORS
330
F7
102
}
330
F7
100
AcDbScale
 70
     0
300
1-1/2" = 1'-0"
140
1.5
141
12.0
290
     0
  0
SCALE
  5
116
102
{ACAD_REACTORS
330
F7
102
}
330
F7
100
AcDbScale
 70
     0
300
3" = 1'-0"
140
3.0
141
12.0
290
     0
  0
SCALE
  5
117
102
{ACAD_REACTORS
330
F7
102
}
330
F7
100
AcDbScale
 70
     0
300
6" = 1'-0"
140
6.0
141
12.0
290
     0
  0
SCALE
  5
118
102
{ACAD_REACTORS
330
F7
102
}
330
F7
100
AcDbScale
 70
     0
300
1'-0" = 1'-0"
140
12.0
141
12.0
290
     0
  0
VISUALSTYLE
  5
2F
102
{ACAD_REACTORS
330
2A
102
}
330
2A
100
AcDbVisualStyle
  2
2dWireframe
 70
     4
 71
     0
 72
     2
 73
     0
 90
        0
 40
-0.6
 41
-30.0
 62
     5
 63
     7
 74
     1
 91
        4
 64
     7
 65
   257
 75
     1
175
     1
 42
1.0
 92
        0
 66
   257
 43
1.0
 76
     1
 77
     6
 78
     2
 67
     7
 79
     5
170
     0
171
     0
290
     0
174
     0
 93
        1
 44
0.0
173
     0
291
     0
 45
0.0
1001
ACAD
1000
AcDbSavedByObjectVersion
1070
     0
  0
VISUALSTYLE
  5
31
102
{ACAD_REACTORS
330
2A
102
}
330
2A
100
AcDbVisualStyle
  2
3D Hidden
 70
     6
 71
     1
 72
     2
 73
     2
 90
        0
 40
-0.6
 41
-30.0
 62
     5
 63
     7
 74
     2
 91
        2
 64
     7
 65
   257
 75
     2
175
     1
 42
40.0
 92
        0
 66
   257
 43
1.0
 76
     1
 77
     6
 78
     2
 67
     7
 79
     3
170
     0
171
     0
290
     0
174
     0
 93
        1
 44
0.0
173
     0
291
     0
 45
0.0
1001
ACAD
1000
AcDbSavedByObjectVersion
1070
     0
  0
VISUALSTYLE
  5
30
102
{ACAD_REACTORS
330
2A
102
}
330
2A
100
AcDbVisualStyle
  2
3dWireframe
 70
     5
 71
     0
 72
     2
 73
     0
 90
        0
 40
-0.6
 41
-30.0
 62
     5
 63
     7
 74
     1
 91
        4
 64
     7
 65
   257
 75
     1
175
     1
 42
1.0
 92
        0
 66
   257
 43
1.0
 76
     1
 77
     6
 78
     2
 67
     7
 79
     5
170
     0
171
     0
290
     0
174
     0
 93
        1
 44
0.0
173
     0
291
     0
 45
0.0
1001
ACAD
1000
AcDbSavedByObjectVersion
1070
     0
  0
VISUALSTYLE
  5
32
102
{ACAD_REACTORS
330
2A
102
}
330
2A
100
AcDbVisualStyle
  2
Basic
 70
     7
 71
     1
 72
     0
 73
     1
 90
        0
 40
-0.6
 41
-30.0
 62
     5
 63
     7
 74
     0
 91
        4
 64
     7
 65
   257
 75
     1
175
     1
 42
1.0
 92
        8
 66
     7
 43
1.0
 76
     1
 77
     6
 78
     2
 67
     7
 79
     5
170
     0
171
     0
290
     0
174
     0
 93
        1
 44
0.0
173
     0
291
     1
 45
0.0
1001
ACAD
1000
AcDbSavedByObjectVersion
1070
     0
  0
VISUALSTYLE
  5
36
102
{ACAD_REACTORS
330
2A
102
}
330
2A
100
AcDbVisualStyle
  2
Brighten
 70
    12
 71
     2
 72
     2
 73
     0
 90
        0
 40
-0.6
 41
-30.0
 62
     5
 63
     7
 74
     1
 91
        4
 64
     7
 65
   257
 75
     1
175
     1
 42
1.0
 92
        8
 66
     7
 43
1.0
 76
     1
 77
     6
 78
     2
 67
     7
 79
     5
170
     0
171
     0
290
     0
174
     0
 93
        1
 44
50.0
173
     0
291
     1
 45
0.0
1001
ACAD
1000
AcDbSavedByObjectVersion
1070
     0
  0
VISUALSTYLE
  5
3A
102
{ACAD_REACTORS
330
2A
102
}
330
2A
100
AcDbVisualStyle
  2
ColorChange
 70
    16
 71
     2
 72
     2
 73
     3
 90
        0
 40
-0.6
 41
-30.0
 62
     5
 63
     8
 74
     1
 91
        4
 64
     7
 65
   257
 75
     1
175
     1
 42
1.0
 92
        8
 66
     8
 43
1.0
 76
     1
 77
     6
 78
     2
 67
     7
 79
     5
170
     0
171
     0
290
     0
174
     0
 93
        1
 44
0.0
173
     0
291
     1
 45
0.0
1001
ACAD
1000
AcDbSavedByObjectVersion
1070
     0
  0
VISUALSTYLE
  5
34
102
{ACAD_REACTORS
330
2A
102
}
330
2A
100
AcDbVisualStyle
  2
Conceptual
 70
     9
 71
     3
 72
     2
 73
     0
 90
        0
 40
-0.6
 41
-30.0
 62
     5
 63
     7
 74
     2
 91
        2
 64
     7
 65
   257
 75
     1
175
     1
 42
40.0
 92
        8
 66
     7
 43
1.0
 76
     1
 77
     6
 78
     2
 67
     7
 79
     3
170
     0
171
     0
290
     0
174
     0
 93
        1
 44
0.0
173
     0
291
     0
 45
0.0
1001
ACAD
1000
AcDbSavedByObjectVersion
1070
     0
  0
VISUALSTYLE
  5
35
102
{ACAD_REACTORS
330
2A
102
}
330
2A
100
AcDbVisualStyle
  2
Dim
 70
    11
 71
     2
 72
     2
 73
     0
 90
        0
 40
-0.6
 41
-30.0
 62
     5
 63
     7
 74
     1
 91
        4
 64
     7
 65
   257
 75
     1
175
     1
 42
1.0
 92
        8
 66
     7
 43
1.0
 76
     1
 77
     6
 78
     2
 67
     7
 79
     5
170
     0
171
     0
290
     0
174
     0
 93
        1
 44
-50.0
173
     0
291
     1
 45
0.0
1001
ACAD
1000
AcDbSavedByObjectVersion
1070
     0
  0
VISUALSTYLE
  5
39
102
{ACAD_REACTORS
330
2A
102
}
330
2A
100
AcDbVisualStyle
  2
Facepattern
 70
    15
 71
     2
 72
     2
 73
     0
 90
        0
 40
-0.6
 41
-30.0
 62
     5
 63
     7
 74
     1
 91
        4
 64
     7
 65
   257
 75
     1
175
     1
 42
1.0
 92
        8
 66
     7
 43
1.0
 76
     1
 77
     6
 78
     2
 67
     7
 79
     5
170
     0
171
     0
290
     0
174
     0
 93
        1
 44
0.0
173
     0
291
     1
 45
0.0
1001
ACAD
1000
AcDbSavedByObjectVersion
1070
     0
  0
VISUALSTYLE
  5
2B
102
{ACAD_REACTORS
330
2A
102
}
330
2A
100
AcDbVisualStyle
  2
Flat
 70
     0
 71
     2
 72
     1
 73
     1
 90
        2
 40
-0.6
 41
30.0
 62
     5
 63
     7
 74
     0
 91
        4
 64
     7
 65
   257
 75
     1
175
     1
 42
1.0
 92
        8
 66
     7
 43
1.0
 76
     1
 77
     6
 78
     2
 67
     7
 79
     5
170
     0
171
     0
290
     0
174
     0
 93
       13
 44
0.0
173
     0
291
     1
 45
0.0
1001
ACAD
1000
AcDbSavedByObjectVersion
1070
     0
  0
VISUALSTYLE
  5
2C
102
{ACAD_REACTORS
330
2A
102
}
330
2A
100
AcDbVisualStyle
  2
FlatWithEdges
 70
     1
 71
     2
 72
     1
 73
     1
 90
        2
 40
-0.6
 41
30.0
 62
     5
 63
     7
 74
     1
 91
        4
 64
     7
 65
   257
 75
     1
175
     1
 42
1.0
 92
        0
 66
   257
 43
1.0
 76
     1
 77
     6
 78
     2
 67
     7
 79
     5
170
     0
171
     0
290
     0
174
     0
 93
       13
 44
0.0
173
     0
291
     1
 45
0.0
1001
ACAD
1000
AcDbSavedByObjectVersion
1070
     0
  0
VISUALSTYLE
  5
2D
102
{ACAD_REACTORS
330
2A
102
}
330
2A
100
AcDbVisualStyle
  2
Gouraud
 70
     2
 71
     2
 72
     2
 73
     1
 90
        2
 40
-0.6
 41
30.0
 62
     5
 63
     7
 74
     0
 91
        4
 64
     7
 65
   257
 75
     1
175
     1
 42
1.0
 92
        0
 66
     7
 43
1.0
 76
     1
 77
     6
 78
     2
 67
     7
 79
     5
170
     0
171
     0
290
     0
174
     0
 93
       13
 44
0.0
173
     0
291
     1
 45
0.0
1001
ACAD
1000
AcDbSavedByObjectVersion
1070
     0
  0
VISUALSTYLE
  5
2E
102
{ACAD_REACTORS
330
2A
102
}
330
2A
100
AcDbVisualStyle
  2
GouraudWithEdges
 70
     3
 71
     2
 72
     2
 73
     1
 90
        2
 40
-0.6
 41
30.0
 62
     5
 63
     7
 74
     1
 91
        4
 64
     7
 65
   257
 75
     1
175
     1
 42
1.0
 92
        0
 66
   257
 43
1.0
 76
     1
 77
     6
 78
     2
 67
     7
 79
     5
170
     0
171
     0
290
     0
174
     0
 93
       13
 44
0.0
173
     0
291
     1
 45
0.0
1001
ACAD
1000
AcDbSavedByObjectVersion
1070
     0
  0
VISUALSTYLE
  5
38
102
{ACAD_REACTORS
330
2A
102
}
330
2A
100
AcDbVisualStyle
  2
Linepattern
 70
    14
 71
     2
 72
     2
 73
     0
 90
        0
 40
-0.6
 41
-30.0
 62
     5
 63
     7
 74
     1
 91
        4
 64
     7
 65
   257
 75
     7
175
     7
 42
1.0
 92
        8
 66
     7
 43
1.0
 76
     1
 77
     6
 78
     2
 67
     7
 79
     5
170
     0
171
     0
290
     0
174
     0
 93
        1
 44
0.0
173
     0
291
     1
 45
0.0
1001
ACAD
1000
AcDbSavedByObjectVersion
1070
     0
  0
VISUALSTYLE
  5
33
102
{ACAD_REACTORS
330
2A
102
}
330
2A
100
AcDbVisualStyle
  2
Realistic
 70
     8
 71
     2
 72
     2
 73
     0
 90
        0
 40
-0.6
 41
-30.0
 62
     5
 63
     7
 74
     1
 91
        0
 64
     7
 65
   257
 75
     1
175
     1
 42
1.0
 92
        8
 66
     8
 43
1.0
 76
     1
 77
     6
 78
     2
 67
     7
 79
     5
170
     0
171
     0
290
     0
174
     0
 93
       13
 44
0.0
173
     0
291
     0
 45
0.0
1001
ACAD
1000
AcDbSavedByObjectVersion
1070
     0
  0
VISUALSTYLE
  5
37
102
{ACAD_REACTORS
330
2A
102
}
330
2A
100
AcDbVisualStyle
  2
Thicken
 70
    13
 71
     2
 72
     2
 73
     0
 90
        0
 40
-0.6
 41
-30.0
 62
     5
 63
     7
 74
     1
 91
        4
 64
     7
 65
   257
 75
     1
175
     1
 42
1.0
 92
       12
 66
     7
 43
1.0
 76
     1
 77
     6
 78
     2
 67
     7
 79
     5
170
     0
171
     0
290
     0
174
     0
 93
        1
 44
0.0
173
     0
291
     1
 45
0.0
1001
ACAD
1000
AcDbSavedByObjectVersion
1070
     0
  0
DICTIONARYVAR
  5
2BD
102
{ACAD_REACTORS
330
2B8
102
}
330
2B8
100
DictionaryVariables
280
     0
  1
1:1
  0
DICTIONARYVAR
  5
2BE
102
{ACAD_REACTORS
330
2B8
102
}
330
2B8
100
DictionaryVariables
280
     0
  1
2
  0
DICTIONARYVAR
  5
2BF
102
{ACAD_REACTORS
330
2B8
102
}
330
2B8
100
DictionaryVariables
280
     0
  1
1
  0
DICTIONARYVAR
  5
2BC
102
{ACAD_REACTORS
330
2B8
102
}
330
2B8
100
DictionaryVariables
280
     0
  1
80.000000
  0
DICTIONARYVAR
  5
2BB
102
{ACAD_REACTORS
330
2B8
102
}
330
2B8
100
DictionaryVariables
280
     0
  1
5.000000
  0
ENDSEC
  0
EOF
